  0
SECTION
  2
HEADER
  9
$ACADVER
  1
AC1027
  9
$ACADMAINTVER
 70
    57
  9
$DWGCODEPAGE
  3
ANSI_932
  9
$LASTSAVEDBY
  1
K2008073
  9
$REQUIREDVERSIONS
160
                 0
  9
$INSBASE
 10
0.0
 20
0.0
 30
0.0
  9
$EXTMIN
 10
-561.9999999999999
 20
-741.9999999999999
 30
0.0
  9
$EXTMAX
 10
486.9999999999999
 20
741.9999999999999
 30
0.0
  9
$LIMMIN
 10
0.0
 20
0.0
  9
$LIMMAX
 10
2100.0
 20
1485.0
  9
$ORTHOMODE
 70
     0
  9
$REGENMODE
 70
     1
  9
$FILLMODE
 70
     1
  9
$QTEXTMODE
 70
     0
  9
$MIRRTEXT
 70
     0
  9
$LTSCALE
 40
25.0
  9
$ATTMODE
 70
     1
  9
$TEXTSIZE
 40
15.0
  9
$TRACEWID
 40
1.0
  9
$TEXTSTYLE
  7
BIGFONT
  9
$CLAYER
  8
BALN
  9
$CELTYPE
  6
BYLAYER
  9
$CECOLOR
 62
     4
  9
$CELTSCALE
 40
1.0
  9
$DISPSILH
 70
     0
  9
$DIMSCALE
 40
5.0
  9
$DIMASZ
 40
1.5
  9
$DIMEXO
 40
0.0
  9
$DIMDLI
 40
6.0
  9
$DIMRND
 40
0.0
  9
$DIMDLE
 40
0.0
  9
$DIMEXE
 40
2.0
  9
$DIMTP
 40
495.0
  9
$DIMTM
 40
0.0
  9
$DIMTXT
 40
3.0
  9
$DIMCEN
 40
0.0
  9
$DIMTSZ
 40
0.0
  9
$DIMTOL
 70
     0
  9
$DIMLIM
 70
     0
  9
$DIMTIH
 70
     0
  9
$DIMTOH
 70
     0
  9
$DIMSE1
 70
     0
  9
$DIMSE2
 70
     0
  9
$DIMTAD
 70
     3
  9
$DIMZIN
 70
     8
  9
$DIMBLK
  1
OPEN
  9
$DIMASO
 70
     1
  9
$DIMSHO
 70
     1
  9
$DIMPOST
  1

  9
$DIMAPOST
  1

  9
$DIMALT
 70
     0
  9
$DIMALTD
 70
     2
  9
$DIMALTF
 40
25.4
  9
$DIMLFAC
 40
1.0
  9
$DIMTOFL
 70
     1
  9
$DIMTVP
 40
0.0
  9
$DIMTIX
 70
     0
  9
$DIMSOXD
 70
     0
  9
$DIMSAH
 70
     0
  9
$DIMBLK1
  1
OPEN
  9
$DIMBLK2
  1
OPEN
  9
$DIMSTYLE
  2
ITM
  9
$DIMCLRD
 70
     4
  9
$DIMCLRE
 70
     4
  9
$DIMCLRT
 70
   256
  9
$DIMTFAC
 40
1.0
  9
$DIMGAP
 40
0.6
  9
$DIMJUST
 70
     0
  9
$DIMSD1
 70
     0
  9
$DIMSD2
 70
     0
  9
$DIMTOLJ
 70
     0
  9
$DIMTZIN
 70
     8
  9
$DIMALTZ
 70
     0
  9
$DIMALTTZ
 70
     0
  9
$DIMUPT
 70
     1
  9
$DIMDEC
 70
     8
  9
$DIMTDEC
 70
     3
  9
$DIMALTU
 70
     2
  9
$DIMALTTD
 70
     2
  9
$DIMTXSTY
  7
BIGFONT
  9
$DIMAUNIT
 70
     0
  9
$DIMADEC
 70
     8
  9
$DIMALTRND
 40
0.0
  9
$DIMAZIN
 70
     2
  9
$DIMDSEP
 70
    46
  9
$DIMATFIT
 70
     3
  9
$DIMFRAC
 70
     0
  9
$DIMLDRBLK
  1
OPEN
  9
$DIMLUNIT
 70
     2
  9
$DIMLWD
 70
    -2
  9
$DIMLWE
 70
    -2
  9
$DIMTMOVE
 70
     0
  9
$DIMFXL
 40
1.0
  9
$DIMFXLON
 70
     0
  9
$DIMJOGANG
 40
0.7853981633974483
  9
$DIMTFILL
 70
     0
  9
$DIMTFILLCLR
 70
     0
  9
$DIMARCSYM
 70
     0
  9
$DIMLTYPE
  6

  9
$DIMLTEX1
  6

  9
$DIMLTEX2
  6

  9
$DIMTXTDIRECTION
 70
     0
  9
$LUNITS
 70
     2
  9
$LUPREC
 70
     8
  9
$SKETCHINC
 40
1.0
  9
$FILLETRAD
 40
0.9
  9
$AUNITS
 70
     0
  9
$AUPREC
 70
     8
  9
$MENU
  1
.
  9
$ELEVATION
 40
0.0
  9
$PELEVATION
 40
0.0
  9
$THICKNESS
 40
0.0
  9
$LIMCHECK
 70
     0
  9
$CHAMFERA
 40
10.0
  9
$CHAMFERB
 40
10.0
  9
$CHAMFERC
 40
0.0
  9
$CHAMFERD
 40
0.0
  9
$SKPOLY
 70
     0
  9
$TDCREATE
 40
2457175.427189722
  9
$TDUCREATE
 40
2457175.052189722
  9
$TDUPDATE
 40
2458591.468743287
  9
$TDUUPDATE
 40
2458591.093743287
  9
$TDINDWG
 40
0.6867504745
  9
$TDUSRTIMER
 40
0.6867503125
  9
$USRTIMER
 70
     1
  9
$ANGBASE
 50
0.0
  9
$ANGDIR
 70
     0
  9
$PDMODE
 70
     0
  9
$PDSIZE
 40
0.0
  9
$PLINEWID
 40
0.0
  9
$SPLFRAME
 70
     0
  9
$SPLINETYPE
 70
     6
  9
$SPLINESEGS
 70
     8
  9
$HANDSEED
  5
5317
  9
$SURFTAB1
 70
     6
  9
$SURFTAB2
 70
     6
  9
$SURFTYPE
 70
     6
  9
$SURFU
 70
     6
  9
$SURFV
 70
     6
  9
$UCSBASE
  2

  9
$UCSNAME
  2

  9
$UCSORG
 10
0.0
 20
0.0
 30
0.0
  9
$UCSXDIR
 10
1.0
 20
0.0
 30
0.0
  9
$UCSYDIR
 10
0.0
 20
1.0
 30
0.0
  9
$UCSORTHOREF
  2

  9
$UCSORTHOVIEW
 70
     0
  9
$UCSORGTOP
 10
0.0
 20
0.0
 30
0.0
  9
$UCSORGBOTTOM
 10
0.0
 20
0.0
 30
0.0
  9
$UCSORGLEFT
 10
0.0
 20
0.0
 30
0.0
  9
$UCSORGRIGHT
 10
0.0
 20
0.0
 30
0.0
  9
$UCSORGFRONT
 10
0.0
 20
0.0
 30
0.0
  9
$UCSORGBACK
 10
0.0
 20
0.0
 30
0.0
  9
$PUCSBASE
  2

  9
$PUCSNAME
  2

  9
$PUCSORG
 10
0.0
 20
0.0
 30
0.0
  9
$PUCSXDIR
 10
1.0
 20
0.0
 30
0.0
  9
$PUCSYDIR
 10
0.0
 20
1.0
 30
0.0
  9
$PUCSORTHOREF
  2

  9
$PUCSORTHOVIEW
 70
     0
  9
$PUCSORGTOP
 10
0.0
 20
0.0
 30
0.0
  9
$PUCSORGBOTTOM
 10
0.0
 20
0.0
 30
0.0
  9
$PUCSORGLEFT
 10
0.0
 20
0.0
 30
0.0
  9
$PUCSORGRIGHT
 10
0.0
 20
0.0
 30
0.0
  9
$PUCSORGFRONT
 10
0.0
 20
0.0
 30
0.0
  9
$PUCSORGBACK
 10
0.0
 20
0.0
 30
0.0
  9
$USERI1
 70
     3
  9
$USERI2
 70
     1
  9
$USERI3
 70
     5
  9
$USERI4
 70
     2
  9
$USERI5
 70
     0
  9
$USERR1
 40
5.0
  9
$USERR2
 40
3.0
  9
$USERR3
 40
3.0
  9
$USERR4
 40
1.5
  9
$USERR5
 40
8.0
  9
$WORLDVIEW
 70
     1
  9
$SHADEDGE
 70
     3
  9
$SHADEDIF
 70
    70
  9
$TILEMODE
 70
     1
  9
$MAXACTVP
 70
    16
  9
$PINSBASE
 10
0.0
 20
0.0
 30
0.0
  9
$PLIMCHECK
 70
     0
  9
$PEXTMIN
 10
1.000000000000000E+20
 20
1.000000000000000E+20
 30
1.000000000000000E+20
  9
$PEXTMAX
 10
-1.000000000000000E+20
 20
-1.000000000000000E+20
 30
-1.000000000000000E+20
  9
$PLIMMIN
 10
0.0
 20
0.0
  9
$PLIMMAX
 10
420.0
 20
297.0
  9
$UNITMODE
 70
     0
  9
$VISRETAIN
 70
     0
  9
$PLINEGEN
 70
     0
  9
$PSLTSCALE
 70
     1
  9
$TREEDEPTH
 70
     0
  9
$CMLSTYLE
  2
STANDARD
  9
$CMLJUST
 70
     0
  9
$CMLSCALE
 40
1.0
  9
$PROXYGRAPHICS
 70
     1
  9
$MEASUREMENT
 70
     1
  9
$CELWEIGHT
370
    -1
  9
$ENDCAPS
280
     0
  9
$JOINSTYLE
280
     0
  9
$LWDISPLAY
290
     0
  9
$INSUNITS
 70
     0
  9
$HYPERLINKBASE
  1

  9
$STYLESHEET
  1
monochrome.ctb
  9
$XEDIT
290
     1
  9
$CEPSNTYPE
380
     0
  9
$PSTYLEMODE
290
     1
  9
$FINGERPRINTGUID
  2
{969A4899-1906-4D4C-9BC5-EFB286F67218}
  9
$VERSIONGUID
  2
{F0612EB4-DFA1-448C-96AF-374B9C1C7781}
  9
$EXTNAMES
290
     1
  9
$PSVPSCALE
 40
0.0
  9
$OLESTARTUP
290
     0
  9
$SORTENTS
280
   127
  9
$INDEXCTL
280
     0
  9
$HIDETEXT
280
     0
  9
$XCLIPFRAME
280
     0
  9
$HALOGAP
280
     0
  9
$OBSCOLOR
 70
   257
  9
$OBSLTYPE
280
     0
  9
$INTERSECTIONDISPLAY
280
     0
  9
$INTERSECTIONCOLOR
 70
   257
  9
$DIMASSOC
280
     1
  9
$PROJECTNAME
  1

  9
$CAMERADISPLAY
290
     0
  9
$LENSLENGTH
 40
50.0
  9
$CAMERAHEIGHT
 40
0.0
  9
$STEPSPERSEC
 40
2.0
  9
$STEPSIZE
 40
6.0
  9
$3DDWFPREC
 40
2.0
  9
$PSOLWIDTH
 40
0.25
  9
$PSOLHEIGHT
 40
4.0
  9
$LOFTANG1
 40
1.570796326794896
  9
$LOFTANG2
 40
1.570796326794896
  9
$LOFTMAG1
 40
0.0
  9
$LOFTMAG2
 40
0.0
  9
$LOFTPARAM
 70
     7
  9
$LOFTNORMALS
280
     1
  9
$LATITUDE
 40
37.795
  9
$LONGITUDE
 40
-122.394
  9
$NORTHDIRECTION
 40
0.0
  9
$TIMEZONE
 70
 -8000
  9
$LIGHTGLYPHDISPLAY
280
     1
  9
$TILEMODELIGHTSYNCH
280
     1
  9
$CMATERIAL
347
55D
  9
$SOLIDHIST
280
     1
  9
$SHOWHIST
280
     1
  9
$DWFFRAME
280
     2
  9
$DGNFRAME
280
     0
  9
$REALWORLDSCALE
290
     1
  9
$INTERFERECOLOR
 62
     1
  9
$INTERFEREOBJVS
345
57F
  9
$INTERFEREVPVS
346
5EC
  9
$CSHADOW
280
     0
  9
$SHADOWPLANELOCATION
 40
0.0
  0
ENDSEC
  0
SECTION
  2
CLASSES
  0
CLASS
  1
ACDBDICTIONARYWDFLT
  2
AcDbDictionaryWithDefault
  3
ObjectDBX Classes
 90
        0
 91
        1
280
     0
281
     0
  0
CLASS
  1
TABLESTYLE
  2
AcDbTableStyle
  3
ObjectDBX Classes
 90
     4095
 91
        1
280
     0
281
     0
  0
CLASS
  1
DICTIONARYVAR
  2
AcDbDictionaryVar
  3
ObjectDBX Classes
 90
        0
 91
        9
280
     0
281
     0
  0
CLASS
  1
MATERIAL
  2
AcDbMaterial
  3
ObjectDBX Classes
 90
     1153
 91
        3
280
     0
281
     0
  0
CLASS
  1
VISUALSTYLE
  2
AcDbVisualStyle
  3
ObjectDBX Classes
 90
     4095
 91
       26
280
     0
281
     0
  0
CLASS
  1
SCALE
  2
AcDbScale
  3
ObjectDBX Classes
 90
     1153
 91
       33
280
     0
281
     0
  0
CLASS
  1
MLEADERSTYLE
  2
AcDbMLeaderStyle
  3
ACDB_MLEADERSTYLE_CLASS
 90
     4095
 91
        2
280
     0
281
     0
  0
CLASS
  1
CELLSTYLEMAP
  2
AcDbCellStyleMap
  3
ObjectDBX Classes
 90
     1152
 91
        2
280
     0
281
     0
  0
CLASS
  1
ACDBSECTIONVIEWSTYLE
  2
AcDbSectionViewStyle
  3
ObjectDBX Classes
 90
     1025
 91
        2
280
     0
281
     0
  0
CLASS
  1
ACDBDETAILVIEWSTYLE
  2
AcDbDetailViewStyle
  3
ObjectDBX Classes
 90
     1025
 91
        2
280
     0
281
     0
  0
CLASS
  1
EXACXREFPANELOBJECT
  2
ExAcXREFPanelObject
  3
EXAC_ESW
 90
     1025
 91
        0
280
     0
281
     0
  0
CLASS
  1
NPOCOLLECTION
  2
AcDbImpNonPersistentObjectsCollection
  3
ObjectDBX Classes
 90
     1153
 91
        0
280
     0
281
     0
  0
CLASS
  1
SORTENTSTABLE
  2
AcDbSortentsTable
  3
ObjectDBX Classes
 90
        0
 91
        1
280
     0
281
     0
  0
CLASS
  1
SOLID_BACKGROUND
  2
AcDbSolidBackground
  3
SCENEOE
 90
     4095
 91
        0
280
     0
281
     0
  0
CLASS
  1
GROUND_PLANE_BACKGROUND
  2
AcDbGroundPlaneBackground
  3
SCENEOE
 90
     4095
 91
        0
280
     0
281
     0
  0
CLASS
  1
MULTILEADER
  2
AcDbMLeader
  3
ACDB_MLEADER_CLASS
 90
     1025
 91
        0
280
     0
281
     1
  0
ENDSEC
  0
SECTION
  2
TABLES
  0
TABLE
  2
VPORT
  5
8
330
0
100
AcDbSymbolTable
 70
     1
  0
VPORT
  5
55B
330
8
100
AcDbSymbolTableRecord
100
AcDbViewportTableRecord
  2
*Active
 70
     0
 10
0.0
 20
0.0
 11
1.0
 21
1.0
 12
68.32868010187349
 22
-608.0878250291808
 13
0.0
 23
0.0
 14
10.0
 24
10.0
 15
10.0
 25
10.0
 16
0.0
 26
0.0
 36
1.0
 17
0.0
 27
0.0
 37
0.0
 40
1488.424498668297
 41
1.883614088820826
 42
50.0
 43
0.0
 44
0.0
 50
0.0
 51
0.0
 71
     0
 72
  1000
 73
     1
 74
     1
 75
     0
 76
     0
 77
     0
 78
     0
281
     0
 65
     1
110
0.0
120
0.0
130
0.0
111
1.0
121
0.0
131
0.0
112
0.0
122
1.0
132
0.0
 79
     0
146
0.0
348
57B
 60
     3
 61
     5
292
     1
282
     1
141
0.0
142
0.0
 63
   250
421
  3355443
1001
ACAD_NAV_VCDISPLAY
1070
     3
  0
ENDTAB
  0
TABLE
  2
LTYPE
  5
5
330
0
100
AcDbSymbolTable
 70
    18
  0
LTYPE
  5
14
330
5
100
AcDbSymbolTableRecord
100
AcDbLinetypeTableRecord
  2
BYBLOCK
 70
     0
  3

 72
    65
 73
     0
 40
0.0
  0
LTYPE
  5
15
330
5
100
AcDbSymbolTableRecord
100
AcDbLinetypeTableRecord
  2
BYLAYER
 70
     0
  3

 72
    65
 73
     0
 40
0.0
  0
LTYPE
  5
16
330
5
100
AcDbSymbolTableRecord
100
AcDbLinetypeTableRecord
  2
CONTINUOUS
 70
     0
  3
Solid line
 72
    65
 73
     0
 40
0.0
  0
LTYPE
  5
55
330
5
100
AcDbSymbolTableRecord
100
AcDbLinetypeTableRecord
  2
DASHED
 70
     0
  3
__ __ __ __ __ __ __ __ __ __ __ __ __ __ __
 72
    65
 73
     2
 40
0.75
 49
0.5
 74
     0
 49
-0.25
 74
     0
  0
LTYPE
  5
56
330
5
100
AcDbSymbolTableRecord
100
AcDbLinetypeTableRecord
  2
CENTER
 70
     0
  3
____ _ ____ _ ____ _ ____ _ ____ _ ____ _ ____
 72
    65
 73
     4
 40
2.0
 49
1.25
 74
     0
 49
-0.25
 74
     0
 49
0.25
 74
     0
 49
-0.25
 74
     0
  0
LTYPE
  5
57
330
5
100
AcDbSymbolTableRecord
100
AcDbLinetypeTableRecord
  2
PHANTOM
 70
     0
  3
_____ _ _ _____ _ _ _____ _ _ _____ _ _ ____
 72
    65
 73
     6
 40
2.5
 49
1.25
 74
     0
 49
-0.25
 74
     0
 49
0.25
 74
     0
 49
-0.25
 74
     0
 49
0.25
 74
     0
 49
-0.25
 74
     0
  0
LTYPE
  5
58
330
5
100
AcDbSymbolTableRecord
100
AcDbLinetypeTableRecord
  2
HIDDEN
 70
     0
  3
_ _ _ _ _ _ _ _ _ _ _ _ _ _ _ _ _ _ _ _ _ _ _
 72
    65
 73
     2
 40
0.375
 49
0.25
 74
     0
 49
-0.125
 74
     0
  0
LTYPE
  5
440
330
5
100
AcDbSymbolTableRecord
100
AcDbLinetypeTableRecord
  2
CONTINUOUS-S
 70
     0
  3
Solid line
 72
    65
 73
     0
 40
0.0
  0
LTYPE
  5
441
330
5
100
AcDbSymbolTableRecord
100
AcDbLinetypeTableRecord
  2
CONTINUOUS-F
 70
     0
  3
Solid line
 72
    65
 73
     0
 40
0.0
  0
LTYPE
  5
442
330
5
100
AcDbSymbolTableRecord
100
AcDbLinetypeTableRecord
  2
CENTER-F
 70
     0
  3
____ _ ____ _ ____ _ ____ _ ____ _ ____ _ ____
 72
    65
 73
     4
 40
2.0
 49
1.25
 74
     0
 49
-0.25
 74
     0
 49
0.25
 74
     0
 49
-0.25
 74
     0
  0
LTYPE
  5
443
330
5
100
AcDbSymbolTableRecord
100
AcDbLinetypeTableRecord
  2
PHANTOM-F
 70
     0
  3
_____ _ _ _____ _ _ _____ _ _ _____ _ _ ____
 72
    65
 73
     6
 40
2.5
 49
1.25
 74
     0
 49
-0.25
 74
     0
 49
0.25
 74
     0
 49
-0.25
 74
     0
 49
0.25
 74
     0
 49
-0.25
 74
     0
  0
LTYPE
  5
444
330
5
100
AcDbSymbolTableRecord
100
AcDbLinetypeTableRecord
  2
DASHED-F
 70
     0
  3
__ __ __ __ __ __ __ __ __ __ __ __ __ __ __
 72
    65
 73
     2
 40
0.75
 49
0.5
 74
     0
 49
-0.25
 74
     0
  0
LTYPE
  5
445
330
5
100
AcDbSymbolTableRecord
100
AcDbLinetypeTableRecord
  2
CONTINUOUS-C
 70
     0
  3
Solid line
 72
    65
 73
     0
 40
0.0
  0
LTYPE
  5
446
330
5
100
AcDbSymbolTableRecord
100
AcDbLinetypeTableRecord
  2
CENTER-C
 70
     0
  3
____ _ ____ _ ____ _ ____ _ ____ _ ____ _ ____
 72
    65
 73
     4
 40
2.0
 49
1.25
 74
     0
 49
-0.25
 74
     0
 49
0.25
 74
     0
 49
-0.25
 74
     0
  0
LTYPE
  5
447
330
5
100
AcDbSymbolTableRecord
100
AcDbLinetypeTableRecord
  2
PHANTOM-C
 70
     0
  3
_____ _ _ _____ _ _ _____ _ _ _____ _ _ ____
 72
    65
 73
     6
 40
2.5
 49
1.25
 74
     0
 49
-0.25
 74
     0
 49
0.25
 74
     0
 49
-0.25
 74
     0
 49
0.25
 74
     0
 49
-0.25
 74
     0
  0
LTYPE
  5
448
330
5
100
AcDbSymbolTableRecord
100
AcDbLinetypeTableRecord
  2
DASHED-C
 70
     0
  3
__ __ __ __ __ __ __ __ __ __ __ __ __ __ __
 72
    65
 73
     2
 40
0.75
 49
0.5
 74
     0
 49
-0.25
 74
     0
  0
LTYPE
  5
449
330
5
100
AcDbSymbolTableRecord
100
AcDbLinetypeTableRecord
  2
CENTER-S
 70
     0
  3
____ _ ____ _ ____ _ ____ _ ____ _ ____ _ ____
 72
    65
 73
     4
 40
2.0
 49
1.25
 74
     0
 49
-0.25
 74
     0
 49
0.25
 74
     0
 49
-0.25
 74
     0
  0
LTYPE
  5
44A
330
5
100
AcDbSymbolTableRecord
100
AcDbLinetypeTableRecord
  2
PHANTOM-S
 70
     0
  3
_____ _ _ _____ _ _ _____ _ _ _____ _ _ ____
 72
    65
 73
     6
 40
2.5
 49
1.25
 74
     0
 49
-0.25
 74
     0
 49
0.25
 74
     0
 49
-0.25
 74
     0
 49
0.25
 74
     0
 49
-0.25
 74
     0
  0
LTYPE
  5
44B
330
5
100
AcDbSymbolTableRecord
100
AcDbLinetypeTableRecord
  2
DASHED-S
 70
     0
  3
__ __ __ __ __ __ __ __ __ __ __ __ __ __ __
 72
    65
 73
     2
 40
0.75
 49
0.5
 74
     0
 49
-0.25
 74
     0
  0
LTYPE
  5
472C
330
5
100
AcDbSymbolTableRecord
100
AcDbLinetypeTableRecord
  2
CENTER2
 70
     0
  3
___ _ ___ _ ___ _ ___ _ ___ _ ___ _ ___ _ ___ _
 72
    65
 73
     4
 40
1.125
 49
0.75
 74
     0
 49
-0.125
 74
     0
 49
0.125
 74
     0
 49
-0.125
 74
     0
  0
ENDTAB
  0
TABLE
  2
LAYER
  5
2
102
{ACAD_XDICTIONARY
360
60C
102
}
330
0
100
AcDbSymbolTable
 70
     4
  0
LAYER
  5
F
102
{ACAD_XDICTIONARY
360
5D5
102
}
330
2
100
AcDbSymbolTableRecord
100
AcDbLayerTableRecord
  2
0
 70
     4
 62
     7
  6
CONTINUOUS
370
    -3
390
4BB
347
56D
348
0
  0
LAYER
  5
42B
330
2
100
AcDbSymbolTableRecord
100
AcDbLayerTableRecord
  2
DEFPOINTS
 70
     4
 62
     7
  6
CONTINUOUS
290
     0
370
    -3
390
4BB
347
56D
348
0
  0
LAYER
  5
44C
102
{ACAD_XDICTIONARY
360
5D7
102
}
330
2
100
AcDbSymbolTableRecord
100
AcDbLayerTableRecord
  2
BALN
 70
     0
 62
     7
  6
CONTINUOUS
370
    -3
390
4BB
347
56D
348
0
1001
LAYTOOL
1070
     1
  0
LAYER
  5
4B11
102
{ACAD_XDICTIONARY
360
4B12
102
}
330
2
100
AcDbSymbolTableRecord
100
AcDbLayerTableRecord
  2
422044
 70
     0
 62
     2
  6
CONTINUOUS
370
    -3
390
4BB
347
56D
348
0
  0
ENDTAB
  0
TABLE
  2
STYLE
  5
3
330
0
100
AcDbSymbolTable
 70
     7
  0
STYLE
  5
10
330
3
100
AcDbSymbolTableRecord
100
AcDbTextStyleTableRecord
  2
STANDARD
 70
     0
 40
0.0
 41
0.833
 50
0.0
 71
     0
 42
2.5
  3
ROMANS.shx
  4
bigfont.shx
  0
STYLE
  5
232
330
3
100
AcDbSymbolTableRecord
100
AcDbTextStyleTableRecord
  2

 70
     1
 40
0.0
 41
1.0
 50
0.0
 71
     0
 42
2.5
  3
ltypeshp.shx
  4

  0
STYLE
  5
2CC
330
3
100
AcDbSymbolTableRecord
100
AcDbTextStyleTableRecord
  2
BIGFONT
 70
     0
 40
0.0
 41
0.833
 50
0.0
 71
     0
 42
15.0
  3
ROMANS.shx
  4
bigfont.shx
  0
STYLE
  5
2E0
330
3
100
AcDbSymbolTableRecord
100
AcDbTextStyleTableRecord
  2
K
 70
     0
 40
0.0
 41
0.833
 50
0.0
 71
     0
 42
3.0
  3
ROMANS.shx
  4
bigfont.shx
  0
STYLE
  5
42C
330
3
100
AcDbSymbolTableRecord
100
AcDbTextStyleTableRecord
  2
MS-Pゴシック
 70
     0
 40
0.0
 41
1.0
 50
0.0
 71
     0
 42
3.0
  3

  4

1001
ACAD
1000
@MS PGothic
1071
    32818
  0
STYLE
  5
44D
330
3
100
AcDbSymbolTableRecord
100
AcDbTextStyleTableRecord
  2
TSTANDARD
 70
     4
 40
0.0
 41
0.833
 50
0.0
 71
     0
 42
5.0
  3
ROMANS
  4
BIGFONT
  0
STYLE
  5
44E
330
3
100
AcDbSymbolTableRecord
100
AcDbTextStyleTableRecord
  2
TBIGFONT
 70
     4
 40
0.0
 41
0.833
 50
0.0
 71
     0
 42
5.0
  3
ROMANS
  4
BIGFONT
  0
ENDTAB
  0
TABLE
  2
VIEW
  5
6
330
0
100
AcDbSymbolTable
 70
     0
  0
ENDTAB
  0
TABLE
  2
UCS
  5
7
330
0
100
AcDbSymbolTable
 70
     0
  0
ENDTAB
  0
TABLE
  2
APPID
  5
9
330
0
100
AcDbSymbolTable
 70
    17
  0
APPID
  5
11
330
9
100
AcDbSymbolTableRecord
100
AcDbRegAppTableRecord
  2
ACAD
 70
     0
  0
APPID
  5
24D
330
9
100
AcDbSymbolTableRecord
100
AcDbRegAppTableRecord
  2
LAYTOOL
 70
     0
  0
APPID
  5
260
330
9
100
AcDbSymbolTableRecord
100
AcDbRegAppTableRecord
  2
EXPFLAG
 70
     0
  0
APPID
  5
508
330
9
100
AcDbSymbolTableRecord
100
AcDbRegAppTableRecord
  2
AcAecLayerStandard
 70
     0
  0
APPID
  5
512
330
9
100
AcDbSymbolTableRecord
100
AcDbRegAppTableRecord
  2
ACAD_DSTYLE_DIMTEXT_FILL
 70
     0
  0
APPID
  5
5AA
330
9
100
AcDbSymbolTableRecord
100
AcDbRegAppTableRecord
  2
ACAD_MLEADERVER
 70
     0
  0
APPID
  5
5C4
330
9
100
AcDbSymbolTableRecord
100
AcDbRegAppTableRecord
  2
ACAD_PSEXT
 70
     0
  0
APPID
  5
605
330
9
100
AcDbSymbolTableRecord
100
AcDbRegAppTableRecord
  2
ACAD_DSTYLE_DIMJAG
 70
     0
  0
APPID
  5
606
330
9
100
AcDbSymbolTableRecord
100
AcDbRegAppTableRecord
  2
ACAD_DSTYLE_DIMBREAK
 70
     0
  0
APPID
  5
607
330
9
100
AcDbSymbolTableRecord
100
AcDbRegAppTableRecord
  2
ACAD_DSTYLE_DIMTALN
 70
     0
  0
APPID
  5
612
330
9
100
AcDbSymbolTableRecord
100
AcDbRegAppTableRecord
  2
ACAD_NAV_VCDISPLAY
 70
     0
  0
APPID
  5
7A2
330
9
100
AcDbSymbolTableRecord
100
AcDbRegAppTableRecord
  2
DCO15
 70
     0
  0
APPID
  5
CA3
330
9
100
AcDbSymbolTableRecord
100
AcDbRegAppTableRecord
  2
Thread_type
 70
     0
  0
APPID
  5
1374
330
9
100
AcDbSymbolTableRecord
100
AcDbRegAppTableRecord
  2
AcCmTransparency
 70
     0
  0
APPID
  5
254A
330
9
100
AcDbSymbolTableRecord
100
AcDbRegAppTableRecord
  2
ACAD_EXEMPT_FROM_CAD_STANDARDS
 70
     0
  0
APPID
  5
25CF
330
9
100
AcDbSymbolTableRecord
100
AcDbRegAppTableRecord
  2
LAYCODE
 70
     0
  0
APPID
  5
2844
330
9
100
AcDbSymbolTableRecord
100
AcDbRegAppTableRecord
  2
ACAD_DSTYLE_DIMRADIAL_EXTENSION
 70
     0
  0
ENDTAB
  0
TABLE
  2
DIMSTYLE
  5
A
330
0
100
AcDbSymbolTable
 70
    10
100
AcDbDimStyleTable
 71
     1
340
93
  0
DIMSTYLE
105
1D
330
A
100
AcDbSymbolTableRecord
100
AcDbDimStyleTableRecord
  2
STANDARD
 70
     0
340
10
  0
DIMSTYLE
105
24
330
A
100
AcDbSymbolTableRecord
100
AcDbDimStyleTableRecord
  2
ISO-25
 70
     0
 41
2.5
 42
0.625
 43
3.75
 44
1.25
 74
     0
 77
     1
 78
     8
140
2.5
141
2.5
143
0.0394
145
1.0
147
0.625
172
     1
340
10
  0
DIMSTYLE
105
25
330
A
100
AcDbSymbolTableRecord
100
AcDbDimStyleTableRecord
  2
ISO-35
 70
     0
 41
3.5
 42
0.875
 43
5.25
 44
1.75
 74
     0
 77
     1
 78
     8
140
3.5
141
3.5
143
0.0394
145
1.399999999999999
147
0.875
172
     1
340
10
  0
DIMSTYLE
105
26
330
A
100
AcDbSymbolTableRecord
100
AcDbDimStyleTableRecord
  2
ISO-5
 70
     0
 41
5.0
 42
1.25
 43
7.5
 44
2.5
 74
     0
 77
     1
 78
     8
140
5.0
141
5.0
143
0.0394
145
2.0
147
1.25
172
     1
340
10
  0
DIMSTYLE
105
27
330
A
100
AcDbSymbolTableRecord
100
AcDbDimStyleTableRecord
  2
ISO-7
 70
     0
 41
7.0
 42
1.75
 43
10.5
 44
3.5
 74
     0
 77
     1
 78
     8
140
7.0
141
7.0
143
0.0394
145
2.799999999999999
147
1.75
172
     1
340
10
  0
DIMSTYLE
105
28
330
A
100
AcDbSymbolTableRecord
100
AcDbDimStyleTableRecord
  2
ISO1
 70
     0
 41
10.0
 42
2.5
 43
15.0
 44
5.0
 74
     0
 77
     1
 78
     8
140
10.0
141
10.0
143
0.0394
145
4.0
147
2.5
172
     1
340
10
  0
DIMSTYLE
105
29
330
A
100
AcDbSymbolTableRecord
100
AcDbDimStyleTableRecord
  2
ISO1-4
 70
     0
 41
14.0
 42
3.5
 43
21.0
 44
7.0
 74
     0
 77
     1
 78
     8
140
14.0
141
14.0
143
0.0394
145
5.599999999999999
147
3.5
172
     1
340
10
  0
DIMSTYLE
105
2A
330
A
100
AcDbSymbolTableRecord
100
AcDbDimStyleTableRecord
  2
ISO2
 70
     0
 41
20.0
 42
5.0
 43
30.0
 44
10.0
 74
     0
 77
     1
 78
     8
140
20.0
141
20.0
143
0.0394
145
8.0
147
5.0
172
     1
340
10
  0
DIMSTYLE
105
93
102
{ACAD_REACTORS
330
4B58
330
4B5A
330
4B5B
330
4B5C
330
502E
102
}
330
A
100
AcDbSymbolTableRecord
100
AcDbDimStyleTableRecord
  2
ITM
 70
     0
 40
5.0
 41
1.5
 42
0.0
 43
6.0
 44
2.0
 47
495.0
 73
     0
 74
     0
 77
     3
 78
     8
 79
     2
140
3.0
141
0.0
147
0.6
172
     1
176
     4
177
     4
178
   256
179
     3
271
     3
272
     3
283
     0
284
     8
288
     1
340
2CC
341
4A1
342
4A1
343
4A1
344
4A1
  0
DIMSTYLE
105
608
330
A
100
AcDbSymbolTableRecord
100
AcDbDimStyleTableRecord
  2
ITM$4
 70
     0
 40
5.0
 41
1.5
 42
0.0
 43
6.0
 44
2.0
 47
495.0
 73
     0
 74
     0
 75
     1
 77
     3
 78
     8
 79
     2
140
3.0
141
0.0
147
0.6
172
     1
176
     4
177
     4
178
   256
179
     8
271
     8
272
     3
283
     0
284
     8
288
     1
340
2CC
341
4A1
342
4A1
1001
ACAD_DSTYLE_DIMBREAK
1070
   391
1040
3.75
1001
ACAD_DSTYLE_DIMJAG
1070
   388
1040
1.5
1001
ACAD_DSTYLE_DIMTALN
1070
   392
1070
     0
  0
ENDTAB
  0
TABLE
  2
BLOCK_RECORD
  5
1
330
0
100
AcDbSymbolTable
 70
    10
  0
BLOCK_RECORD
  5
1A
102
{ACAD_XDICTIONARY
360
768
102
}
330
1
100
AcDbSymbolTableRecord
100
AcDbBlockTableRecord
  2
*MODEL_SPACE
340
4BE
 70
     0
280
     1
281
     0
  0
BLOCK_RECORD
  5
17
330
1
100
AcDbSymbolTableRecord
100
AcDbBlockTableRecord
  2
*PAPER_SPACE
340
4BF
 70
     0
280
     1
281
     0
  0
BLOCK_RECORD
  5
30D
330
1
100
AcDbSymbolTableRecord
100
AcDbBlockTableRecord
  2
A4-NEW
340
0
310
2800000020000000200000000100080000000000000400000000000000000000000000000000000000000000000080000080000000808000800000008000800080800000C0C0C000C0DCC000F0CAA6000020400000206000002080000020A0000020C0000020E00000400000004020000040400000406000004080000040A0
310
000040C0000040E00000600000006020000060400000606000006080000060A0000060C0000060E00000800000008020000080400000806000008080000080A0000080C0000080E00000A0000000A0200000A0400000A0600000A0800000A0A00000A0C00000A0E00000C0000000C0200000C0400000C0600000C0800000C0
310
A00000C0C00000C0E00000E0000000E0200000E0400000E0600000E0800000E0A00000E0C00000E0E00040000000400020004000400040006000400080004000A0004000C0004000E00040200000402020004020400040206000402080004020A0004020C0004020E000404000004040200040404000404060004040800040
310
40A0004040C0004040E00040600000406020004060400040606000406080004060A0004060C0004060E00040800000408020004080400040806000408080004080A0004080C0004080E00040A0000040A0200040A0400040A0600040A0800040A0A00040A0C00040A0E00040C0000040C0200040C0400040C0600040C08000
310
40C0A00040C0C00040C0E00040E0000040E0200040E0400040E0600040E0800040E0A00040E0C00040E0E00080000000800020008000400080006000800080008000A0008000C0008000E00080200000802020008020400080206000802080008020A0008020C0008020E00080400000804020008040400080406000804080
310
008040A0008040C0008040E00080600000806020008060400080606000806080008060A0008060C0008060E00080800000808020008080400080806000808080008080A0008080C0008080E00080A0000080A0200080A0400080A0600080A0800080A0A00080A0C00080A0E00080C0000080C0200080C0400080C0600080C0
310
800080C0A00080C0C00080C0E00080E0000080E0200080E0400080E0600080E0800080E0A00080E0C00080E0E000C0000000C0002000C0004000C0006000C0008000C000A000C000C000C000E000C0200000C0202000C0204000C0206000C0208000C020A000C020C000C020E000C0400000C0402000C0404000C0406000C0
310
408000C040A000C040C000C040E000C0600000C0602000C0604000C0606000C0608000C060A000C060C000C060E000C0800000C0802000C0804000C0806000C0808000C080A000C080C000C080E000C0A00000C0A02000C0A04000C0A06000C0A08000C0A0A000C0A0C000C0A0E000C0C00000C0C02000C0C04000C0C06000
310
C0C08000C0C0A000F0FBFF00A4A0A000808080000000FF0000FF000000FFFF00FF000000FF00FF00FFFF0000FFFFFF00000000000000000000000000000000000000000000000000000000000000000000000000000000000000000000000000FA0000000000000000000000000000000000000000000000FBFBFFFAFAFAFA
310
FAFAFAFAFAFAFAFBFFFFFB00000000000000000000000000FFFFFFFFFFFFFFFFFFFFFFFF00000000FFFFFF00000000000000000000000000FAFFFFFAFAFAFAFFFAFAFFFFFAFAFAFAFAFAFA0000000000000000000000000000FAFFFFFFFFFFFFFFFFFFFFFAFAFAFAFAFAFA0000000000000000000000000000FB0000000000
310
0000000000000000000000FB00000000000000000000000000FFFF00000000000000000000000000000000FF0000000000000000000000000000FB00000000000000000000000000000000FB0000000000000000000000000000FB00000000000000000000000000000000FB00000000000000000000000000FAFA00000000
310
000000000000000000000000FA0000000000000000000000000000FB00000000000000000000000000000000FB00000000000000000000000000FFFF00000000000000000000000000000000FF00000000000000000000000000FFFF00000000000000000000000000000000FF0000000000000000000000000000FB000000
310
00000000000000000000000000FB0000000000000000000000000000FB00000000000000000000000000000000FB000000000000000000000000FAFAFA00000000000000FF0000000000000000FA0000000000000000000000000000FB00000000000000000000000000000000FB00000000000000000000000000FFFF0000
310
0000000000000000000000000000FF0000000000000000000000000000FF00000000000000000000000000000000FF0000000000000000000000000000FB00000000000000000000000000000000FB00000000000000000000000000FAFA00000000000000000000000000000000FA0000000000000000000000000000FB00
310
000000000000000000000000000000FB0000000000000000000000000000FB00000000000000000000000000000000FB00000000000000000000000000FFFF00000000000000000000000000000000FF0000000000000000000000000000FB00000000000000000000000000000000FB0000000000000000000000000000FB
310
00000000000000000000000000000000FB00000000000000000000000000FAFA00000000000000000000000000000000FA00000000000000000000000000FFFF00000000000000000000000000000000FF0000000000000000000000000000FBFBFFFAFBFBFFFBFAFBFFFFFBFAFBFFFBFB0000000000000000000000000000
310
0000000000000000FA0000000000000000000000000000000000000000000000000000000000000000000000000000000000000000000000
 70
     0
280
     1
281
     0
  0
BLOCK_RECORD
  5
484
330
1
100
AcDbSymbolTableRecord
100
AcDbBlockTableRecord
  2
S36
340
0
102
{BLKREFS
331
851
102
}
 70
     0
280
     1
281
     0
  0
BLOCK_RECORD
  5
4A1
330
1
100
AcDbSymbolTableRecord
100
AcDbBlockTableRecord
  2
_OPEN
340
0
102
{BLKREFS
331
4FBF
331
4FC0
331
4FD0
331
4FD1
331
5036
331
5037
331
4CD5
331
4CD6
331
4CE7
331
4CE8
102
}
 70
     0
280
     1
281
     0
  0
BLOCK_RECORD
  5
76A
330
1
100
AcDbSymbolTableRecord
100
AcDbBlockTableRecord
  2
KVK
340
0
102
{BLKREFS
331
95C
102
}
 70
     0
280
     1
281
     0
  0
BLOCK_RECORD
  5
4B91
330
1
100
AcDbSymbolTableRecord
100
AcDbBlockTableRecord
  2
*D4
340
0
 70
     0
280
     1
281
     0
  0
BLOCK_RECORD
  5
4BA8
330
1
100
AcDbSymbolTableRecord
100
AcDbBlockTableRecord
  2
*D5
340
0
 70
     0
280
     1
281
     0
  0
BLOCK_RECORD
  5
4BB4
330
1
100
AcDbSymbolTableRecord
100
AcDbBlockTableRecord
  2
*D6
340
0
 70
     0
280
     1
281
     0
  0
BLOCK_RECORD
  5
4BC0
330
1
100
AcDbSymbolTableRecord
100
AcDbBlockTableRecord
  2
*D7
340
0
 70
     0
280
     1
281
     0
  0
BLOCK_RECORD
  5
502F
330
1
100
AcDbSymbolTableRecord
100
AcDbBlockTableRecord
  2
*D8
340
0
 70
     0
280
     1
281
     0
  0
BLOCK_RECORD
  5
51A8
330
1
100
AcDbSymbolTableRecord
100
AcDbBlockTableRecord
  2
株式会社ＫＶＫ
340
0
310
2800000020000000200000000100080000000000000400000000000000000000000000000000000000000000000080000080000000808000800000008000800080800000C0C0C000C0DCC000F0CAA6000020400000206000002080000020A0000020C0000020E00000400000004020000040400000406000004080000040A0
310
000040C0000040E00000600000006020000060400000606000006080000060A0000060C0000060E00000800000008020000080400000806000008080000080A0000080C0000080E00000A0000000A0200000A0400000A0600000A0800000A0A00000A0C00000A0E00000C0000000C0200000C0400000C0600000C0800000C0
310
A00000C0C00000C0E00000E0000000E0200000E0400000E0600000E0800000E0A00000E0C00000E0E00040000000400020004000400040006000400080004000A0004000C0004000E00040200000402020004020400040206000402080004020A0004020C0004020E000404000004040200040404000404060004040800040
310
40A0004040C0004040E00040600000406020004060400040606000406080004060A0004060C0004060E00040800000408020004080400040806000408080004080A0004080C0004080E00040A0000040A0200040A0400040A0600040A0800040A0A00040A0C00040A0E00040C0000040C0200040C0400040C0600040C08000
310
40C0A00040C0C00040C0E00040E0000040E0200040E0400040E0600040E0800040E0A00040E0C00040E0E00080000000800020008000400080006000800080008000A0008000C0008000E00080200000802020008020400080206000802080008020A0008020C0008020E00080400000804020008040400080406000804080
310
008040A0008040C0008040E00080600000806020008060400080606000806080008060A0008060C0008060E00080800000808020008080400080806000808080008080A0008080C0008080E00080A0000080A0200080A0400080A0600080A0800080A0A00080A0C00080A0E00080C0000080C0200080C0400080C0600080C0
310
800080C0A00080C0C00080C0E00080E0000080E0200080E0400080E0600080E0800080E0A00080E0C00080E0E000C0000000C0002000C0004000C0006000C0008000C000A000C000C000C000E000C0200000C0202000C0204000C0206000C0208000C020A000C020C000C020E000C0400000C0402000C0404000C0406000C0
310
408000C040A000C040C000C040E000C0600000C0602000C0604000C0606000C0608000C060A000C060C000C060E000C0800000C0802000C0804000C0806000C0808000C080A000C080C000C080E000C0A00000C0A02000C0A04000C0A06000C0A08000C0A0A000C0A0C000C0A0E000C0C00000C0C02000C0C04000C0C06000
310
C0C08000C0C0A000F0FBFF00A4A0A000808080000000FF0000FF000000FFFF00FF000000FF00FF00FFFF0000FFFFFF0000000000000000000000000000000000000000000000000000000000000000000000000000000000000000000000000000000000000000000000000000000000000000000000000000000000000000
310
00000000000000000000000000000000000000000000000000000000000000000000000000000000000000000000000000000000000000000000000000000000000000000000000000000000000000000000000000000000000000000000000000000000000000000000000000000000000000000000000000000000000000
310
00000000000000000000000000000000000000000000000000000000000000000000000000000000000000000000000000000000000000000000000000000000000000000000000000000000000000000000000000000000000000000000000000000000000000000000000000000000000000000000000000000000000000
310
000000000000000000000000000000000000000000000000000000000000000000000000000000000000000000000000000000000000000000000000000000000000000000000000000000000000000000000000000000000000000000000000000000000000000000000000000000000000000000FFFFFFFFFFFFFFFFFFFF
310
FFFFFFFFFFFF00FFFFFFFFFFFF00FFFFFFFFFF000000FFFFFFFFFFFFFFFFFFFFFFFFFFFFFFFF00FFFFFF00FFFFFFFFFFFFFF00000000FFFFFFFFFFFFFFFFFFFFFFFFFFFFFFFF00FFFFFFFFFFFFFFFFFFFFFF00000000FFFFFFFFFFFFFFFF00FFFFFFFFFFFFFF00FFFFFFFFFFFFFFFFFFFFFF00000000000000000000000000
310
00000000000000000000000000000000000000000000000000000000000000000000000000000000000000000000000000000000000000000000000000000000000000000000000000000000000000000000000000000000000000000000000000000000000000000000000000000000000000000000000000000000000000
310
00000000000000000000000000000000000000000000000000000000000000000000000000000000000000000000000000000000000000000000000000000000000000000000000000000000000000000000000000000000000000000000000000000000000000000000000000000000000000000000000000000000000000
310
00000000000000000000000000000000000000000000000000000000000000000000000000000000000000000000000000000000000000000000000000000000000000000000000000000000000000000000000000000000000000000000000000000000000000000000000000000000000000000000000000000000000000
310
0000000000000000000000000000000000000000000000000000000000000000000000000000000000000000000000000000000000000000
102
{BLKREFS
331
51B5
102
}
 70
     4
280
     1
281
     0
  0
ENDTAB
  0
ENDSEC
  0
SECTION
  2
BLOCKS
  0
BLOCK
  5
1B
330
1A
100
AcDbEntity
  8
0
100
AcDbBlockBegin
  2
*MODEL_SPACE
 70
     0
 10
0.0
 20
0.0
 30
0.0
  3
*MODEL_SPACE
  1

  0
ENDBLK
  5
1C
330
1A
100
AcDbEntity
  8
0
100
AcDbBlockEnd
  0
BLOCK
  5
18
330
17
100
AcDbEntity
 67
     1
  8
0
100
AcDbBlockBegin
  2
*PAPER_SPACE
 70
     0
 10
0.0
 20
0.0
 30
0.0
  3
*PAPER_SPACE
  1

  0
ENDBLK
  5
19
330
17
100
AcDbEntity
 67
     1
  8
0
100
AcDbBlockEnd
  0
BLOCK
  5
420
330
30D
100
AcDbEntity
  8
0
100
AcDbBlockBegin
  2
A4-NEW
 70
     0
 10
0.0
 20
0.0
 30
0.0
  3
A4-NEW
  1

  0
LINE
  5
8E2
330
30D
100
AcDbEntity
  8
0
 62
     2
100
AcDbLine
 10
-437.4999999999999
 20
692.4999999999998
 30
0.0
 11
-437.4999999999999
 21
-692.4999999999998
 31
0.0
  0
LINE
  5
8E3
330
30D
100
AcDbEntity
  8
0
 62
     2
100
AcDbLine
 10
-437.4999999999999
 20
-692.4999999999998
 30
0.0
 11
437.4999999999999
 21
-692.4999999999998
 31
0.0
  0
LINE
  5
8E4
330
30D
100
AcDbEntity
  8
0
 62
     2
100
AcDbLine
 10
437.4999999999999
 20
-692.4999999999998
 30
0.0
 11
437.4999999999999
 21
692.4999999999998
 31
0.0
  0
LINE
  5
8E5
330
30D
100
AcDbEntity
  8
0
 62
     2
100
AcDbLine
 10
437.4999999999999
 20
692.4999999999998
 30
0.0
 11
-437.4999999999999
 21
692.4999999999998
 31
0.0
  0
LINE
  5
8E6
330
30D
100
AcDbEntity
  8
0
 62
     3
100
AcDbLine
 10
0.0
 20
-692.4999999999998
 30
0.0
 11
0.0
 21
-741.9999999999999
 31
0.0
  0
LINE
  5
8E7
330
30D
100
AcDbEntity
  8
0
 62
     3
100
AcDbLine
 10
0.0
 20
741.9999999999999
 30
0.0
 11
0.0
 21
692.4999999999998
 31
0.0
  0
LINE
  5
8E8
330
30D
100
AcDbEntity
  8
0
 62
     3
100
AcDbLine
 10
-561.9999999999999
 20
0.0
 30
0.0
 11
-437.4999999999999
 21
0.0
 31
0.0
  0
LINE
  5
8E9
330
30D
100
AcDbEntity
  8
0
 62
     3
100
AcDbLine
 10
437.4999999999999
 20
0.0
 30
0.0
 11
486.9999999999999
 21
0.0
 31
0.0
  0
LINE
  5
8EA
330
30D
100
AcDbEntity
  8
0
 62
     3
100
AcDbLine
 10
-250.0
 20
-692.4999999999998
 30
0.0
 11
-250.0
 21
-717.4999999999998
 31
0.0
  0
LINE
  5
8EB
330
30D
100
AcDbEntity
  8
0
 62
     3
100
AcDbLine
 10
-200.0
 20
-692.4999999999998
 30
0.0
 11
-200.0
 21
-717.4999999999998
 31
0.0
  0
LINE
  5
8EC
330
30D
100
AcDbEntity
  8
0
 62
     3
100
AcDbLine
 10
-150.0
 20
-692.4999999999998
 30
0.0
 11
-150.0
 21
-717.4999999999998
 31
0.0
  0
LINE
  5
8ED
330
30D
100
AcDbEntity
  8
0
 62
     3
100
AcDbLine
 10
-100.0
 20
-692.4999999999998
 30
0.0
 11
-100.0
 21
-717.4999999999998
 31
0.0
  0
LINE
  5
8EE
330
30D
100
AcDbEntity
  8
0
 62
     3
100
AcDbLine
 10
250.0
 20
-717.4999999999998
 30
0.0
 11
250.0
 21
-692.4999999999998
 31
0.0
  0
LINE
  5
8EF
330
30D
100
AcDbEntity
  8
0
 62
     3
100
AcDbLine
 10
200.0
 20
-692.4999999999998
 30
0.0
 11
200.0
 21
-717.4999999999998
 31
0.0
  0
LINE
  5
8F0
330
30D
100
AcDbEntity
  8
0
 62
     3
100
AcDbLine
 10
150.0
 20
-717.4999999999998
 30
0.0
 11
150.0
 21
-692.4999999999998
 31
0.0
  0
LINE
  5
8F1
330
30D
100
AcDbEntity
  8
0
 62
     3
100
AcDbLine
 10
100.0
 20
-692.4999999999998
 30
0.0
 11
100.0
 21
-717.4999999999998
 31
0.0
  0
LINE
  5
8F2
330
30D
100
AcDbEntity
  8
0
 62
     3
100
AcDbLine
 10
-50.0
 20
-692.4999999999998
 30
0.0
 11
-50.0
 21
-717.4999999999998
 31
0.0
  0
LINE
  5
8F3
330
30D
100
AcDbEntity
  8
0
 62
     3
100
AcDbLine
 10
50.0
 20
-692.4999999999998
 30
0.0
 11
50.0
 21
-717.4999999999998
 31
0.0
  0
LINE
  5
8F4
330
30D
100
AcDbEntity
  8
0
 62
     3
100
AcDbLine
 10
-250.0
 20
-717.4999999999998
 30
0.0
 11
250.0
 21
-717.4999999999998
 31
0.0
  0
LINE
  5
8F5
330
30D
100
AcDbEntity
  8
0
 62
     3
100
AcDbLine
 10
-462.4999999999999
 20
599.9999999999999
 30
0.0
 11
-437.4999999999999
 21
599.9999999999999
 31
0.0
  0
LINE
  5
8F6
330
30D
100
AcDbEntity
  8
0
 62
     3
100
AcDbLine
 10
-462.4999999999999
 20
-300.0
 30
0.0
 11
-437.4999999999999
 21
-300.0
 31
0.0
  0
LINE
  5
8F7
330
30D
100
AcDbEntity
  8
0
 62
     3
100
AcDbLine
 10
462.4999999999999
 20
599.9999999999999
 30
0.0
 11
437.4999999999999
 21
599.9999999999999
 31
0.0
  0
LINE
  5
8F8
330
30D
100
AcDbEntity
  8
0
 62
     3
100
AcDbLine
 10
437.4999999999999
 20
-300.0
 30
0.0
 11
462.4999999999999
 21
-300.0
 31
0.0
  0
LINE
  5
8F9
330
30D
100
AcDbEntity
  8
0
 62
     3
100
AcDbLine
 10
462.4999999999999
 20
300.0
 30
0.0
 11
437.4999999999999
 21
300.0
 31
0.0
  0
LINE
  5
8FA
330
30D
100
AcDbEntity
  8
0
 62
     3
100
AcDbLine
 10
437.4999999999999
 20
-599.9999999999999
 30
0.0
 11
462.4999999999999
 21
-599.9999999999999
 31
0.0
  0
LINE
  5
8FB
330
30D
100
AcDbEntity
  8
0
 62
     3
100
AcDbLine
 10
-437.4999999999999
 20
-599.9999999999999
 30
0.0
 11
-462.4999999999999
 21
-599.9999999999999
 31
0.0
  0
LINE
  5
8FC
330
30D
100
AcDbEntity
  8
0
 62
     3
100
AcDbLine
 10
-462.4999999999999
 20
300.0
 30
0.0
 11
-437.4999999999999
 21
300.0
 31
0.0
  0
LINE
  5
8FD
330
30D
100
AcDbEntity
  8
0
 62
     3
100
AcDbLine
 10
-250.0
 20
717.4999999999998
 30
0.0
 11
-250.0
 21
692.4999999999998
 31
0.0
  0
LINE
  5
8FE
330
30D
100
AcDbEntity
  8
0
 62
     3
100
AcDbLine
 10
250.0
 20
717.4999999999998
 30
0.0
 11
250.0
 21
692.4999999999998
 31
0.0
  0
TEXT
  5
8FF
330
30D
100
AcDbEntity
  8
0
  6
Continuous
 62
     7
100
AcDbText
 10
-135.9999999999999
 20
695.4999999999999
 30
0.0
 40
22.0
  1
２
  7
BIGFONT
100
AcDbText
  0
TEXT
  5
900
330
30D
100
AcDbEntity
  8
0
  6
Continuous
 62
     7
100
AcDbText
 10
114.0
 20
695.4999999999999
 30
0.0
 40
22.0
  1
３
  7
BIGFONT
100
AcDbText
  0
TEXT
  5
901
330
30D
100
AcDbEntity
  8
0
  6
Continuous
 62
     7
100
AcDbText
 10
-354.7499999999999
 20
695.4999999999999
 30
0.0
 40
22.0
  1
１
  7
BIGFONT
100
AcDbText
  0
TEXT
  5
902
330
30D
100
AcDbEntity
  8
0
  6
Continuous
 62
     7
100
AcDbText
 10
332.75
 20
695.4999999999999
 30
0.0
 40
22.0
  1
４
  7
BIGFONT
100
AcDbText
  0
TEXT
  5
903
330
30D
100
AcDbEntity
  8
0
  6
Continuous
 62
     7
100
AcDbText
 10
-354.7499999999999
 20
-717.4999999999999
 30
0.0
 40
22.0
  1
１
  7
BIGFONT
100
AcDbText
  0
TEXT
  5
904
330
30D
100
AcDbEntity
  8
0
  6
Continuous
 62
     7
100
AcDbText
 10
332.75
 20
-717.4999999999999
 30
0.0
 40
22.0
  1
４
  7
BIGFONT
100
AcDbText
  0
TEXT
  5
905
330
30D
100
AcDbEntity
  8
0
  6
Continuous
 62
     7
100
AcDbText
 10
-462.4999999999999
 20
138.9999999999999
 30
0.0
 40
22.0
  1
Ｃ
  7
BIGFONT
100
AcDbText
  0
TEXT
  5
906
330
30D
100
AcDbEntity
  8
0
  6
Continuous
 62
     7
100
AcDbText
 10
-462.4999999999999
 20
438.9999999999998
 30
0.0
 40
22.0
  1
Ｂ
  7
BIGFONT
100
AcDbText
  0
TEXT
  5
907
330
30D
100
AcDbEntity
  8
0
  6
Continuous
 62
     7
100
AcDbText
 10
-462.4999999999999
 20
-160.9999999999999
 30
0.0
 40
22.0
  1
Ｄ
  7
BIGFONT
100
AcDbText
  0
TEXT
  5
908
330
30D
100
AcDbEntity
  8
0
  6
Continuous
 62
     7
100
AcDbText
 10
-462.4999999999999
 20
-460.9999999999999
 30
0.0
 40
22.0
  1
Ｅ
  7
BIGFONT
100
AcDbText
  0
TEXT
  5
909
330
30D
100
AcDbEntity
  8
0
  6
Continuous
 62
     7
100
AcDbText
 10
-462.4999999999999
 20
635.2499999999999
 30
0.0
 40
22.0
  1
Ａ
  7
BIGFONT
100
AcDbText
  0
TEXT
  5
90A
330
30D
100
AcDbEntity
  8
0
  6
Continuous
 62
     7
100
AcDbText
 10
-462.4999999999999
 20
-657.2499999999998
 30
0.0
 40
22.0
  1
Ｆ
  7
BIGFONT
100
AcDbText
  0
TEXT
  5
90B
330
30D
100
AcDbEntity
  8
0
  6
Continuous
 62
     7
100
AcDbText
 10
440.4999999999999
 20
635.2499999999999
 30
0.0
 40
22.0
  1
Ａ
  7
BIGFONT
100
AcDbText
  0
TEXT
  5
90C
330
30D
100
AcDbEntity
  8
0
  6
Continuous
 62
     7
100
AcDbText
 10
440.4999999999999
 20
438.9999999999998
 30
0.0
 40
22.0
  1
Ｂ
  7
BIGFONT
100
AcDbText
  0
TEXT
  5
90D
330
30D
100
AcDbEntity
  8
0
  6
Continuous
 62
     7
100
AcDbText
 10
440.4999999999999
 20
138.9999999999999
 30
0.0
 40
22.0
  1
Ｃ
  7
BIGFONT
100
AcDbText
  0
TEXT
  5
90E
330
30D
100
AcDbEntity
  8
0
  6
Continuous
 62
     7
100
AcDbText
 10
440.4999999999999
 20
-160.9999999999999
 30
0.0
 40
22.0
  1
Ｄ
  7
BIGFONT
100
AcDbText
  0
TEXT
  5
90F
330
30D
100
AcDbEntity
  8
0
  6
Continuous
 62
     7
100
AcDbText
 10
440.4999999999999
 20
-460.9999999999999
 30
0.0
 40
22.0
  1
Ｅ
  7
BIGFONT
100
AcDbText
  0
TEXT
  5
910
330
30D
100
AcDbEntity
  8
0
  6
Continuous
 62
     7
100
AcDbText
 10
440.4999999999999
 20
-657.2499999999998
 30
0.0
 40
22.0
  1
Ｆ
  7
BIGFONT
100
AcDbText
  0
POINT
  5
911
330
30D
100
AcDbEntity
  8
DEFPOINTS
100
AcDbPoint
 10
0.0
 20
0.0
 30
0.0
  0
LINE
  5
912
330
30D
100
AcDbEntity
  8
0
 62
     2
100
AcDbLine
 10
-437.4999999999997
 20
-540.0
 30
0.0
 11
437.5
 21
-540.0
 31
0.0
  0
LINE
  5
913
330
30D
100
AcDbEntity
  8
0
 62
     3
100
AcDbLine
 10
437.5
 20
-569.9999999999999
 30
0.0
 11
-437.4999999999997
 21
-569.9999999999999
 31
0.0
  0
LINE
  5
914
330
30D
100
AcDbEntity
  8
0
 62
     3
100
AcDbLine
 10
0.0000000000001705
 20
-540.0
 30
0.0
 11
0.0000000000001705
 21
-569.9999999999999
 31
0.0
  0
LINE
  5
915
330
30D
100
AcDbEntity
  8
0
 62
     3
100
AcDbLine
 10
0.0000000000002842
 20
-569.9999999999999
 30
0.0
 11
0.0000000000001705
 21
-629.9999999999998
 31
0.0
  0
LINE
  5
916
330
30D
100
AcDbEntity
  8
0
 62
     3
100
AcDbLine
 10
0.0000000000001705
 20
-629.9999999999998
 30
0.0
 11
0.0000000000001705
 21
-692.4999999999998
 31
0.0
  0
LINE
  5
917
330
30D
100
AcDbEntity
  8
0
 62
     3
100
AcDbLine
 10
-437.4999999999997
 20
-629.9999999999998
 30
0.0
 11
437.5
 21
-629.9999999999998
 31
0.0
  0
LINE
  5
918
330
30D
100
AcDbEntity
  8
0
 62
     3
100
AcDbLine
 10
-329.9999999999997
 20
-569.9999999999999
 30
0.0
 11
-329.9999999999998
 21
-629.9999999999998
 31
0.0
  0
LINE
  5
919
330
30D
100
AcDbEntity
  8
0
 62
     3
100
AcDbLine
 10
-179.9999999999998
 20
-629.9999999999998
 30
0.0
 11
-179.9999999999998
 21
-569.9999999999999
 31
0.0
  0
LINE
  5
91A
330
30D
100
AcDbEntity
  8
0
 62
     3
100
AcDbLine
 10
-89.99999999999984
 20
-569.9999999999999
 30
0.0
 11
-89.99999999999984
 21
-629.9999999999998
 31
0.0
  0
LINE
  5
91B
330
30D
100
AcDbEntity
  8
0
 62
     3
100
AcDbLine
 10
100.0000000000001
 20
-540.0
 30
0.0
 11
100.0
 21
-569.9999999999999
 31
0.0
  0
LINE
  5
91C
330
30D
100
AcDbEntity
  8
0
 62
     3
100
AcDbLine
 10
100.0000000000001
 20
-629.9999999999998
 30
0.0
 11
100.0000000000001
 21
-692.4999999999998
 31
0.0
  0
TEXT
  5
91D
330
30D
100
AcDbEntity
  8
0
  6
Continuous
 62
     7
100
AcDbText
 10
-164.9999999999998
 20
-596.0
 30
0.0
 40
15.0
  1
尺    度
 41
0.833
  7
BIGFONT
100
AcDbText
  0
TEXT
  5
91E
330
30D
100
AcDbEntity
  8
0
  6
Continuous
 62
     7
100
AcDbText
 10
-157.7499999999998
 20
-617.4999999999998
 30
0.0
 40
12.5
  1
Ｓ
 41
0.833
  7
BIGFONT
100
AcDbText
  0
TEXT
  5
91F
330
30D
100
AcDbEntity
  8
0
  6
Continuous
 62
     7
100
AcDbText
 10
-147.9999999999998
 20
-617.4999999999998
 30
0.0
 40
12.5
  1
ｃ
 41
0.833
  7
BIGFONT
100
AcDbText
  0
TEXT
  5
920
330
30D
100
AcDbEntity
  8
0
  6
Continuous
 62
     7
100
AcDbText
 10
-138.4999999999998
 20
-617.4999999999998
 30
0.0
 40
12.5
  1
ａ
 41
0.833
  7
BIGFONT
100
AcDbText
  0
TEXT
  5
921
330
30D
100
AcDbEntity
  8
0
  6
Continuous
 62
     7
100
AcDbText
 10
-130.7499999999998
 20
-617.4999999999998
 30
0.0
 40
12.5
  1
ｌ
 41
0.833
  7
BIGFONT
100
AcDbText
  0
TEXT
  5
922
330
30D
100
AcDbEntity
  8
0
  6
Continuous
 62
     7
100
AcDbText
 10
-123.2499999999998
 20
-617.4999999999998
 30
0.0
 40
12.5
  1
ｅ
 41
0.833
  7
BIGFONT
100
AcDbText
  0
TEXT
  5
923
330
30D
100
AcDbEntity
  8
0
  6
Continuous
 62
     7
100
AcDbText
 10
20.00000000000017
 20
-556.0
 30
0.0
 40
15.0
  1
品    番
 41
0.833
  7
BIGFONT
100
AcDbText
  0
TEXT
  5
924
330
30D
100
AcDbEntity
  8
0
  6
Continuous
 62
     7
100
AcDbText
 10
14.50000000000017
 20
-568.9999999999998
 30
0.0
 40
12.5
  1
Ｍ
 41
0.833
  7
BIGFONT
100
AcDbText
  0
TEXT
  5
925
330
30D
100
AcDbEntity
  8
0
  6
Continuous
 62
     7
100
AcDbText
 10
25.00000000000017
 20
-568.9999999999998
 30
0.0
 40
12.5
  1
ｏ
 41
0.833
  7
BIGFONT
100
AcDbText
  0
TEXT
  5
926
330
30D
100
AcDbEntity
  8
0
  6
Continuous
 62
     7
100
AcDbText
 10
32.50000000000017
 20
-568.9999999999998
 30
0.0
 40
12.5
  1
ｄ
 41
0.833
  7
BIGFONT
100
AcDbText
  0
TEXT
  5
927
330
30D
100
AcDbEntity
  8
0
  6
Continuous
 62
     7
100
AcDbText
 10
41.00000000000017
 20
-568.9999999999998
 30
0.0
 40
12.5
  1
ｅ
 41
0.833
  7
BIGFONT
100
AcDbText
  0
TEXT
  5
928
330
30D
100
AcDbEntity
  8
0
  6
Continuous
 62
     7
100
AcDbText
 10
47.00000000000017
 20
-568.9999999999998
 30
0.0
 40
12.5
  1
ｌ
 41
0.833
  7
BIGFONT
100
AcDbText
  0
TEXT
  5
929
330
30D
100
AcDbEntity
  8
0
  6
Continuous
 62
     7
100
AcDbText
 10
62.00000000000017
 20
-568.9999999999998
 30
0.0
 40
12.5
  1
Ｎ
 41
0.833
  7
BIGFONT
100
AcDbText
  0
TEXT
  5
92A
330
30D
100
AcDbEntity
  8
0
  6
Continuous
 62
     7
100
AcDbText
 10
70.75000000000017
 20
-568.9999999999998
 30
0.0
 40
12.5
  1
ｏ
 41
0.833
  7
BIGFONT
100
AcDbText
  0
TEXT
  5
92B
330
30D
100
AcDbEntity
  8
0
  6
Continuous
 62
     7
100
AcDbText
 10
79.00000000000017
 20
-568.9999999999998
 30
0.0
 40
12.5
  1
．
 41
0.833
  7
BIGFONT
100
AcDbText
  0
TEXT
  5
92C
330
30D
100
AcDbEntity
  8
0
  6
Continuous
 62
     7
100
AcDbText
 10
30.50000000000017
 20
-617.5457107056444
 30
0.0
 40
12.5
  1
Ｎ
 41
0.833
  7
BIGFONT
100
AcDbText
  0
TEXT
  5
92D
330
30D
100
AcDbEntity
  8
0
  6
Continuous
 62
     7
100
AcDbText
 10
39.75000000000017
 20
-617.5457107056444
 30
0.0
 40
12.5
  1
ａ
 41
0.833
  7
BIGFONT
100
AcDbText
  0
TEXT
  5
92E
330
30D
100
AcDbEntity
  8
0
  6
Continuous
 62
     7
100
AcDbText
 10
49.75000000000017
 20
-617.5457107056444
 30
0.0
 40
12.5
  1
ｍ
 41
0.833
  7
BIGFONT
100
AcDbText
  0
TEXT
  5
92F
330
30D
100
AcDbEntity
  8
0
  6
Continuous
 62
     7
100
AcDbText
 10
59.00000000000017
 20
-617.5457107056444
 30
0.0
 40
12.5
  1
ｅ
 41
0.833
  7
BIGFONT
100
AcDbText
  0
TEXT
  5
930
330
30D
100
AcDbEntity
  8
0
  6
Continuous
 62
     7
100
AcDbText
 10
20.00000000000017
 20
-655.9999999999997
 30
0.0
 40
15.0
  1
図    番
 41
0.833
  7
BIGFONT
100
AcDbText
  0
TEXT
  5
931
330
30D
100
AcDbEntity
  8
0
  6
Continuous
 62
     7
100
AcDbText
 10
6.50000000000017
 20
-679.9999999999998
 30
0.0
 40
12.5
  1
Ｄ
 41
0.833
  7
BIGFONT
100
AcDbText
  0
TEXT
  5
932
330
30D
100
AcDbEntity
  8
0
  6
Continuous
 62
     7
100
AcDbText
 10
15.00000000000017
 20
-679.9999999999998
 30
0.0
 40
12.5
  1
ｒ
 41
0.833
  7
BIGFONT
100
AcDbText
  0
TEXT
  5
933
330
30D
100
AcDbEntity
  8
0
  6
Continuous
 62
     7
100
AcDbText
 10
21.25000000000017
 20
-679.9999999999998
 30
0.0
 40
12.5
  1
ａ
 41
0.833
  7
BIGFONT
100
AcDbText
  0
TEXT
  5
934
330
30D
100
AcDbEntity
  8
0
  6
Continuous
 62
     7
100
AcDbText
 10
29.25000000000017
 20
-679.9999999999998
 30
0.0
 40
12.5
  1
ｗ
 41
0.833
  7
BIGFONT
100
AcDbText
  0
TEXT
  5
935
330
30D
100
AcDbEntity
  8
0
  6
Continuous
 62
     7
100
AcDbText
 10
37.00000000000017
 20
-679.9999999999998
 30
0.0
 40
12.5
  1
ｉ
 41
0.833
  7
BIGFONT
100
AcDbText
  0
TEXT
  5
936
330
30D
100
AcDbEntity
  8
0
  6
Continuous
 62
     7
100
AcDbText
 10
42.75000000000017
 20
-679.9999999999998
 30
0.0
 40
12.5
  1
ｎ
 41
0.833
  7
BIGFONT
100
AcDbText
  0
TEXT
  5
937
330
30D
100
AcDbEntity
  8
0
  6
Continuous
 62
     7
100
AcDbText
 10
51.00000000000017
 20
-679.9999999999998
 30
0.0
 40
12.5
  1
ｇ
 41
0.833
  7
BIGFONT
100
AcDbText
  0
TEXT
  5
938
330
30D
100
AcDbEntity
  8
0
  6
Continuous
 62
     7
100
AcDbText
 10
67.00000000000017
 20
-679.9999999999998
 30
0.0
 40
12.5
  1
Ｎ
 41
0.833
  7
BIGFONT
100
AcDbText
  0
TEXT
  5
939
330
30D
100
AcDbEntity
  8
0
  6
Continuous
 62
     7
100
AcDbText
 10
75.75000000000017
 20
-679.9999999999998
 30
0.0
 40
12.5
  1
ｏ
 41
0.833
  7
BIGFONT
100
AcDbText
  0
TEXT
  5
93A
330
30D
100
AcDbEntity
  8
0
  6
Continuous
 62
     7
100
AcDbText
 10
84.00000000000018
 20
-679.9999999999998
 30
0.0
 40
12.5
  1
．
 41
0.833
  7
BIGFONT
100
AcDbText
  0
TEXT
  5
93B
330
30D
100
AcDbEntity
  8
0
  6
Continuous
 62
     7
100
AcDbText
 10
-402.4999999999996
 20
-562.5
 30
0.0
 40
15.0
  1
第
  7
BIGFONT
100
AcDbText
  0
TEXT
  5
93C
330
30D
100
AcDbEntity
  8
0
  6
Continuous
 62
     7
100
AcDbText
 10
-380.4999999999997
 20
-562.5
 30
0.0
 40
15.0
  1
三
  7
BIGFONT
100
AcDbText
  0
TEXT
  5
93D
330
30D
100
AcDbEntity
  8
0
  6
Continuous
 62
     7
100
AcDbText
 10
-358.4999999999998
 20
-562.5
 30
0.0
 40
15.0
  1
角
  7
BIGFONT
100
AcDbText
  0
TEXT
  5
93E
330
30D
100
AcDbEntity
  8
0
  6
Continuous
 62
     7
100
AcDbText
 10
-336.4999999999997
 20
-562.5
 30
0.0
 40
15.0
  1
法
  7
BIGFONT
100
AcDbText
  0
TEXT
  5
93F
330
30D
100
AcDbEntity
  8
0
  6
Continuous
 62
     7
100
AcDbText
 10
-285.9999999999999
 20
-562.5
 30
0.0
 40
15.0
  1
Ｔ
  7
BIGFONT
100
AcDbText
  0
TEXT
  5
940
330
30D
100
AcDbEntity
  8
0
  6
Continuous
 62
     7
100
AcDbText
 10
-271.9999999999998
 20
-562.5
 30
0.0
 40
15.0
  1
ｈ
  7
BIGFONT
100
AcDbText
  0
TEXT
  5
941
330
30D
100
AcDbEntity
  8
0
  6
Continuous
 62
     7
100
AcDbText
 10
-262.4999999999998
 20
-562.5
 30
0.0
 40
15.0
  1
ｉ
  7
BIGFONT
100
AcDbText
  0
TEXT
  5
942
330
30D
100
AcDbEntity
  8
0
  6
Continuous
 62
     7
100
AcDbText
 10
-253.7499999999998
 20
-562.5
 30
0.0
 40
15.0
  1
ｒ
  7
BIGFONT
100
AcDbText
  0
TEXT
  5
943
330
30D
100
AcDbEntity
  8
0
  6
Continuous
 62
     7
100
AcDbText
 10
-244.4999999999998
 20
-562.5
 30
0.0
 40
15.0
  1
ｄ
  7
BIGFONT
100
AcDbText
  0
TEXT
  5
944
330
30D
100
AcDbEntity
  8
0
  6
Continuous
 62
     7
100
AcDbText
 10
-219.4999999999998
 20
-562.5
 30
0.0
 40
15.0
  1
Ａ
  7
BIGFONT
100
AcDbText
  0
TEXT
  5
945
330
30D
100
AcDbEntity
  8
0
  6
Continuous
 62
     7
100
AcDbText
 10
-206.2499999999998
 20
-562.5
 30
0.0
 40
15.0
  1
ｎ
  7
BIGFONT
100
AcDbText
  0
TEXT
  5
946
330
30D
100
AcDbEntity
  8
0
  6
Continuous
 62
     7
100
AcDbText
 10
-194.9999999999998
 20
-562.5
 30
0.0
 40
15.0
  1
ｇ
  7
BIGFONT
100
AcDbText
  0
TEXT
  5
947
330
30D
100
AcDbEntity
  8
0
  6
Continuous
 62
     7
100
AcDbText
 10
-186.7499999999998
 20
-562.5
 30
0.0
 40
15.0
  1
ｌ
  7
BIGFONT
100
AcDbText
  0
TEXT
  5
948
330
30D
100
AcDbEntity
  8
0
  6
Continuous
 62
     7
100
AcDbText
 10
-177.9999999999998
 20
-562.5
 30
0.0
 40
15.0
  1
ｅ
  7
BIGFONT
100
AcDbText
  0
TEXT
  5
949
330
30D
100
AcDbEntity
  8
0
  6
Continuous
 62
     7
100
AcDbText
 10
-153.4999999999998
 20
-562.5
 30
0.0
 40
15.0
  1
Ｐ
  7
BIGFONT
100
AcDbText
  0
TEXT
  5
94A
330
30D
100
AcDbEntity
  8
0
  6
Continuous
 62
     7
100
AcDbText
 10
-141.4999999999998
 20
-562.5
 30
0.0
 40
15.0
  1
ｒ
  7
BIGFONT
100
AcDbText
  0
TEXT
  5
94B
330
30D
100
AcDbEntity
  8
0
  6
Continuous
 62
     7
100
AcDbText
 10
-130.4999999999998
 20
-562.5
 30
0.0
 40
15.0
  1
ｏ
  7
BIGFONT
100
AcDbText
  0
TEXT
  5
94C
330
30D
100
AcDbEntity
  8
0
  6
Continuous
 62
     7
100
AcDbText
 10
-119.4999999999998
 20
-562.5
 30
0.0
 40
15.0
  1
ｊ
  7
BIGFONT
100
AcDbText
  0
TEXT
  5
94D
330
30D
100
AcDbEntity
  8
0
  6
Continuous
 62
     7
100
AcDbText
 10
-108.7499999999998
 20
-562.5
 30
0.0
 40
15.0
  1
ｅ
  7
BIGFONT
100
AcDbText
  0
TEXT
  5
94E
330
30D
100
AcDbEntity
  8
0
  6
Continuous
 62
     7
100
AcDbText
 10
-97.49999999999984
 20
-562.5
 30
0.0
 40
15.0
  1
ｃ
  7
BIGFONT
100
AcDbText
  0
TEXT
  5
94F
330
30D
100
AcDbEntity
  8
0
  6
Continuous
 62
     7
100
AcDbText
 10
-86.49999999999982
 20
-562.5
 30
0.0
 40
15.0
  1
ｔ
  7
BIGFONT
100
AcDbText
  0
TEXT
  5
950
330
30D
100
AcDbEntity
  8
0
  6
Continuous
 62
     7
100
AcDbText
 10
-77.99999999999982
 20
-562.5
 30
0.0
 40
15.0
  1
ｉ
  7
BIGFONT
100
AcDbText
  0
TEXT
  5
951
330
30D
100
AcDbEntity
  8
0
  6
Continuous
 62
     7
100
AcDbText
 10
-69.49999999999983
 20
-562.5
 30
0.0
 40
15.0
  1
ｏ
  7
BIGFONT
100
AcDbText
  0
TEXT
  5
952
330
30D
100
AcDbEntity
  8
0
  6
Continuous
 62
     7
100
AcDbText
 10
-58.49999999999983
 20
-562.5
 30
0.0
 40
15.0
  1
ｎ
  7
BIGFONT
100
AcDbText
  0
TEXT
  5
953
330
30D
100
AcDbEntity
  8
0
  6
Continuous
 62
     7
100
AcDbText
 10
-299.9999999999998
 20
-673.7499999999998
 30
0.0
 40
26.0
  1
CORPORATION
 41
1.1
  7
MS-Pゴシック
100
AcDbText
  0
TEXT
  5
954
330
30D
100
AcDbEntity
  8
0
  6
Continuous
 62
     7
100
AcDbText
 10
361.2500000000002
 20
-688.9999999999998
 30
0.0
 40
12.5
  1
Ｒ
 41
0.833
  7
BIGFONT
100
AcDbText
  0
TEXT
  5
955
330
30D
100
AcDbEntity
  8
0
  6
Continuous
 62
     7
100
AcDbText
 10
371.5000000000002
 20
-688.9999999999998
 30
0.0
 40
12.5
  1
ｅ
 41
0.833
  7
BIGFONT
100
AcDbText
  0
TEXT
  5
956
330
30D
100
AcDbEntity
  8
0
  6
Continuous
 62
     7
100
AcDbText
 10
379.0000000000002
 20
-688.9999999999998
 30
0.0
 40
12.5
  1
ｖ
 41
0.833
  7
BIGFONT
100
AcDbText
  0
TEXT
  5
957
330
30D
100
AcDbEntity
  8
0
  6
Continuous
 62
     7
100
AcDbText
 10
388.2500000000002
 20
-688.9999999999998
 30
0.0
 40
12.5
  1
ｉ
 41
0.833
  7
BIGFONT
100
AcDbText
  0
TEXT
  5
958
330
30D
100
AcDbEntity
  8
0
  6
Continuous
 62
     7
100
AcDbText
 10
396.0000000000001
 20
-688.9999999999998
 30
0.0
 40
12.5
  1
ｓ
 41
0.833
  7
BIGFONT
100
AcDbText
  0
TEXT
  5
959
330
30D
100
AcDbEntity
  8
0
  6
Continuous
 62
     7
100
AcDbText
 10
402.7500000000001
 20
-688.9999999999998
 30
0.0
 40
12.5
  1
ｉ
 41
0.833
  7
BIGFONT
100
AcDbText
  0
TEXT
  5
95A
330
30D
100
AcDbEntity
  8
0
  6
Continuous
 62
     7
100
AcDbText
 10
410.2500000000001
 20
-688.9999999999998
 30
0.0
 40
12.5
  1
ｏ
 41
0.833
  7
BIGFONT
100
AcDbText
  0
TEXT
  5
95B
330
30D
100
AcDbEntity
  8
0
  6
Continuous
 62
     7
100
AcDbText
 10
418.75
 20
-688.9999999999998
 30
0.0
 40
12.5
  1
ｎ
 41
0.833
  7
BIGFONT
100
AcDbText
  0
INSERT
  5
95C
330
30D
100
AcDbEntity
  8
0
  6
Continuous
 62
     2
100
AcDbBlockReference
  2
KVK
 10
0.0000000000001705
 20
0.0
 30
0.0
 41
4.999999999999999
 42
4.999999999999999
 43
4.999999999999999
  0
LINE
  5
95D
330
30D
100
AcDbEntity
  8
0
 62
     3
100
AcDbLine
 10
-329.9999999999997
 20
-599.9999999999999
 30
0.0
 11
-179.9999999999998
 21
-599.9999999999999
 31
0.0
  0
TEXT
  5
95E
330
30D
100
AcDbEntity
  8
0
  6
Continuous
 62
     7
100
AcDbText
 10
-413.7499999999998
 20
-595.2843884034495
 30
0.0
 40
15.0
  1
製    図
 41
0.833
  7
BIGFONT
100
AcDbText
  0
TEXT
  5
95F
330
30D
100
AcDbEntity
  8
0
  6
Continuous
 62
     7
100
AcDbText
 10
-405.9999999999998
 20
-618.0037515529201
 30
0.0
 40
12.5
  1
Ｄ
 41
0.833
  7
BIGFONT
100
AcDbText
  0
TEXT
  5
960
330
30D
100
AcDbEntity
  8
0
  6
Continuous
 62
     7
100
AcDbText
 10
-397.2499999999998
 20
-618.0037515529201
 30
0.0
 40
12.5
  1
ｒ
 41
0.833
  7
BIGFONT
100
AcDbText
  0
TEXT
  5
961
330
30D
100
AcDbEntity
  8
0
  6
Continuous
 62
     7
100
AcDbText
 10
-390.4999999999997
 20
-618.0037515529201
 30
0.0
 40
12.5
  1
ａ
 41
0.833
  7
BIGFONT
100
AcDbText
  0
TEXT
  5
962
330
30D
100
AcDbEntity
  8
0
  6
Continuous
 62
     7
100
AcDbText
 10
-381.9999999999998
 20
-618.0037515529201
 30
0.0
 40
12.5
  1
ｗ
 41
0.833
  7
BIGFONT
100
AcDbText
  0
TEXT
  5
963
330
30D
100
AcDbEntity
  8
0
  6
Continuous
 62
     7
100
AcDbText
 10
-372.4999999999998
 20
-618.0037515529201
 30
0.0
 40
12.5
  1
ｎ
 41
0.833
  7
BIGFONT
100
AcDbText
  0
LINE
  5
964
330
30D
100
AcDbEntity
  8
0
 62
     3
100
AcDbLine
 10
100.0000000000001
 20
-629.9999999999998
 30
0.0
 11
100.0000000000001
 21
-569.9999999999999
 31
0.0
  0
TEXT
  5
965
330
30D
100
AcDbEntity
  8
0
  6
Continuous
 62
     7
100
AcDbText
 10
20.00000000000017
 20
-593.4999999999997
 30
0.0
 40
15.0
  1
図    名
 41
0.833
  7
BIGFONT
100
AcDbText
  0
ENDBLK
  5
421
330
30D
100
AcDbEntity
  8
0
100
AcDbBlockEnd
  0
BLOCK
  5
488
330
484
100
AcDbEntity
  8
0
 62
     2
100
AcDbBlockBegin
  2
S36
 70
     0
 10
0.0
 20
0.0
 30
0.0
  3
S36
  1

  0
TEXT
  5
485
330
484
100
AcDbEntity
  8
BALN
100
AcDbText
 10
23.75
 20
30.0
 30
0.0
 40
25.0
  1
１
 41
0.833
  7
BIGFONT
100
AcDbText
  0
LINE
  5
486
330
484
100
AcDbEntity
  8
BALN
  6
CONTINUOUS-S
 62
     4
100
AcDbLine
 10
66.25
 20
50.0
 30
0.0
 11
23.75
 21
10.0
 31
0.0
  0
TEXT
  5
487
330
484
100
AcDbEntity
  8
BALN
100
AcDbText
 10
41.25
 20
5.0
 30
0.0
 40
25.0
  1
５
 41
0.833
  7
BIGFONT
100
AcDbText
  0
ENDBLK
  5
489
330
484
100
AcDbEntity
  8
0
 62
     2
100
AcDbBlockEnd
  0
BLOCK
  5
4A5
330
4A1
100
AcDbEntity
  8
0
100
AcDbBlockBegin
  2
_OPEN
 70
     0
 10
0.0
 20
0.0
 30
0.0
  3
_OPEN
  1

  0
LINE
  5
4A2
330
4A1
100
AcDbEntity
  8
0
  6
ByBlock
 62
     0
100
AcDbLine
 10
-1.0
 20
0.1666666666666666
 30
0.0
 11
0.0
 21
0.0
 31
0.0
  0
LINE
  5
4A3
330
4A1
100
AcDbEntity
  8
0
  6
ByBlock
 62
     0
100
AcDbLine
 10
0.0
 20
0.0
 30
0.0
 11
-1.0
 21
-0.1666666666666666
 31
0.0
  0
LINE
  5
4A4
330
4A1
100
AcDbEntity
  8
0
  6
ByBlock
 62
     0
100
AcDbLine
 10
0.0
 20
0.0
 30
0.0
 11
-1.0
 21
0.0
 31
0.0
  0
ENDBLK
  5
4A6
330
4A1
100
AcDbEntity
  8
0
100
AcDbBlockEnd
  0
BLOCK
  5
76B
330
76A
100
AcDbEntity
  8
0
 62
     2
100
AcDbBlockBegin
  2
KVK
 70
     0
 10
0.0
 20
0.0
 30
0.0
  3
KVK
  1

  0
HATCH
  5
76C
330
76A
100
AcDbEntity
  8
0
  6
Continuous
 62
     7
100
AcDbHatch
 10
0.0
 20
0.0
 30
0.0
210
0.0
220
0.0
230
1.0
  2
SOLID
 70
     1
 71
     1
 91
        1
 92
        1
 93
       12
 72
     1
 10
-84.0
 20
-135.5
 11
-84.0
 21
-129.0
 72
     1
 10
-84.0
 20
-129.0
 11
-82.5
 21
-129.0
 72
     1
 10
-82.5
 20
-129.0
 11
-82.5
 21
-131.301182272253
 72
     1
 10
-82.5
 20
-131.301182272253
 11
-80.56700689130741
 21
-129.0
 72
     1
 10
-80.56700689130741
 20
-129.0
 11
-78.67299310869258
 21
-129.0
 72
     1
 10
-78.67299310869258
 20
-129.0
 11
-80.50454112829113
 21
-131.1804143090459
 72
     1
 10
-80.50454112829113
 20
-131.1804143090459
 11
-78.14316761723621
 21
-135.5
 72
     1
 10
-78.14316761723621
 20
-135.5
 11
-79.85349904943046
 21
-135.5
 72
     1
 10
-79.85349904943046
 20
-135.5
 11
-81.54060728433186
 21
-132.4138263995705
 72
     1
 10
-81.54060728433186
 20
-132.4138263995705
 11
-82.5
 21
-133.5559605848898
 72
     1
 10
-82.5
 20
-133.5559605848898
 11
-82.5
 21
-135.5
 72
     1
 10
-82.5
 20
-135.5
 11
-84.0
 21
-135.5
 97
       12
330
77E
330
77D
330
775
330
77C
330
77B
330
774
330
779
330
778
330
777
330
77A
330
776
330
77F
 75
     0
 76
     1
 98
        1
 10
-84.50000000000001
 20
-136.0
450
        0
451
        0
460
0.0
461
0.0
452
        0
462
0.0
453
        0
470

  0
LINE
  5
76D
102
{ACAD_REACTORS
330
79F
102
}
330
76A
100
AcDbEntity
  8
0
  6
Continuous
 62
     7
100
AcDbLine
 10
-74.23733164343321
 20
-135.5
 30
0.0
 11
-72.71266835656678
 21
-135.5
 31
0.0
  0
LINE
  5
76E
102
{ACAD_REACTORS
330
79F
102
}
330
76A
100
AcDbEntity
  8
0
  6
Continuous
 62
     7
100
AcDbLine
 10
-72.71266835656678
 20
-135.5
 30
0.0
 11
-70.58933502323345
 21
-129.0
 31
0.0
  0
LINE
  5
76F
102
{ACAD_REACTORS
330
79F
102
}
330
76A
100
AcDbEntity
  8
0
  6
Continuous
 62
     7
100
AcDbLine
 10
-72.08733164343321
 20
-129.0
 30
0.0
 11
-70.58933502323345
 21
-129.0
 31
0.0
  0
LINE
  5
770
102
{ACAD_REACTORS
330
79F
102
}
330
76A
100
AcDbEntity
  8
0
  6
Continuous
 62
     7
100
AcDbLine
 10
-73.475
 20
-133.2479643568371
 30
0.0
 11
-72.08733164343321
 21
-129.0
 31
0.0
  0
LINE
  5
771
102
{ACAD_REACTORS
330
79F
102
}
330
76A
100
AcDbEntity
  8
0
  6
Continuous
 62
     7
100
AcDbLine
 10
-76.36066497676655
 20
-129.0
 30
0.0
 11
-74.86266835656678
 21
-129.0
 31
0.0
  0
LINE
  5
772
102
{ACAD_REACTORS
330
79F
102
}
330
76A
100
AcDbEntity
  8
0
  6
Continuous
 62
     7
100
AcDbLine
 10
-73.475
 20
-133.2479643568371
 30
0.0
 11
-74.86266835656678
 21
-129.0
 31
0.0
  0
LINE
  5
773
102
{ACAD_REACTORS
330
79F
102
}
330
76A
100
AcDbEntity
  8
0
  6
Continuous
 62
     7
100
AcDbLine
 10
-74.23733164343321
 20
-135.5
 30
0.0
 11
-76.36066497676655
 21
-129.0
 31
0.0
  0
LINE
  5
774
102
{ACAD_REACTORS
330
76C
102
}
330
76A
100
AcDbEntity
  8
0
  6
Continuous
 62
     7
100
AcDbLine
 10
-80.50454112829113
 20
-131.1804143090459
 30
0.0
 11
-78.67299310869258
 21
-129.0
 31
0.0
  0
LINE
  5
775
102
{ACAD_REACTORS
330
76C
102
}
330
76A
100
AcDbEntity
  8
0
  6
Continuous
 62
     7
100
AcDbLine
 10
-82.5
 20
-129.0
 30
0.0
 11
-82.5
 21
-131.301182272253
 31
0.0
  0
LINE
  5
776
102
{ACAD_REACTORS
330
76C
102
}
330
76A
100
AcDbEntity
  8
0
  6
Continuous
 62
     7
100
AcDbLine
 10
-82.5
 20
-135.5
 30
0.0
 11
-82.5
 21
-133.5559605848898
 31
0.0
  0
LINE
  5
777
102
{ACAD_REACTORS
330
76C
102
}
330
76A
100
AcDbEntity
  8
0
  6
Continuous
 62
     7
100
AcDbLine
 10
-81.54060728433186
 20
-132.4138263995705
 30
0.0
 11
-79.85349904943046
 21
-135.5
 31
0.0
  0
LINE
  5
778
102
{ACAD_REACTORS
330
76C
102
}
330
76A
100
AcDbEntity
  8
0
  6
Continuous
 62
     7
100
AcDbLine
 10
-78.14316761723621
 20
-135.5
 30
0.0
 11
-79.85349904943046
 21
-135.5
 31
0.0
  0
LINE
  5
779
102
{ACAD_REACTORS
330
76C
102
}
330
76A
100
AcDbEntity
  8
0
  6
Continuous
 62
     7
100
AcDbLine
 10
-80.50454112829113
 20
-131.1804143090459
 30
0.0
 11
-78.14316761723621
 21
-135.5
 31
0.0
  0
LINE
  5
77A
102
{ACAD_REACTORS
330
76C
102
}
330
76A
100
AcDbEntity
  8
0
  6
Continuous
 62
     7
100
AcDbLine
 10
-82.5
 20
-133.5559605848898
 30
0.0
 11
-81.54060728433186
 21
-132.4138263995705
 31
0.0
  0
LINE
  5
77B
102
{ACAD_REACTORS
330
76C
102
}
330
76A
100
AcDbEntity
  8
0
  6
Continuous
 62
     7
100
AcDbLine
 10
-80.56700689130741
 20
-129.0
 30
0.0
 11
-78.67299310869258
 21
-129.0
 31
0.0
  0
LINE
  5
77C
102
{ACAD_REACTORS
330
76C
102
}
330
76A
100
AcDbEntity
  8
0
  6
Continuous
 62
     7
100
AcDbLine
 10
-82.5
 20
-131.301182272253
 30
0.0
 11
-80.56700689130741
 21
-129.0
 31
0.0
  0
LINE
  5
77D
102
{ACAD_REACTORS
330
76C
102
}
330
76A
100
AcDbEntity
  8
0
  6
Continuous
 62
     7
100
AcDbLine
 10
-84.0
 20
-129.0
 30
0.0
 11
-82.5
 21
-129.0
 31
0.0
  0
LINE
  5
77E
102
{ACAD_REACTORS
330
76C
102
}
330
76A
100
AcDbEntity
  8
0
  6
Continuous
 62
     7
100
AcDbLine
 10
-84.0
 20
-135.5
 30
0.0
 11
-84.0
 21
-129.0
 31
0.0
  0
LINE
  5
77F
102
{ACAD_REACTORS
330
76C
102
}
330
76A
100
AcDbEntity
  8
0
  6
Continuous
 62
     7
100
AcDbLine
 10
-82.5
 20
-135.5
 30
0.0
 11
-84.0
 21
-135.5
 31
0.0
  0
LINE
  5
780
330
76A
100
AcDbEntity
  8
0
  6
Continuous
 62
     7
100
AcDbLine
 10
-66.47836538461539
 20
-133.295673076923
 30
0.0
 11
-65.0
 21
-136.0
 31
0.0
  0
LINE
  5
781
330
76A
100
AcDbEntity
  8
0
  6
Continuous
 62
     7
100
AcDbLine
 10
-66.84999999999999
 20
-133.7380952380952
 30
0.0
 11
-66.47836538461539
 21
-133.295673076923
 31
0.0
  0
LINE
  5
782
330
76A
100
AcDbEntity
  8
0
  6
Continuous
 62
     7
100
AcDbLine
 10
-64.75192307692307
 20
-131.2403846153846
 30
0.0
 11
-62.14999999999999
 21
-136.0
 31
0.0
  0
LINE
  5
783
330
76A
100
AcDbEntity
  8
0
  6
Continuous
 62
     7
100
AcDbLine
 10
-66.84999999999999
 20
-129.9285714285714
 30
0.0
 11
-65.65000000000001
 21
-128.5
 31
0.0
  0
LINE
  5
784
330
76A
100
AcDbEntity
  8
0
  6
Continuous
 62
     7
100
AcDbLine
 10
-65.65000000000001
 20
-128.5
 30
0.0
 11
-62.45
 21
-128.5
 31
0.0
  0
LINE
  5
785
330
76A
100
AcDbEntity
  8
0
  6
Continuous
 62
     7
100
AcDbLine
 10
-62.14999999999999
 20
-136.0
 30
0.0
 11
-65.0
 21
-136.0
 31
0.0
  0
LINE
  5
786
330
76A
100
AcDbEntity
  8
0
  6
Continuous
 62
     7
100
AcDbLine
 10
-69.34999999999999
 20
-128.5
 30
0.0
 11
-66.84999999999999
 21
-128.5
 31
0.0
  0
LINE
  5
787
330
76A
100
AcDbEntity
  8
0
  6
Continuous
 62
     7
100
AcDbLine
 10
-66.84999999999999
 20
-128.5
 30
0.0
 11
-66.84999999999999
 21
-129.9285714285714
 31
0.0
  0
LINE
  5
788
330
76A
100
AcDbEntity
  8
0
  6
Continuous
 62
     7
100
AcDbLine
 10
-66.84999999999999
 20
-136.0
 30
0.0
 11
-66.84999999999999
 21
-133.7380952380952
 31
0.0
  0
LINE
  5
789
330
76A
100
AcDbEntity
  8
0
  6
Continuous
 62
     7
100
AcDbLine
 10
-66.84999999999999
 20
-136.0
 30
0.0
 11
-69.34999999999999
 21
-136.0
 31
0.0
  0
LINE
  5
78A
330
76A
100
AcDbEntity
  8
0
  6
Continuous
 62
     7
100
AcDbLine
 10
-69.34999999999999
 20
-136.0
 30
0.0
 11
-69.34999999999999
 21
-128.5
 31
0.0
  0
LINE
  5
78B
330
76A
100
AcDbEntity
  8
0
  6
Continuous
 62
     7
100
AcDbLine
 10
-64.75192307692307
 20
-131.2403846153846
 30
0.0
 11
-62.45
 21
-128.5
 31
0.0
  0
LINE
  5
78C
330
76A
100
AcDbEntity
  8
0
  6
Continuous
 62
     7
100
AcDbLine
 10
-72.45
 20
-128.5
 30
0.0
 11
-69.90000000000001
 21
-128.5
 31
0.0
  0
LINE
  5
78D
330
76A
100
AcDbEntity
  8
0
  6
Continuous
 62
     7
100
AcDbLine
 10
-73.475
 20
-131.6377551020408
 30
0.0
 11
-72.45
 21
-128.5
 31
0.0
  0
LINE
  5
78E
330
76A
100
AcDbEntity
  8
0
  6
Continuous
 62
     7
100
AcDbLine
 10
-74.59999999999999
 20
-136.0
 30
0.0
 11
-72.35000000000001
 21
-136.0
 31
0.0
  0
LINE
  5
78F
330
76A
100
AcDbEntity
  8
0
  6
Continuous
 62
     7
100
AcDbLine
 10
-72.35000000000001
 20
-136.0
 30
0.0
 11
-69.90000000000001
 21
-128.5
 31
0.0
  0
LINE
  5
790
330
76A
100
AcDbEntity
  8
0
  6
Continuous
 62
     7
100
AcDbLine
 10
-73.475
 20
-131.6377551020408
 30
0.0
 11
-74.5
 21
-128.5
 31
0.0
  0
LINE
  5
791
330
76A
100
AcDbEntity
  8
0
  6
Continuous
 62
     7
100
AcDbLine
 10
-77.05
 20
-128.5
 30
0.0
 11
-74.5
 21
-128.5
 31
0.0
  0
LINE
  5
792
330
76A
100
AcDbEntity
  8
0
  6
Continuous
 62
     7
100
AcDbLine
 10
-74.59999999999999
 20
-136.0
 30
0.0
 11
-77.05
 21
-128.5
 31
0.0
  0
LINE
  5
793
330
76A
100
AcDbEntity
  8
0
  6
Continuous
 62
     7
100
AcDbLine
 10
-79.90192307692308
 20
-131.2403846153846
 30
0.0
 11
-77.59999999999999
 21
-128.5
 31
0.0
  0
LINE
  5
794
330
76A
100
AcDbEntity
  8
0
  6
Continuous
 62
     7
100
AcDbLine
 10
-84.50000000000001
 20
-136.0
 30
0.0
 11
-84.50000000000001
 21
-128.5
 31
0.0
  0
LINE
  5
795
330
76A
100
AcDbEntity
  8
0
  6
Continuous
 62
     7
100
AcDbLine
 10
-82.0
 20
-136.0
 30
0.0
 11
-84.50000000000001
 21
-136.0
 31
0.0
  0
LINE
  5
796
330
76A
100
AcDbEntity
  8
0
  6
Continuous
 62
     7
100
AcDbLine
 10
-82.0
 20
-136.0
 30
0.0
 11
-82.0
 21
-133.7380952380952
 31
0.0
  0
LINE
  5
797
330
76A
100
AcDbEntity
  8
0
  6
Continuous
 62
     7
100
AcDbLine
 10
-82.0
 20
-128.5
 30
0.0
 11
-82.0
 21
-129.9285714285714
 31
0.0
  0
LINE
  5
798
330
76A
100
AcDbEntity
  8
0
  6
Continuous
 62
     7
100
AcDbLine
 10
-84.50000000000001
 20
-128.5
 30
0.0
 11
-82.0
 21
-128.5
 31
0.0
  0
LINE
  5
799
330
76A
100
AcDbEntity
  8
0
  6
Continuous
 62
     7
100
AcDbLine
 10
-77.3
 20
-136.0
 30
0.0
 11
-80.15
 21
-136.0
 31
0.0
  0
LINE
  5
79A
330
76A
100
AcDbEntity
  8
0
  6
Continuous
 62
     7
100
AcDbLine
 10
-80.8
 20
-128.5
 30
0.0
 11
-77.59999999999999
 21
-128.5
 31
0.0
  0
LINE
  5
79B
330
76A
100
AcDbEntity
  8
0
  6
Continuous
 62
     7
100
AcDbLine
 10
-82.0
 20
-129.9285714285714
 30
0.0
 11
-80.8
 21
-128.5
 31
0.0
  0
LINE
  5
79C
330
76A
100
AcDbEntity
  8
0
  6
Continuous
 62
     7
100
AcDbLine
 10
-79.90192307692308
 20
-131.2403846153846
 30
0.0
 11
-77.3
 21
-136.0
 31
0.0
  0
LINE
  5
79D
330
76A
100
AcDbEntity
  8
0
  6
Continuous
 62
     7
100
AcDbLine
 10
-82.0
 20
-133.7380952380952
 30
0.0
 11
-81.62836538461538
 21
-133.295673076923
 31
0.0
  0
LINE
  5
79E
330
76A
100
AcDbEntity
  8
0
  6
Continuous
 62
     7
100
AcDbLine
 10
-81.62836538461538
 20
-133.295673076923
 30
0.0
 11
-80.15
 21
-136.0
 31
0.0
  0
HATCH
  5
79F
330
76A
100
AcDbEntity
  8
0
  6
Continuous
 62
     7
100
AcDbHatch
 10
0.0
 20
0.0
 30
0.0
210
0.0
220
0.0
230
1.0
  2
SOLID
 70
     1
 71
     1
 91
        1
 92
        1
 93
        7
 72
     1
 10
-74.23733164343321
 20
-135.5
 11
-76.36066497676655
 21
-129.0
 72
     1
 10
-76.36066497676655
 20
-129.0
 11
-74.86266835656678
 21
-129.0
 72
     1
 10
-74.86266835656678
 20
-129.0
 11
-73.475
 21
-133.2479643568371
 72
     1
 10
-73.475
 20
-133.2479643568371
 11
-72.08733164343321
 21
-129.0
 72
     1
 10
-72.08733164343321
 20
-129.0
 11
-70.58933502323345
 21
-129.0
 72
     1
 10
-70.58933502323345
 20
-129.0
 11
-72.71266835656678
 21
-135.5
 72
     1
 10
-72.71266835656678
 20
-135.5
 11
-74.23733164343321
 21
-135.5
 97
        7
330
773
330
771
330
772
330
770
330
76F
330
76E
330
76D
 75
     0
 76
     1
 98
        1
 10
0.0
 20
0.0
450
        0
451
        0
460
0.0
461
0.0
452
        0
462
0.0
453
        0
470

  0
HATCH
  5
7A0
330
76A
100
AcDbEntity
  8
0
  6
Continuous
 62
     7
100
AcDbHatch
 10
0.0
 20
0.0
 30
0.0
210
0.0
220
0.0
230
1.0
  2
SOLID
 70
     1
 71
     0
 91
        1
 92
        1
 93
       12
 72
     1
 10
-68.84999999999999
 20
-135.5
 11
-68.84999999999999
 21
-129.0
 72
     1
 10
-68.84999999999999
 20
-129.0
 11
-67.34999999999999
 21
-129.0
 72
     1
 10
-67.34999999999999
 20
-129.0
 11
-67.34999999999999
 21
-131.301182272253
 72
     1
 10
-67.34999999999999
 20
-131.301182272253
 11
-65.41700689130741
 21
-129.0
 72
     1
 10
-65.41700689130741
 20
-129.0
 11
-63.52299310869257
 21
-129.0
 72
     1
 10
-63.52299310869257
 20
-129.0
 11
-65.35454112829111
 21
-131.1804143090459
 72
     1
 10
-65.35454112829111
 20
-131.1804143090459
 11
-62.99316761723621
 21
-135.5
 72
     1
 10
-62.99316761723621
 20
-135.5
 11
-64.70349904943045
 21
-135.5
 72
     1
 10
-64.70349904943045
 20
-135.5
 11
-66.39060728433186
 21
-132.4138263995705
 72
     1
 10
-66.39060728433186
 20
-132.4138263995705
 11
-67.34999999999999
 21
-133.5559605848898
 72
     1
 10
-67.34999999999999
 20
-133.5559605848898
 11
-67.34999999999999
 21
-135.5
 72
     1
 10
-67.34999999999999
 20
-135.5
 11
-68.84999999999999
 21
-135.5
 97
        0
 75
     0
 76
     1
 98
        1
 10
-69.34999999999999
 20
-136.0
450
        0
451
        0
460
0.0
461
0.0
452
        0
462
0.0
453
        0
470

  0
ENDBLK
  5
7A1
330
76A
100
AcDbEntity
  8
0
 62
     2
100
AcDbBlockEnd
  0
BLOCK
  5
4B92
330
4B91
100
AcDbEntity
  8
0
 62
     4
100
AcDbBlockBegin
  2
*D4
 70
     1
 10
0.0
 20
0.0
 30
0.0
  3
*D4
  1

  0
LINE
  5
4FBC
330
4B91
100
AcDbEntity
  8
BALN
 62
     4
440
 16777216
370
    -2
100
AcDbLine
 10
-159.9999999999999
 20
465.0000035579481
 30
0.0
 11
130.0000000000002
 21
465.0000035579481
 31
0.0
  0
LINE
  5
4FBD
330
4B91
100
AcDbEntity
  8
BALN
 62
     4
440
 16777216
370
    -2
100
AcDbLine
 10
-159.9999999999998
 20
135.0000035579481
 30
0.0
 11
130.0000000000001
 21
135.0000035579481
 31
0.0
  0
LINE
  5
4FBE
330
4B91
100
AcDbEntity
  8
BALN
 62
     4
440
 16777216
370
    -2
100
AcDbLine
 10
120.0000000000002
 20
457.5000035579481
 30
0.0
 11
120.0000000000001
 21
142.500003557948
 31
0.0
  0
INSERT
  5
4FBF
330
4B91
100
AcDbEntity
  8
BALN
 62
     4
440
 16777216
370
    -2
100
AcDbBlockReference
  2
_OPEN
 10
120.0000000000002
 20
465.0000035579481
 30
0.0
 41
7.5
 42
7.5
 43
7.5
 50
90.0
  0
INSERT
  5
4FC0
330
4B91
100
AcDbEntity
  8
BALN
 62
     4
440
 16777216
370
    -2
100
AcDbBlockReference
  2
_OPEN
 10
120.0000000000001
 20
135.0000035579481
 30
0.0
 41
7.5
 42
7.5
 43
7.5
 50
270.0
  0
MTEXT
  5
4FC1
330
4B91
100
AcDbEntity
  8
BALN
440
 16777216
100
AcDbMText
 10
109.5000000000001
 20
300.0000035579482
 30
0.0
 40
15.0
 41
0.0
 46
0.0
 71
     5
 72
     1
  1
（330）
  7
BIGFONT
 11
0.0000000000000001
 21
1.0
 31
0.0
 73
     1
 44
1.0
  0
POINT
  5
4FC2
330
4B91
100
AcDbEntity
  8
DEFPOINTS
 62
     0
100
AcDbPoint
 10
-159.9999999999999
 20
465.0000035579481
 30
0.0
  0
POINT
  5
4FC3
330
4B91
100
AcDbEntity
  8
DEFPOINTS
 62
     0
100
AcDbPoint
 10
-159.9999999999998
 20
135.0000035579481
 30
0.0
  0
POINT
  5
4FC4
330
4B91
100
AcDbEntity
  8
DEFPOINTS
 62
     0
100
AcDbPoint
 10
120.0000000000001
 20
135.0000035579481
 30
0.0
  0
ENDBLK
  5
4B93
330
4B91
100
AcDbEntity
  8
0
 62
     4
100
AcDbBlockEnd
  0
BLOCK
  5
4BA9
330
4BA8
100
AcDbEntity
  8
0
 62
     4
100
AcDbBlockBegin
  2
*D5
 70
     1
 10
0.0
 20
0.0
 30
0.0
  3
*D5
  1

  0
LINE
  5
4FCD
330
4BA8
100
AcDbEntity
  8
BALN
 62
     4
440
 16777216
370
    -2
100
AcDbLine
 10
-359.9999999999999
 20
300.0000035579481
 30
0.0
 11
-359.9999999999999
 21
45.00000355794862
 31
0.0
  0
LINE
  5
4FCE
330
4BA8
100
AcDbEntity
  8
BALN
 62
     4
440
 16777216
370
    -2
100
AcDbLine
 10
40.00000000000008
 20
300.0000035579487
 30
0.0
 11
40.00000000000007
 21
45.00000355794862
 31
0.0
  0
LINE
  5
4FCF
330
4BA8
100
AcDbEntity
  8
BALN
 62
     4
440
 16777216
370
    -2
100
AcDbLine
 10
-352.4999999999999
 20
55.00000355794862
 30
0.0
 11
32.50000000000007
 21
55.00000355794862
 31
0.0
  0
INSERT
  5
4FD0
330
4BA8
100
AcDbEntity
  8
BALN
 62
     4
440
 16777216
370
    -2
100
AcDbBlockReference
  2
_OPEN
 10
-359.9999999999999
 20
55.00000355794862
 30
0.0
 41
7.5
 42
7.5
 43
7.5
 50
180.0
  0
INSERT
  5
4FD1
330
4BA8
100
AcDbEntity
  8
BALN
 62
     4
440
 16777216
370
    -2
100
AcDbBlockReference
  2
_OPEN
 10
40.00000000000007
 20
55.00000355794862
 30
0.0
 41
7.5
 42
7.5
 43
7.5
  0
MTEXT
  5
4FD2
330
4BA8
100
AcDbEntity
  8
BALN
440
 16777216
100
AcDbMText
 10
-159.9999999999999
 20
65.50000355794861
 30
0.0
 40
15.0
 41
0.0
 46
0.0
 71
     5
 72
     1
  1
（400）
  7
BIGFONT
 73
     1
 44
1.0
  0
POINT
  5
4FD3
330
4BA8
100
AcDbEntity
  8
DEFPOINTS
 62
     0
100
AcDbPoint
 10
-359.9999999999999
 20
300.0000035579481
 30
0.0
  0
POINT
  5
4FD4
330
4BA8
100
AcDbEntity
  8
DEFPOINTS
 62
     0
100
AcDbPoint
 10
40.00000000000008
 20
300.0000035579487
 30
0.0
  0
POINT
  5
4FD5
330
4BA8
100
AcDbEntity
  8
DEFPOINTS
 62
     0
100
AcDbPoint
 10
40.00000000000007
 20
55.00000355794862
 30
0.0
  0
ENDBLK
  5
4BAA
330
4BA8
100
AcDbEntity
  8
0
 62
     4
100
AcDbBlockEnd
  0
BLOCK
  5
4BB5
330
4BB4
100
AcDbEntity
  8
0
 62
     4
100
AcDbBlockBegin
  2
*D6
 70
     1
 10
0.0
 20
0.0
 30
0.0
  3
*D6
  1

  0
LINE
  5
4CD2
330
4BB4
100
AcDbEntity
  8
BALN
 62
     4
440
 16777216
370
    -2
100
AcDbLine
 10
-235.0677024355104
 20
-230.0
 30
0.0
 11
-235.0677024355104
 21
-320.0
 31
0.0
  0
LINE
  5
4CD3
330
4BB4
100
AcDbEntity
  8
BALN
 62
     4
440
 16777216
370
    -2
100
AcDbLine
 10
-85.0677024355104
 20
-230.0
 30
0.0
 11
-85.0677024355104
 21
-320.0
 31
0.0
  0
LINE
  5
4CD4
330
4BB4
100
AcDbEntity
  8
BALN
 62
     4
440
 16777216
370
    -2
100
AcDbLine
 10
-227.5677024355104
 20
-310.0
 30
0.0
 11
-92.5677024355104
 21
-310.0
 31
0.0
  0
INSERT
  5
4CD5
330
4BB4
100
AcDbEntity
  8
BALN
 62
     4
440
 16777216
370
    -2
100
AcDbBlockReference
  2
_OPEN
 10
-235.0677024355104
 20
-310.0
 30
0.0
 41
7.5
 42
7.5
 43
7.5
 50
180.0
  0
INSERT
  5
4CD6
330
4BB4
100
AcDbEntity
  8
BALN
 62
     4
440
 16777216
370
    -2
100
AcDbBlockReference
  2
_OPEN
 10
-85.0677024355104
 20
-310.0
 30
0.0
 41
7.5
 42
7.5
 43
7.5
  0
MTEXT
  5
4CD7
330
4BB4
100
AcDbEntity
  8
BALN
440
 16777216
100
AcDbMText
 10
-160.0677024355104
 20
-299.5
 30
0.0
 40
15.0
 41
0.0
 46
0.0
 71
     5
 72
     1
  1
（%%c150）
  7
BIGFONT
 73
     1
 44
1.0
  0
POINT
  5
4CD8
330
4BB4
100
AcDbEntity
  8
DEFPOINTS
 62
     0
100
AcDbPoint
 10
-235.0677024355104
 20
-230.0
 30
0.0
  0
POINT
  5
4CD9
330
4BB4
100
AcDbEntity
  8
DEFPOINTS
 62
     0
100
AcDbPoint
 10
-85.0677024355104
 20
-230.0
 30
0.0
  0
POINT
  5
4CDA
330
4BB4
100
AcDbEntity
  8
DEFPOINTS
 62
     0
100
AcDbPoint
 10
-85.0677024355104
 20
-310.0
 30
0.0
  0
ENDBLK
  5
4BB6
330
4BB4
100
AcDbEntity
  8
0
 62
     4
100
AcDbBlockEnd
  0
BLOCK
  5
4BC1
330
4BC0
100
AcDbEntity
  8
0
 62
     4
100
AcDbBlockBegin
  2
*D7
 70
     1
 10
0.0
 20
0.0
 30
0.0
  3
*D7
  1

  0
LINE
  5
4CE4
330
4BC0
100
AcDbEntity
  8
BALN
 62
     4
440
 16777216
370
    -2
100
AcDbLine
 10
35.4322975644896
 20
-90.00000000000005
 30
0.0
 11
130.0000044395524
 21
-90.00000000000007
 31
0.0
  0
LINE
  5
4CE5
330
4BC0
100
AcDbEntity
  8
BALN
 62
     4
440
 16777216
370
    -2
100
AcDbLine
 10
-85.06770243552239
 20
-230.0000000000088
 30
0.0
 11
130.0000044395523
 21
-230.0000000000088
 31
0.0
  0
LINE
  5
4CE6
330
4BC0
100
AcDbEntity
  8
BALN
 62
     4
440
 16777216
370
    -2
100
AcDbLine
 10
120.0000044395524
 20
-97.50000000000007
 30
0.0
 11
120.0000044395524
 21
-222.5000000000088
 31
0.0
  0
INSERT
  5
4CE7
330
4BC0
100
AcDbEntity
  8
BALN
 62
     4
440
 16777216
370
    -2
100
AcDbBlockReference
  2
_OPEN
 10
120.0000044395524
 20
-90.00000000000007
 30
0.0
 41
7.5
 42
7.5
 43
7.5
 50
90.0
  0
INSERT
  5
4CE8
330
4BC0
100
AcDbEntity
  8
BALN
 62
     4
440
 16777216
370
    -2
100
AcDbBlockReference
  2
_OPEN
 10
120.0000044395523
 20
-230.0000000000088
 30
0.0
 41
7.5
 42
7.5
 43
7.5
 50
270.0
  0
MTEXT
  5
4CE9
330
4BC0
100
AcDbEntity
  8
BALN
440
 16777216
100
AcDbMText
 10
109.5000044395524
 20
-160.0000000000044
 30
0.0
 40
15.0
 41
0.0
 46
0.0
 71
     5
 72
     1
  1
（140）
  7
BIGFONT
 11
0.0000000000000001
 21
1.0
 31
0.0
 73
     1
 44
1.0
  0
POINT
  5
4CEA
330
4BC0
100
AcDbEntity
  8
DEFPOINTS
 62
     0
100
AcDbPoint
 10
35.4322975644896
 20
-90.00000000000005
 30
0.0
  0
POINT
  5
4CEB
330
4BC0
100
AcDbEntity
  8
DEFPOINTS
 62
     0
100
AcDbPoint
 10
-85.06770243552239
 20
-230.0000000000088
 30
0.0
  0
POINT
  5
4CEC
330
4BC0
100
AcDbEntity
  8
DEFPOINTS
 62
     0
100
AcDbPoint
 10
120.0000044395523
 20
-230.0000000000088
 30
0.0
  0
ENDBLK
  5
4BC2
330
4BC0
100
AcDbEntity
  8
0
 62
     4
100
AcDbBlockEnd
  0
BLOCK
  5
5030
330
502F
100
AcDbEntity
  8
0
 62
     4
100
AcDbBlockBegin
  2
*D8
 70
     1
 10
0.0
 20
0.0
 30
0.0
  3
*D8
  1

  0
LINE
  5
5032
330
502F
100
AcDbEntity
  8
BALN
 62
     4
440
 16777216
370
    -2
100
AcDbLine
 10
-68.8284396806487
 20
226.9332458828838
 30
0.0
 11
-138.1508214334355
 21
282.4896238942638
 31
0.0
  0
LINE
  5
5033
330
502F
100
AcDbEntity
  8
BALN
 62
     4
440
 16777216
370
    -2
100
AcDbLine
 10
-181.8491785665642
 20
317.5103832216333
 30
0.0
 11
-187.7016371111797
 21
322.2006634886918
 31
0.0
  0
MTEXT
  5
5034
330
502F
100
AcDbEntity
  8
BALN
440
 16777216
100
AcDbMText
 10
-75.51396427129119
 20
245.7470457967214
 30
0.0
 40
15.0
 41
0.0
 46
0.0
 71
     5
 72
     1
  1
∅41
  7
BIGFONT
 11
0.780327805948727
 21
-0.6253707022744557
 31
0.0
 73
     1
 44
1.0
  0
LINE
  5
5035
330
502F
100
AcDbEntity
  8
BALN
 62
     4
440
 16777216
370
    -2
100
AcDbLine
 10
-175.9967200219488
 20
312.8201029545749
 30
0.0
 11
-144.003279978051
 21
287.1799041613222
 31
0.0
  0
INSERT
  5
5036
330
502F
100
AcDbEntity
  8
BALN
 62
     4
440
 16777216
370
    -2
100
AcDbBlockReference
  2
_OPEN
 10
-175.9967200219488
 20
312.8201029545749
 30
0.0
 41
7.5
 42
7.5
 43
7.5
 50
321.2905988105073
  0
INSERT
  5
5037
330
502F
100
AcDbEntity
  8
BALN
 62
     4
440
 16777216
370
    -2
100
AcDbBlockReference
  2
_OPEN
 10
-144.003279978051
 20
287.1799041613222
 30
0.0
 41
7.5
 42
7.5
 43
7.5
 50
141.2905988105072
  0
POINT
  5
5038
330
502F
100
AcDbEntity
  8
DEFPOINTS
 62
     0
100
AcDbPoint
 10
-144.003279978051
 20
287.1799041613222
 30
0.0
  0
POINT
  5
5039
330
502F
100
AcDbEntity
  8
DEFPOINTS
 62
     0
100
AcDbPoint
 10
-175.9967200219488
 20
312.8201029545749
 30
0.0
  0
ENDBLK
  5
5031
330
502F
100
AcDbEntity
  8
0
 62
     4
100
AcDbBlockEnd
  0
BLOCK
  5
51A9
330
51A8
100
AcDbEntity
  8
0
100
AcDbBlockBegin
  2
株式会社ＫＶＫ
 70
     0
 10
0.0
 20
0.0
 30
0.0
  3
株式会社ＫＶＫ
  1

  4
2018/10/22作成
  0
HATCH
  5
51AA
330
51A8
100
AcDbEntity
  8
0
100
AcDbHatch
 10
0.0
 20
0.0
 30
0.0
210
0.0
220
0.0
230
1.0
  2
SOLID
 70
     1
 71
     0
 91
       11
 92
        1
 93
        1
 72
     4
 94
        3
 73
     0
 74
     0
 95
       62
 96
       58
 40
0.0
 40
0.0
 40
0.0
 40
0.0
 40
1.0
 40
1.0
 40
1.0
 40
2.0
 40
2.0
 40
2.0
 40
3.0
 40
3.0
 40
3.0
 40
4.0
 40
4.0
 40
4.0
 40
5.0
 40
5.0
 40
5.0
 40
6.0
 40
6.0
 40
6.0
 40
7.0
 40
7.0
 40
7.0
 40
8.0
 40
8.0
 40
8.0
 40
9.0
 40
9.0
 40
9.0
 40
10.0
 40
10.0
 40
10.0
 40
11.0
 40
11.0
 40
11.0
 40
12.0
 40
12.0
 40
12.0
 40
13.0
 40
13.0
 40
13.0
 40
14.0
 40
14.0
 40
14.0
 40
15.0
 40
15.0
 40
15.0
 40
16.0
 40
16.0
 40
16.0
 40
17.0
 40
17.0
 40
17.0
 40
18.0
 40
18.0
 40
18.0
 40
19.0
 40
19.0
 40
19.0
 40
19.0
 10
19.90575917734219
 20
-2.711598165988732
 10
19.84705695661761
 20
-2.711598165988732
 10
18.28353177428424
 20
-2.711598165988732
 10
18.26038955265238
 20
-2.711598165988732
 10
18.23723321990984
 20
-2.711598165988732
 10
18.21574398649159
 20
-2.701409943769021
 10
18.20071366528599
 20
-2.683771054884573
 10
18.18596954205444
 20
-2.666682499333205
 10
16.38900226706217
 20
-0.5056363887624116
 10
16.25314049275049
 20
-0.3449531665802965
 10
16.25314049275049
 20
-1.513536610732671
 10
16.25314049275049
 20
-2.618450721567455
 10
16.25314049275049
 20
-2.633323832674932
 10
16.25314049275049
 20
-2.676052277108567
 10
16.21786271587273
 20
-2.711598165988732
 10
16.17527732033491
 20
-2.711598165988732
 10
16.13848771789774
 20
-2.711598165988732
 10
14.89659708291435
 20
-2.711598165988732
 10
14.86213775046016
 20
-2.711598165988732
 10
14.81942341821654
 20
-2.711598165988732
 10
14.78414564133879
 20
-2.676052277108567
 10
14.78414564133879
 20
-2.633323832674932
 10
14.78414564133879
 20
-2.590891721574394
 10
14.78414564133879
 20
2.591018721574528
 10
14.78414564133879
 20
2.633606054897256
 10
14.78414564133879
 20
2.676179277108872
 10
14.81942341821654
 20
2.711598165988789
 10
14.86213775046016
 20
2.711598165988789
 10
14.89659708291435
 20
2.711598165988789
 10
16.13848771789774
 20
2.711598165988789
 10
16.17527732033491
 20
2.711598165988789
 10
16.21786271587273
 20
2.711598165988789
 10
16.25314049275049
 20
2.676179277108872
 10
16.25314049275049
 20
2.633606054897256
 10
16.25314049275049
 20
2.621752721566963
 10
16.25314049275049
 20
1.615362388485152
 10
16.25314049275049
 20
0.4854433887675782
 10
16.37274626747688
 20
0.6565970553915577
 10
17.77283656509093
 20
2.657721943780131
 10
17.78689123139904
 20
2.678112499330495
 10
17.80177845324144
 20
2.699335610436378
 10
17.82520289708829
 20
2.711598165988789
 10
17.85083065324936
 20
2.711598165988789
 10
17.87673667355132
 20
2.711598165988789
 10
19.23038730568349
 20
2.711598165988789
 10
19.29501619292355
 20
2.711598165988789
 10
19.35992730237863
 20
2.711598165988789
 10
19.39409030150709
 20
2.638982388229237
 10
19.35950396905612
 20
2.589085499352734
 10
19.32450841439336
 20
2.539484943809611
 10
17.63227579089916
 20
0.1665746110695636
 10
17.63227579089916
 20
0.1665746110695636
 10
17.63227579089916
 20
0.1665746110695636
 10
19.90907731940159
 20
-2.515919388259817
 10
19.96087717593603
 20
-2.578205832688581
 10
20.01242506350984
 20
-2.640492277117687
 10
19.96653573134723
 20
-2.711598165988732
 10
19.90575917734219
 20
-2.711598165988732
 97
        0
 97
        0
 92
        1
 93
        1
 72
     4
 94
        3
 73
     0
 74
     0
 95
       44
 96
       40
 40
0.0
 40
0.0
 40
0.0
 40
0.0
 40
1.0
 40
1.0
 40
1.0
 40
2.0
 40
2.0
 40
2.0
 40
3.0
 40
3.0
 40
3.0
 40
4.0
 40
4.0
 40
4.0
 40
5.0
 40
5.0
 40
5.0
 40
6.0
 40
6.0
 40
6.0
 40
7.0
 40
7.0
 40
7.0
 40
8.0
 40
8.0
 40
8.0
 40
9.0
 40
9.0
 40
9.0
 40
10.0
 40
10.0
 40
10.0
 40
11.0
 40
11.0
 40
11.0
 40
12.0
 40
12.0
 40
12.0
 40
13.0
 40
13.0
 40
13.0
 40
13.0
 10
14.51777020369012
 20
2.711598165988789
 10
14.45024853874612
 20
2.711598165988789
 10
13.11906279492972
 20
2.711598165988789
 10
13.08887912903307
 20
2.711598165988789
 10
13.05856846313972
 20
2.711598165988789
 10
13.02934621001031
 20
2.693267832660069
 10
13.01750513085395
 20
2.665017388222736
 10
13.00689357556915
 20
2.640083054895626
 10
11.98838182377575
 20
0.2489693888267084
 10
11.74060483009707
 20
-0.3047223888125927
 10
11.49311005863345
 20
0.2489693888267084
 10
10.47461241795079
 20
2.640083054895626
 10
10.46400086266595
 20
2.665017388222736
 10
10.45214752963504
 20
2.693267832660069
 10
10.42292341926951
 20
2.711598165988789
 10
10.39233053116112
 20
2.711598165988789
 10
10.36201986526771
 20
2.711598165988789
 10
9.031116343666312
 20
2.711598165988789
 10
8.963721678719082
 20
2.711598165988789
 10
8.899092791478977
 20
2.711598165988789
 10
8.873467014354986
 20
2.642284388228404
 10
8.893307236071024
 20
2.60012038823902
 10
8.9132885688946
 20
2.557674166027254
 10
11.3944451722617
 20
-2.637740610451658
 10
11.40878206078479
 20
-2.666950610444359
 10
11.42365517151647
 20
-2.696174721548118
 10
11.44943617085877
 20
-2.711598165988732
 10
11.47919650343283
 20
-2.711598165988732
 10
11.50882983601016
 20
-2.711598165988732
 10
11.97253504640227
 20
-2.711598165988732
 10
12.00202726787208
 20
-2.711598165988732
 10
12.03192871155367
 20
-2.711598165988732
 10
12.05783671089271
 20
-2.696174721548118
 10
12.07244171052012
 20
-2.666950610444359
 10
12.08704671014752
 20
-2.637740610451658
 10
14.56793520241032
 20
2.557674166027254
 10
14.58804353523064
 20
2.60012038823902
 10
14.6080248680542
 20
2.642284388228404
 10
14.58239909093018
 20
2.711598165988789
 10
14.51777020369012
 20
2.711598165988789
 97
        0
 97
        0
 92
        1
 93
        1
 72
     4
 94
        3
 73
     0
 74
     0
 95
       62
 96
       58
 40
0.0
 40
0.0
 40
0.0
 40
0.0
 40
1.0
 40
1.0
 40
1.0
 40
2.0
 40
2.0
 40
2.0
 40
3.0
 40
3.0
 40
3.0
 40
4.0
 40
4.0
 40
4.0
 40
5.0
 40
5.0
 40
5.0
 40
6.0
 40
6.0
 40
6.0
 40
7.0
 40
7.0
 40
7.0
 40
8.0
 40
8.0
 40
8.0
 40
9.0
 40
9.0
 40
9.0
 40
10.0
 40
10.0
 40
10.0
 40
11.0
 40
11.0
 40
11.0
 40
12.0
 40
12.0
 40
12.0
 40
13.0
 40
13.0
 40
13.0
 40
14.0
 40
14.0
 40
14.0
 40
15.0
 40
15.0
 40
15.0
 40
16.0
 40
16.0
 40
16.0
 40
17.0
 40
17.0
 40
17.0
 40
18.0
 40
18.0
 40
18.0
 40
19.0
 40
19.0
 40
19.0
 40
19.0
 10
9.28384633721869
 20
-2.578205832688581
 10
9.232030338540582
 20
-2.515919388259817
 10
6.955230841071028
 20
0.1665746110695636
 10
6.955230841071028
 20
0.1665746110695636
 10
6.955230841071028
 20
0.1665746110695636
 10
8.64746346456522
 20
2.539484943809611
 10
8.682190908123715
 20
2.589085499352734
 10
8.716777240574671
 20
2.638982388229237
 10
8.682882352550521
 20
2.711598165988789
 10
8.617971243095425
 20
2.711598165988789
 10
8.553342355855363
 20
2.711598165988789
 10
7.199423612618915
 20
2.711598165988789
 10
7.173799544807621
 20
2.711598165988789
 10
7.147889836155925
 20
2.711598165988789
 10
7.124451281198318
 20
2.699335610436378
 10
7.109578170466633
 20
2.678112499330495
 10
7.095791615262797
 20
2.657721943780131
 10
5.695701317648754
 20
0.6565970553915577
 10
5.576095542922359
 20
0.4854433887675782
 10
5.576095542922359
 20
1.615362388485152
 10
5.576095542922359
 20
2.621752721566963
 10
5.576095542922359
 20
2.633606054897256
 10
5.576095542922359
 20
2.676179277108872
 10
5.540535543829591
 20
2.711598165988789
 10
5.497963989671035
 20
2.711598165988789
 10
5.461160545854596
 20
2.711598165988789
 10
4.219411021978729
 20
2.711598165988789
 10
4.184965800635282
 20
2.711598165988789
 10
4.142519579495953
 20
2.711598165988789
 10
4.106973691513928
 20
2.676179277108872
 10
4.106973691513928
 20
2.633606054897256
 10
4.106973691513928
 20
2.591018721574528
 10
4.106973691513928
 20
-2.590891721574394
 10
4.106973691513928
 20
-2.633323832674932
 10
4.106973691513928
 20
-2.676052277108567
 10
4.142519579495953
 20
-2.711598165988732
 10
4.184965800635282
 20
-2.711598165988732
 10
4.219411021978729
 20
-2.711598165988732
 10
5.461160545854596
 20
-2.711598165988732
 10
5.497963989671035
 20
-2.711598165988732
 10
5.540535543829591
 20
-2.711598165988732
 10
5.576095542922359
 20
-2.676052277108567
 10
5.576095542922359
 20
-2.633323832674932
 10
5.576095542922359
 20
-2.618450721567455
 10
5.576095542922359
 20
-1.513536610732671
 10
5.576095542922359
 20
-0.3449531665802965
 10
5.711689206129761
 20
-0.5056363887624116
 10
7.508938433612755
 20
-2.666682499333205
 10
7.523400604353597
 20
-2.683771054884573
 10
7.538414826192749
 20
-2.701409943769021
 10
7.559920158977433
 20
-2.711598165988732
 10
7.583062380609277
 20
-2.711598165988732
 10
7.606500935566884
 20
-2.711598165988732
 10
9.169743895685201
 20
-2.711598165988732
 10
9.228446116409799
 20
-2.711598165988732
 10
9.28949078151912
 20
-2.711598165988732
 10
9.335239002574184
 20
-2.640492277117687
 10
9.28384633721869
 20
-2.578205832688581
 97
        0
 97
        0
 92
        1
 93
        1
 72
     4
 94
        3
 73
     0
 74
     0
 95
      263
 96
      259
 40
0.0
 40
0.0
 40
0.0
 40
0.0
 40
1.0
 40
1.0
 40
1.0
 40
2.0
 40
2.0
 40
2.0
 40
3.0
 40
3.0
 40
3.0
 40
4.0
 40
4.0
 40
4.0
 40
5.0
 40
5.0
 40
5.0
 40
6.0
 40
6.0
 40
6.0
 40
7.0
 40
7.0
 40
7.0
 40
8.0
 40
8.0
 40
8.0
 40
9.0
 40
9.0
 40
9.0
 40
10.0
 40
10.0
 40
10.0
 40
11.0
 40
11.0
 40
11.0
 40
12.0
 40
12.0
 40
12.0
 40
13.0
 40
13.0
 40
13.0
 40
14.0
 40
14.0
 40
14.0
 40
15.0
 40
15.0
 40
15.0
 40
16.0
 40
16.0
 40
16.0
 40
17.0
 40
17.0
 40
17.0
 40
18.0
 40
18.0
 40
18.0
 40
19.0
 40
19.0
 40
19.0
 40
20.0
 40
20.0
 40
20.0
 40
21.0
 40
21.0
 40
21.0
 40
22.0
 40
22.0
 40
22.0
 40
23.0
 40
23.0
 40
23.0
 40
24.0
 40
24.0
 40
24.0
 40
25.0
 40
25.0
 40
25.0
 40
26.0
 40
26.0
 40
26.0
 40
27.0
 40
27.0
 40
27.0
 40
28.0
 40
28.0
 40
28.0
 40
29.0
 40
29.0
 40
29.0
 40
30.0
 40
30.0
 40
30.0
 40
31.0
 40
31.0
 40
31.0
 40
32.0
 40
32.0
 40
32.0
 40
33.0
 40
33.0
 40
33.0
 40
34.0
 40
34.0
 40
34.0
 40
35.0
 40
35.0
 40
35.0
 40
36.0
 40
36.0
 40
36.0
 40
37.0
 40
37.0
 40
37.0
 40
38.0
 40
38.0
 40
38.0
 40
39.0
 40
39.0
 40
39.0
 40
40.0
 40
40.0
 40
40.0
 40
41.0
 40
41.0
 40
41.0
 40
42.0
 40
42.0
 40
42.0
 40
43.0
 40
43.0
 40
43.0
 40
44.0
 40
44.0
 40
44.0
 40
45.0
 40
45.0
 40
45.0
 40
46.0
 40
46.0
 40
46.0
 40
47.0
 40
47.0
 40
47.0
 40
48.0
 40
48.0
 40
48.0
 40
49.0
 40
49.0
 40
49.0
 40
50.0
 40
50.0
 40
50.0
 40
51.0
 40
51.0
 40
51.0
 40
52.0
 40
52.0
 40
52.0
 40
53.0
 40
53.0
 40
53.0
 40
54.0
 40
54.0
 40
54.0
 40
55.0
 40
55.0
 40
55.0
 40
56.0
 40
56.0
 40
56.0
 40
57.0
 40
57.0
 40
57.0
 40
58.0
 40
58.0
 40
58.0
 40
59.0
 40
59.0
 40
59.0
 40
60.0
 40
60.0
 40
60.0
 40
61.0
 40
61.0
 40
61.0
 40
62.0
 40
62.0
 40
62.0
 40
63.0
 40
63.0
 40
63.0
 40
64.0
 40
64.0
 40
64.0
 40
65.0
 40
65.0
 40
65.0
 40
66.0
 40
66.0
 40
66.0
 40
67.0
 40
67.0
 40
67.0
 40
68.0
 40
68.0
 40
68.0
 40
69.0
 40
69.0
 40
69.0
 40
70.0
 40
70.0
 40
70.0
 40
71.0
 40
71.0
 40
71.0
 40
72.0
 40
72.0
 40
72.0
 40
73.0
 40
73.0
 40
73.0
 40
74.0
 40
74.0
 40
74.0
 40
75.0
 40
75.0
 40
75.0
 40
76.0
 40
76.0
 40
76.0
 40
77.0
 40
77.0
 40
77.0
 40
78.0
 40
78.0
 40
78.0
 40
79.0
 40
79.0
 40
79.0
 40
80.0
 40
80.0
 40
80.0
 40
81.0
 40
81.0
 40
81.0
 40
82.0
 40
82.0
 40
82.0
 40
83.0
 40
83.0
 40
83.0
 40
84.0
 40
84.0
 40
84.0
 40
85.0
 40
85.0
 40
85.0
 40
86.0
 40
86.0
 40
86.0
 40
86.0
 10
-16.04091257224847
 20
-2.711330054877521
 10
-16.04091257224847
 20
-2.711330054877521
 10
-16.57270389201467
 20
-2.711330054877521
 10
-16.57270389201467
 20
-2.711330054877521
 10
-16.59309444705003
 20
-2.711330054877521
 10
-16.60963156035772
 20
-2.695059943770615
 10
-16.60963156035772
 20
-2.674669388220081
 10
-16.60963156035772
 20
-2.674669388220081
 10
-16.60963156035772
 20
-0.9303526108784581
 10
-16.60963156035772
 20
-0.9303526108784581
 10
-16.92740077185448
 20
-1.448498499637821
 10
-17.26888965203129
 20
-1.832687610652783
 10
-17.76359697274357
 20
-2.233697166108072
 10
-17.77159797253945
 20
-2.240315277217746
 10
-17.78206841671677
 20
-2.243066943883491
 10
-17.79227074978981
 20
-2.241698166106232
 10
-17.80245897175213
 20
-2.240033054995478
 10
-17.81168763818335
 20
-2.234247499441266
 10
-17.81734619359453
 20
-2.225710277221196
 10
-17.81734619359453
 20
-2.225710277221196
 10
-18.1665397402414
 20
-1.705631166240323
 10
-18.1665397402414
 20
-1.705631166240323
 10
-18.17770162884555
 20
-1.688824832911222
 10
-18.17356600441111
 20
-1.666501055138837
 10
-18.1573110738102
 20
-1.654915832919471
 10
-17.77559141688199
 20
-1.385647610764578
 10
-17.22285920876116
 20
-0.94137338865346
 10
-16.78587933809142
 20
-0.1724307221790013
 10
-16.78587933809142
 20
-0.1724307221790013
 10
-17.852073637153
 20
-0.1724307221790013
 10
-17.852073637153
 20
-0.1724307221790013
 10
-17.87246419218836
 20
-0.1724307221790013
 10
-17.88886130288115
 20
-0.1558924999609417
 10
-17.88886130288115
 20
-0.1355019444104073
 10
-17.88886130288115
 20
-0.1355019444104073
 10
-17.88886130288115
 20
0.4297750554482605
 10
-17.88886130288115
 20
0.4297750554482605
 10
-17.88886130288115
 20
0.4501656109986243
 10
-17.87246419218836
 20
0.466703833216684
 10
-17.852073637153
 20
0.466703833216684
 10
-17.852073637153
 20
0.466703833216684
 10
-16.60963156035772
 20
0.466703833216684
 10
-16.60963156035772
 20
0.466703833216684
 10
-16.60963156035772
 20
0.466703833216684
 10
-16.60963156035772
 20
1.224343499694043
 10
-16.60963156035772
 20
1.224343499694043
 10
-16.60963156035772
 20
1.224343499694043
 10
-17.13273044911575
 20
1.224343499694043
 10
-17.13273044911575
 20
1.224343499694043
 10
-17.26062054113113
 20
0.882600610890563
 10
-17.42157187035825
 20
0.6218696109557414
 10
-17.48165697993649
 20
0.5292724998677159
 10
-17.49267775743308
 20
0.5121839443165186
 10
-17.51473342353704
 20
0.5066664998734609
 10
-17.53209008976092
 20
0.5171369443153253
 10
-17.53209008976092
 20
0.5171369443153253
 10
-18.06911663161575
 20
0.8451073886777749
 10
-18.06911663161575
 20
0.8451073886777749
 10
-18.07806307583199
 20
0.8506248331208325
 10
-18.08427196456247
 20
0.8594442775630568
 10
-18.08620518673537
 20
0.8696466108938238
 10
-18.08812429779753
 20
0.8798348331134207
 10
-18.08565378221091
 20
0.890587499777439
 10
-18.07930378221253
 20
0.8988566108864119
 10
-18.04361785448852
 20
0.9459877219858299
 10
-18.00379629994892
 20
0.9994547219724267
 10
-17.96699452311004
 20
1.054572721958606
 10
-17.96699452311004
 20
1.054572721958606
 10
-18.51821684238052
 20
1.054572721958606
 10
-18.51821684238052
 20
1.054572721958606
 10
-18.51821684238052
 20
1.054572721958606
 10
-18.51821684238052
 20
0.5918270554076344
 10
-18.51821684238052
 20
0.5918270554076344
 10
-18.34182795799167
 20
0.2622056110457152
 10
-18.05243729870797
 20
-0.0682483888717229
 10
-17.79227074978981
 20
-0.3479870554685362
 10
-17.78054441675563
 20
-0.3606729443542918
 10
-17.77903452790528
 20
-0.3794124999050155
 10
-17.78826319433652
 20
-0.3934671665682572
 10
-17.78826319433652
 20
-0.3934671665682572
 10
-18.12684518569857
 20
-0.9025113886631856
 10
-18.12684518569857
 20
-0.9025113886631856
 10
-18.13319518553656
 20
-0.9121633886608151
 10
-18.14407378219629
 20
-0.918217055325897
 10
-18.15578600441552
 20
-0.918781499770148
 10
-18.16737229577573
 20
-0.9193318331034561
 10
-18.17866118437665
 20
-0.914364721993536
 10
-18.18597073974568
 20
-0.905263055329101
 10
-18.32308840291421
 20
-0.7371432775934182
 10
-18.4145837821286
 20
-0.5913472776298932
 10
-18.51821684238052
 20
-0.3981520554559665
 10
-18.51821684238052
 20
-0.3981520554559665
 10
-18.51821684238052
 20
-2.674669388220081
 10
-18.51821684238052
 20
-2.674669388220081
 10
-18.51821684238052
 20
-2.695059943770615
 10
-18.5347550641808
 20
-2.711330054877521
 10
-18.55500450810864
 20
-2.711330054877521
 10
-18.55500450810864
 20
-2.711330054877521
 10
-19.06543160619768
 20
-2.711330054877521
 10
-19.06543160619768
 20
-2.711330054877521
 10
-19.08569516123624
 20
-2.711330054877521
 10
-19.10223338303656
 20
-2.695059943770615
 10
-19.10223338303656
 20
-2.674669388220081
 10
-19.10223338303656
 20
-2.674669388220081
 10
-19.10223338303656
 20
-0.2939697221486312
 10
-19.10223338303656
 20
-0.2939697221486312
 10
-19.24251193501332
 20
-0.7222701664860552
 10
-19.436257485626
 20
-1.133750166383094
 10
-19.66832881303872
 20
-1.495615499625955
 10
-19.67590647951205
 20
-1.507468832956305
 10
-19.68955192360836
 20
-1.514086944065809
 10
-19.70360658991647
 20
-1.512435944066282
 10
-19.71766125622456
 20
-1.510784944066699
 10
-19.72951458925549
 20
-1.50113294406907
 10
-19.73419947802488
 20
-1.487910832961347
 10
-19.73419947802488
 20
-1.487910832961347
 10
-19.98114391616924
 20
-0.7754549442504413
 10
-19.98114391616924
 20
-0.7754549442504413
 10
-19.98499624940429
 20
-0.7641519442532854
 10
-19.9833452494464
 20
-0.7517623887009109
 10
-19.97645902739988
 20
-0.7421103887032814
 10
-19.64407181365756
 20
-0.268061722155096
 10
-19.37907822633192
 20
0.3625214999093487
 10
-19.18876271416236
 20
1.054572721958606
 10
-19.18876271416236
 20
1.054572721958606
 10
-19.83893214201957
 20
1.054572721958606
 10
-19.83893214201957
 20
1.054572721958606
 10
-19.85932269705493
 20
1.054572721958606
 10
-19.8755786966402
 20
1.07111094417678
 10
-19.8755786966402
 20
1.091501499727201
 10
-19.8755786966402
 20
1.091501499727201
 10
-19.8755786966402
 20
1.651204610698414
 10
-19.8755786966402
 20
1.651204610698414
 10
-19.8755786966402
 20
1.671595166248891
 10
-19.85932269705493
 20
1.688133388466951
 10
-19.83893214201957
 20
1.688133388466951
 10
-19.83893214201957
 20
1.688133388466951
 10
-19.10223338303656
 20
1.688133388466951
 10
-19.10223338303656
 20
1.688133388466951
 10
-19.10223338303656
 20
1.688133388466951
 10
-19.10223338303656
 20
2.674810499331329
 10
-19.10223338303656
 20
2.674810499331329
 10
-19.10223338303656
 20
2.695059943770729
 10
-19.08569516123624
 20
2.711457054877769
 10
-19.06543160619768
 20
2.711457054877769
 10
-19.06543160619768
 20
2.711457054877769
 10
-18.55500450810864
 20
2.711457054877769
 10
-18.55500450810864
 20
2.711457054877769
 10
-18.5347550641808
 20
2.711457054877769
 10
-18.51821684238052
 20
2.695059943770729
 10
-18.51821684238052
 20
2.674810499331329
 10
-18.51821684238052
 20
2.674810499331329
 10
-18.51821684238052
 20
1.688133388466951
 10
-18.51821684238052
 20
1.688133388466951
 10
-18.51821684238052
 20
1.688133388466951
 10
-17.89961396927347
 20
1.688133388466951
 10
-17.89961396927347
 20
1.688133388466951
 10
-17.879349337818
 20
1.688133388466951
 10
-17.86282630354536
 20
1.671595166248891
 10
-17.86282630354536
 20
1.651204610698414
 10
-17.86282630354536
 20
1.651204610698414
 10
-17.86282630354536
 20
1.235928721913296
 10
-17.86282630354536
 20
1.235928721913296
 10
-17.65115964227875
 20
1.628598610703988
 10
-17.53966775623424
 20
2.056616832819202
 10
-17.43590875888135
 20
2.496629499376012
 10
-17.43149198121627
 20
2.515227943815659
 10
-17.41358498167312
 20
2.527490499368184
 10
-17.39456320438064
 20
2.524329610480094
 10
-17.39456320438064
 20
2.524329610480094
 10
-16.83590432974432
 20
2.439705277167945
 10
-16.83590432974432
 20
2.439705277167945
 10
-16.82584310777876
 20
2.438336499390459
 10
-16.81688255245184
 20
2.432677943836324
 10
-16.81109699704387
 20
2.424549943838428
 10
-16.80545255274343
 20
2.416153832729378
 10
-16.80325121946625
 20
2.405810388287534
 10
-16.80531144163593
 20
2.395890277178864
 10
-16.82928621880204
 20
2.278485832763863
 10
-16.86842933807075
 20
2.097680166142254
 10
-16.93733499382328
 20
1.857621943980177
 10
-16.93733499382328
 20
1.857621943980177
 10
-16.60963156035772
 20
1.857621943980177
 10
-16.60963156035772
 20
1.857621943980177
 10
-16.60963156035772
 20
1.857621943980177
 10
-16.60963156035772
 20
2.674810499331329
 10
-16.60963156035772
 20
2.674810499331329
 10
-16.60963156035772
 20
2.695059943770729
 10
-16.59309444705003
 20
2.711457054877769
 10
-16.57270389201467
 20
2.711457054877769
 10
-16.57270389201467
 20
2.711457054877769
 10
-16.04091257224847
 20
2.711457054877769
 10
-16.04091257224847
 20
2.711457054877769
 10
-16.02066312832065
 20
2.711457054877769
 10
-16.00412378273127
 20
2.695059943770729
 10
-16.00412378273127
 20
2.674810499331329
 10
-16.00412378273127
 20
2.674810499331329
 10
-16.00412378273127
 20
1.857621943980177
 10
-16.00412378273127
 20
1.857621943980177
 10
-16.00412378273127
 20
1.857621943980177
 10
-14.90747993449808
 20
1.857621943980177
 10
-14.90747993449808
 20
1.857621943980177
 10
-14.88708822745495
 20
1.857621943980177
 10
-14.87055115766245
 20
1.841224832873081
 10
-14.87055115766245
 20
1.82097538843368
 10
-14.87055115766245
 20
1.82097538843368
 10
-14.87055115766245
 20
1.26128638857358
 10
-14.87055115766245
 20
1.26128638857358
 10
-14.87055115766245
 20
1.240881721912103
 10
-14.88708822745495
 20
1.224343499694043
 10
-14.90747993449808
 20
1.224343499694043
 10
-14.90747993449808
 20
1.224343499694043
 10
-16.00412378273127
 20
1.224343499694043
 10
-16.00412378273127
 20
1.224343499694043
 10
-16.00412378273127
 20
1.224343499694043
 10
-16.00412378273127
 20
0.466703833216684
 10
-16.00412378273127
 20
0.466703833216684
 10
-16.00412378273127
 20
0.466703833216684
 10
-14.79999560390688
 20
0.466703833216684
 10
-14.79999560390688
 20
0.466703833216684
 10
-14.77973204886832
 20
0.466703833216684
 10
-14.76306682707124
 20
0.4501656109986243
 10
-14.76306682707124
 20
0.4297750554482605
 10
-14.76306682707124
 20
0.4297750554482605
 10
-14.76306682707124
 20
-0.1355019444104073
 10
-14.76306682707124
 20
-0.1355019444104073
 10
-14.76306682707124
 20
-0.1558924999609417
 10
-14.77973204886832
 20
-0.1724307221790013
 10
-14.79999560390688
 20
-0.1724307221790013
 10
-14.79999560390688
 20
-0.1724307221790013
 10
-15.80816391151971
 20
-0.1724307221790013
 10
-15.80816391151971
 20
-0.1724307221790013
 10
-15.42947814340301
 20
-0.8901077219995841
 10
-15.14285326182651
 20
-1.206507055253894
 10
-14.69002771782352
 20
-1.594844832934541
 10
-14.67762405147327
 20
-1.605583388487389
 10
-14.67375760712748
 20
-1.622954166260797
 10
-14.68037571806975
 20
-1.637841388479387
 10
-14.68037571806975
 20
-1.637841388479387
 10
-14.95984626649544
 20
-2.259887388323875
 10
-14.95984626649544
 20
-2.259887388323875
 10
-14.96479926636907
 20
-2.27090816609899
 10
-14.97473348833785
 20
-2.278626943874655
 10
-14.98644571026128
 20
-2.281096388318474
 10
-14.99815793218466
 20
-2.283311832762365
 10
-15.01027822742412
 20
-2.279727610541215
 10
-15.01883070943505
 20
-2.271176277209974
 10
-15.01883070943505
 20
-2.271176277209974
 10
-15.02875082029307
 20
-2.261806499434555
 10
-15.02875082029307
 20
-2.261806499434555
 10
-15.22553025971727
 20
-2.071645166148641
 10
-15.66843569286224
 20
-1.643344721811331
 10
-16.00412378273127
 20
-0.9488099442071415
 10
-16.00412378273127
 20
-0.9488099442071415
 10
-16.00412378273127
 20
-2.674669388220081
 10
-16.00412378273127
 20
-2.674669388220081
 10
-16.00412378273127
 20
-2.695059943770615
 10
-16.02066312832065
 20
-2.711330054877521
 10
-16.04091257224847
 20
-2.711330054877521
 97
        0
 97
        0
 92
        1
 93
        1
 72
     4
 94
        3
 73
     0
 74
     0
 95
      122
 96
      118
 40
0.0
 40
0.0
 40
0.0
 40
0.0
 40
1.0
 40
1.0
 40
1.0
 40
2.0
 40
2.0
 40
2.0
 40
3.0
 40
3.0
 40
3.0
 40
4.0
 40
4.0
 40
4.0
 40
5.0
 40
5.0
 40
5.0
 40
6.0
 40
6.0
 40
6.0
 40
7.0
 40
7.0
 40
7.0
 40
8.0
 40
8.0
 40
8.0
 40
9.0
 40
9.0
 40
9.0
 40
10.0
 40
10.0
 40
10.0
 40
11.0
 40
11.0
 40
11.0
 40
12.0
 40
12.0
 40
12.0
 40
13.0
 40
13.0
 40
13.0
 40
14.0
 40
14.0
 40
14.0
 40
15.0
 40
15.0
 40
15.0
 40
16.0
 40
16.0
 40
16.0
 40
17.0
 40
17.0
 40
17.0
 40
18.0
 40
18.0
 40
18.0
 40
19.0
 40
19.0
 40
19.0
 40
20.0
 40
20.0
 40
20.0
 40
21.0
 40
21.0
 40
21.0
 40
22.0
 40
22.0
 40
22.0
 40
23.0
 40
23.0
 40
23.0
 40
24.0
 40
24.0
 40
24.0
 40
25.0
 40
25.0
 40
25.0
 40
26.0
 40
26.0
 40
26.0
 40
27.0
 40
27.0
 40
27.0
 40
28.0
 40
28.0
 40
28.0
 40
29.0
 40
29.0
 40
29.0
 40
30.0
 40
30.0
 40
30.0
 40
31.0
 40
31.0
 40
31.0
 40
32.0
 40
32.0
 40
32.0
 40
33.0
 40
33.0
 40
33.0
 40
34.0
 40
34.0
 40
34.0
 40
35.0
 40
35.0
 40
35.0
 40
36.0
 40
36.0
 40
36.0
 40
37.0
 40
37.0
 40
37.0
 40
38.0
 40
38.0
 40
38.0
 40
39.0
 40
39.0
 40
39.0
 40
39.0
 10
-8.834184867218525
 20
-1.35947149966006
 10
-8.834184867218525
 20
-1.35947149966006
 10
-9.32835596572228
 20
-1.065395944178021
 10
-9.32835596572228
 20
-1.065395944178021
 10
-9.339108632114601
 20
-1.059060055290785
 10
-9.352062631784136
 20
-1.058509721957534
 10
-9.363492631492519
 20
-1.064013055289422
 10
-9.37465452009664
 20
-1.069262388621552
 10
-9.382232186570007
 20
-1.080000944174457
 10
-9.383613784386355
 20
-1.092404610837945
 10
-9.477452673251789
 20
-1.84950805509311
 10
-9.609745625210081
 20
-1.908210277300554
 10
-9.648056006542432
 20
-1.908210277300554
 10
-9.703725622812484
 20
-1.908210277300554
 10
-9.859314729954164
 20
-1.845373499538595
 10
-10.09964105715629
 20
-1.261625055240074
 10
-10.10336639039455
 20
-1.25280561079785
 10
-10.10625916809853
 20
-1.245919388577249
 10
-10.10817827916068
 20
-1.241516721911807
 10
-10.19017794373535
 20
-1.030668499742262
 10
-10.43685427077544
 20
-0.3609410554652186
 10
-10.51704771317399
 20
1.173642277484475
 10
-10.51704771317399
 20
1.173642277484475
 10
-8.944293864409402
 20
1.173642277484475
 10
-8.944293864409402
 20
1.173642277484475
 10
-8.92390330937404
 20
1.173642277484475
 10
-8.907363784505434
 20
1.190180499702535
 10
-8.907363784505434
 20
1.210288833030858
 10
-8.907363784505434
 20
1.210288833030858
 10
-8.907363784505434
 20
1.77577749955617
 10
-8.907363784505434
 20
1.77577749955617
 10
-8.907363784505434
 20
1.79602694399557
 10
-8.92390330937404
 20
1.812706277324764
 10
-8.944293864409402
 20
1.812706277324764
 10
-8.944293864409402
 20
1.812706277324764
 10
-9.313468743879852
 20
1.812706277324764
 10
-9.313468743879852
 20
1.812706277324764
 10
-9.313468743879852
 20
1.812706277324764
 10
-9.088579971839479
 20
2.11572827724899
 10
-9.088579971839479
 20
2.11572827724899
 10
-9.076726638808565
 20
2.131857277244932
 10
-9.079760527620052
 20
2.154731388350285
 10
-9.095606006680554
 20
2.166852832791732
 10
-9.344061631988253
 20
2.357310499410687
 10
-9.677817623473444
 20
2.564701499358932
 10
-9.966657949437845
 20
2.707872832656448
 10
-9.982786949026362
 20
2.715732721543304
 10
-10.00221794853064
 20
2.710906721544517
 10
-10.01268711756248
 20
2.696583943770349
 10
-10.01268711756248
 20
2.696583943770349
 10
-10.33514138448147
 20
2.255611721658397
 10
-10.33514138448147
 20
2.255611721658397
 10
-10.34149138431948
 20
2.246792277216172
 10
-10.34369271759665
 20
2.235898499441134
 10
-10.34120916210447
 20
2.225569166110403
 10
-10.33886671771977
 20
2.215084610557426
 10
-10.33212160678076
 20
2.206265166115201
 10
-10.322469607027
 20
2.201171055005318
 10
-10.05705372490943
 20
2.061583943929122
 10
-9.867442729746798
 20
1.947058166179942
 10
-9.681825178926757
 20
1.812706277324764
 10
-9.681825178926757
 20
1.812706277324764
 10
-10.54212315697871
 20
1.812706277324764
 10
-10.54212315697871
 20
1.812706277324764
 10
-10.54847315681672
 20
1.974066832839866
 10
-10.54749822853992
 20
2.177055166122443
 10
-10.5465399346438
 20
2.409394610508797
 10
-10.54625771242881
 20
2.495387721598433
 10
-10.54584849021701
 20
2.584132499353984
 10
-10.54584849021701
 20
2.674810499331329
 10
-10.54584849021701
 20
2.695201054881863
 10
-10.56238671201733
 20
2.711598165988789
 10
-10.58265026705588
 20
2.711598165988789
 10
-10.58265026705588
 20
2.711598165988789
 10
-11.15218880808132
 20
2.711598165988789
 10
-11.15218880808132
 20
2.711598165988789
 10
-11.16225003004685
 20
2.711598165988789
 10
-11.17176091869306
 20
2.707604721545351
 10
-11.17878825184716
 20
2.70043627710271
 10
-11.18553336278616
 20
2.693267832660069
 10
-11.18925869602448
 20
2.683488832662646
 10
-11.18897647380943
 20
2.673427610442786
 10
-11.18415047393256
 20
2.543619499364183
 10
-11.16996880762772
 20
1.994189277279247
 10
-11.16775336323981
 20
1.812706277324764
 10
-11.16775336323981
 20
1.812706277324764
 10
-13.9509865144558
 20
1.812706277324764
 10
-13.9509865144558
 20
1.812706277324764
 10
-13.97137706949117
 20
1.812706277324764
 10
-13.98777418018396
 20
1.79602694399557
 10
-13.98777418018396
 20
1.77577749955617
 10
-13.98777418018396
 20
1.77577749955617
 10
-13.98777418018396
 20
1.210288833030858
 10
-13.98777418018396
 20
1.210288833030858
 10
-13.98777418018396
 20
1.190180499702535
 10
-13.97137706949117
 20
1.173642277484475
 10
-13.9509865144558
 20
1.173642277484475
 10
-13.9509865144558
 20
1.173642277484475
 10
-11.14998747480412
 20
1.173642277484475
 10
-11.14998747480412
 20
1.173642277484475
 10
-11.1189712533732
 20
0.3895301665693864
 10
-11.03409292220532
 20
-0.3251129443631271
 10
-10.89793481456787
 20
-0.884322166445429
 10
-10.78177215086477
 20
-1.360572166326392
 10
-10.62756593257667
 20
-1.753312610672651
 10
-10.43932371515693
 20
-2.051522721709318
 10
-10.06312150253241
 20
-2.648211054893351
 10
-9.668588957042203
 20
-2.694509610437421
 10
-9.556828959893451
 20
-2.694509610437421
 10
-9.331248743426229
 20
-2.694509610437421
 10
-9.149892748053034
 20
-2.528605277145572
 10
-9.017474084764629
 20
-2.201453277227415
 10
-8.90942530974344
 20
-1.934118277294146
 10
-8.853474755615266
 20
-1.611100832930446
 10
-8.816545978779643
 20
-1.397232832984002
 10
-8.814076534398211
 20
-1.382077499654428
 10
-8.820962756444728
 20
-1.367190277435838
 10
-8.834184867218525
 20
-1.35947149966006
 97
        0
 97
        0
 92
        1
 93
        1
 72
     4
 94
        3
 73
     0
 74
     0
 95
       77
 96
       73
 40
0.0
 40
0.0
 40
0.0
 40
0.0
 40
1.0
 40
1.0
 40
1.0
 40
2.0
 40
2.0
 40
2.0
 40
3.0
 40
3.0
 40
3.0
 40
4.0
 40
4.0
 40
4.0
 40
5.0
 40
5.0
 40
5.0
 40
6.0
 40
6.0
 40
6.0
 40
7.0
 40
7.0
 40
7.0
 40
8.0
 40
8.0
 40
8.0
 40
9.0
 40
9.0
 40
9.0
 40
10.0
 40
10.0
 40
10.0
 40
11.0
 40
11.0
 40
11.0
 40
12.0
 40
12.0
 40
12.0
 40
13.0
 40
13.0
 40
13.0
 40
14.0
 40
14.0
 40
14.0
 40
15.0
 40
15.0
 40
15.0
 40
16.0
 40
16.0
 40
16.0
 40
17.0
 40
17.0
 40
17.0
 40
18.0
 40
18.0
 40
18.0
 40
19.0
 40
19.0
 40
19.0
 40
20.0
 40
20.0
 40
20.0
 40
21.0
 40
21.0
 40
21.0
 40
22.0
 40
22.0
 40
22.0
 40
23.0
 40
23.0
 40
23.0
 40
24.0
 40
24.0
 40
24.0
 40
24.0
 10
-13.8596170723424
 20
-2.496347277153631
 10
-13.87753818299627
 20
-2.496347277153631
 10
-13.89324267214793
 20
-2.483393277156835
 10
-13.89613662696624
 20
-2.465486277161403
 10
-13.89613662696624
 20
-2.465486277161403
 10
-13.98750489434651
 20
-1.888638166194482
 10
-13.98750489434651
 20
-1.888638166194482
 10
-13.98887484682252
 20
-1.878986166196796
 10
-13.98653240243784
 20
-1.868797943977142
 10
-13.98060573592239
 20
-1.86107916620142
 10
-13.97482018051444
 20
-1.85307816620326
 10
-13.96573262519071
 20
-1.847842943982413
 10
-13.95608062543697
 20
-1.84647416620487
 10
-13.7887934074826
 20
-1.823600055099575
 10
-13.47349474885987
 20
-1.781704166221288
 10
-13.21993219977324
 20
-1.74780927734082
 10
-13.060914092719
 20
-1.726586166234937
 10
-12.92035331852725
 20
-1.707832499572873
 10
-12.8489652092374
 20
-1.698194610686584
 10
-12.8489652092374
 20
-1.698194610686584
 10
-12.8489652092374
 20
-0.1272328333014911
 10
-12.8489652092374
 20
-0.1272328333014911
 10
-12.8489652092374
 20
-0.1272328333014911
 10
-13.8596170723424
 20
-0.1272328333014911
 10
-13.8596170723424
 20
-0.1272328333014911
 10
-13.88000762737776
 20
-0.1272328333014911
 10
-13.89654584917804
 20
-0.1106946110833178
 10
-13.89654584917804
 20
-0.090572166643824
 10
-13.89654584917804
 20
-0.090572166643824
 10
-13.89654584917804
 20
0.4694554998826562
 10
-13.89654584917804
 20
0.4694554998826562
 10
-13.89654584917804
 20
0.4898601665441902
 10
-13.88000762737776
 20
0.5063983887623636
 10
-13.8596170723424
 20
0.5063983887623636
 10
-13.8596170723424
 20
0.5063983887623636
 10
-11.32348358148901
 20
0.5063983887623636
 10
-11.32348358148901
 20
0.5063983887623636
 10
-11.3032200264504
 20
0.5063983887623636
 10
-11.28682291575761
 20
0.4898601665441902
 10
-11.28682291575761
 20
0.4694554998826562
 10
-11.28682291575761
 20
0.4694554998826562
 10
-11.28682291575761
 20
-0.090572166643824
 10
-11.28682291575761
 20
-0.090572166643824
 10
-11.28682291575761
 20
-0.1106946110833178
 10
-11.3032200264504
 20
-0.1272328333014911
 10
-11.32348358148901
 20
-0.1272328333014911
 10
-11.32348358148901
 20
-0.1272328333014911
 10
-12.22209322523024
 20
-0.1272328333014911
 10
-12.22209322523024
 20
-0.1272328333014911
 10
-12.22209322523024
 20
-0.1272328333014911
 10
-12.22209322523024
 20
-1.613852499596532
 10
-12.22209322523024
 20
-1.613852499596532
 10
-11.66275701727784
 20
-1.526208388507257
 10
-11.40037378388224
 20
-1.462553166300892
 10
-11.16473358553904
 20
-1.411555610758114
 10
-11.15398091914672
 20
-1.409086166314352
 10
-11.14253680832756
 20
-1.411837832980324
 10
-11.13385847521564
 20
-1.418724055200755
 10
-11.12518014210367
 20
-1.425892499643452
 10
-11.12035414222681
 20
-1.43636294408526
 10
-11.12035414222681
 20
-1.447383721860262
 10
-11.12035414222681
 20
-1.447383721860262
 10
-11.12035414222681
 20
-1.97903394394973
 10
-11.12035414222681
 20
-1.97903394394973
 10
-11.12035414222681
 20
-1.996122499500756
 10
-11.13192525304272
 20
-2.01100972171946
 10
-11.14874569705804
 20
-2.014862055051821
 10
-12.04529511862961
 20
-2.223494832777305
 10
-13.25176686562771
 20
-2.415603499395956
 10
-13.85479107246551
 20
-2.496347277153631
 10
-13.85658318353093
 20
-2.496347277153631
 10
-13.85810600548991
 20
-2.496347277153631
 10
-13.8596170723424
 20
-2.496347277153631
 97
        0
 97
        0
 92
        1
 93
        1
 72
     4
 94
        3
 73
     0
 74
     0
 95
      101
 96
       97
 40
0.0
 40
0.0
 40
0.0
 40
0.0
 40
1.0
 40
1.0
 40
1.0
 40
2.0
 40
2.0
 40
2.0
 40
3.0
 40
3.0
 40
3.0
 40
4.0
 40
4.0
 40
4.0
 40
5.0
 40
5.0
 40
5.0
 40
6.0
 40
6.0
 40
6.0
 40
7.0
 40
7.0
 40
7.0
 40
8.0
 40
8.0
 40
8.0
 40
9.0
 40
9.0
 40
9.0
 40
10.0
 40
10.0
 40
10.0
 40
11.0
 40
11.0
 40
11.0
 40
12.0
 40
12.0
 40
12.0
 40
13.0
 40
13.0
 40
13.0
 40
14.0
 40
14.0
 40
14.0
 40
15.0
 40
15.0
 40
15.0
 40
16.0
 40
16.0
 40
16.0
 40
17.0
 40
17.0
 40
17.0
 40
18.0
 40
18.0
 40
18.0
 40
19.0
 40
19.0
 40
19.0
 40
20.0
 40
20.0
 40
20.0
 40
21.0
 40
21.0
 40
21.0
 40
22.0
 40
22.0
 40
22.0
 40
23.0
 40
23.0
 40
23.0
 40
24.0
 40
24.0
 40
24.0
 40
25.0
 40
25.0
 40
25.0
 40
26.0
 40
26.0
 40
26.0
 40
27.0
 40
27.0
 40
27.0
 40
28.0
 40
28.0
 40
28.0
 40
29.0
 40
29.0
 40
29.0
 40
30.0
 40
30.0
 40
30.0
 40
31.0
 40
31.0
 40
31.0
 40
32.0
 40
32.0
 40
32.0
 40
32.0
 10
-3.947112103009246
 20
-2.705544499323536
 10
-3.950287102928243
 20
-2.705544499323536
 10
-3.953730213951516
 20
-2.705262277101383
 10
-3.956480452409792
 20
-2.704429721545977
 10
-3.966543102513512
 20
-2.701678054879948
 10
-3.97509443562869
 20
-2.695059943770615
 10
-3.980046007959515
 20
-2.685690165995197
 10
-3.980046007959515
 20
-2.685690165995197
 10
-3.980046007959515
 20
-2.685690165995197
 10
-3.980046007959515
 20
-2.685690165995197
 10
-4.041642433930917
 20
-2.566902832691539
 10
-4.052945433642562
 20
-2.544861277141535
 10
-4.165664986322397
 20
-2.368740499407692
 10
-5.151382516730208
 20
-2.47375538827049
 10
-6.428000595272081
 20
-2.543478388253049
 10
-7.960367118075467
 20
-2.575722277133763
 10
-7.978981000147669
 20
-2.576004499355974
 10
-7.994968888628719
 20
-2.56221794380383
 10
-7.997579444117647
 20
-2.544028721586187
 10
-7.997579444117647
 20
-2.544028721586187
 10
-8.078194895823813
 20
-1.955891721733223
 10
-8.078194895823813
 20
-1.955891721733223
 10
-8.079579108692328
 20
-1.945139055069262
 10
-8.076545219880856
 20
-1.93466861062734
 10
-8.069376775619275
 20
-1.926667610629408
 10
-8.062490553572772
 20
-1.918680721742532
 10
-8.0524293316072
 20
-1.91399583285488
 10
-8.041535554107369
 20
-1.91399583285488
 10
-7.586932010149681
 20
-1.91399583285488
 10
-7.385326570848647
 20
-1.911512277299777
 10
-7.296567684224157
 20
-1.909028721744959
 10
-7.151604243478047
 20
-1.617987055151047
 10
-6.9138871183372
 20
-1.06484561084477
 10
-6.800618585765803
 20
-0.6643863887227326
 10
-6.800618585765803
 20
-0.6643863887227326
 10
-8.133046107328269
 20
-0.6643863887227326
 10
-8.133046107328269
 20
-0.6643863887227326
 10
-8.153168551259355
 20
-0.6643863887227326
 10
-8.169692661948928
 20
-0.647848166504673
 10
-8.169692661948928
 20
-0.6274576109541954
 10
-8.169692661948928
 20
-0.6274576109541954
 10
-8.169692661948928
 20
-0.0790010555357412
 10
-8.169692661948928
 20
-0.0790010555357412
 10
-8.169692661948928
 20
-0.0585963888740935
 10
-8.153168551259355
 20
-0.0423403888782446
 10
-8.133046107328269
 20
-0.0423403888782446
 10
-8.133046107328269
 20
-0.0423403888782446
 10
-3.292681119705164
 20
-0.0423403888782446
 10
-3.292681119705164
 20
-0.0423403888782446
 10
-3.272290564669845
 20
-0.0423403888782446
 10
-3.255893453977037
 20
-0.0585963888740935
 10
-3.255893453977037
 20
-0.0790010555357412
 10
-3.255893453977037
 20
-0.0790010555357412
 10
-3.255893453977037
 20
-0.6274576109541954
 10
-3.255893453977037
 20
-0.6274576109541954
 10
-3.255893453977037
 20
-0.647848166504673
 10
-3.272290564669845
 20
-0.6643863887227326
 10
-3.292681119705164
 20
-0.6643863887227326
 10
-3.292681119705164
 20
-0.6643863887227326
 10
-6.066812604486713
 20
-0.6643863887227326
 10
-6.066812604486713
 20
-0.6643863887227326
 10
-6.249269266498558
 20
-1.120796166386469
 10
-6.443563785121355
 20
-1.562036499609348
 10
-6.606181590726279
 20
-1.890021055082911
 10
-5.669937614611868
 20
-1.868797943977142
 10
-5.526623785350636
 20
-1.861897610645542
 10
-4.543800421119797
 20
-1.810095721769698
 10
-4.543800421119797
 20
-1.810095721769698
 10
-4.545733643292678
 20
-1.807329943992613
 10
-4.545733643292678
 20
-1.807329943992613
 10
-4.782616859471531
 20
-1.476057499630883
 10
-4.913257522805281
 20
-1.293600833009861
 10
-5.135126517144911
 20
-1.060160721957061
 10
-5.142831183615001
 20
-1.052173833070185
 10
-5.146288405749047
 20
-1.041138944184069
 10
-5.144905516895434
 20
-1.030400388631164
 10
-5.14352262804185
 20
-1.01964772196726
 10
-5.137737072633868
 20
-1.00972761085859
 10
-5.128367295095117
 20
-1.003659833082394
 10
-5.128367295095117
 20
-1.003659833082394
 10
-4.671689417857081
 20
-0.7095842776003565
 10
-4.671689417857081
 20
-0.7095842776003565
 10
-4.657211418226438
 20
-0.7002144998248241
 10
-4.637780418722158
 20
-0.7024158331576018
 10
-4.625658974586954
 20
-0.7148194998212603
 10
-4.396635647096516
 20
-0.948259610874004
 10
-3.836734994714092
 20
-1.535027832949481
 10
-3.394111783784111
 20
-2.311421166088791
 10
-3.384600895137864
 20
-2.328227499417891
 10
-3.38969500611904
 20
-2.349732832745758
 10
-3.405965116815039
 20
-2.360471388298606
 10
-3.405965116815039
 20
-2.360471388298606
 10
-3.926988230194965
 20
-2.699744832658268
 10
-3.926988230194965
 20
-2.699744832658268
 10
-3.933056007971217
 20
-2.703611277101856
 10
-3.940225880962714
 20
-2.705544499323536
 10
-3.947112103009246
 20
-2.705544499323536
 97
        0
 97
        0
 92
        1
 93
        1
 72
     4
 94
        3
 73
     0
 74
     0
 95
       71
 96
       67
 40
0.0
 40
0.0
 40
0.0
 40
0.0
 40
1.0
 40
1.0
 40
1.0
 40
2.0
 40
2.0
 40
2.0
 40
3.0
 40
3.0
 40
3.0
 40
4.0
 40
4.0
 40
4.0
 40
5.0
 40
5.0
 40
5.0
 40
6.0
 40
6.0
 40
6.0
 40
7.0
 40
7.0
 40
7.0
 40
8.0
 40
8.0
 40
8.0
 40
9.0
 40
9.0
 40
9.0
 40
10.0
 40
10.0
 40
10.0
 40
11.0
 40
11.0
 40
11.0
 40
12.0
 40
12.0
 40
12.0
 40
13.0
 40
13.0
 40
13.0
 40
14.0
 40
14.0
 40
14.0
 40
15.0
 40
15.0
 40
15.0
 40
16.0
 40
16.0
 40
16.0
 40
17.0
 40
17.0
 40
17.0
 40
18.0
 40
18.0
 40
18.0
 40
19.0
 40
19.0
 40
19.0
 40
20.0
 40
20.0
 40
20.0
 40
21.0
 40
21.0
 40
21.0
 40
22.0
 40
22.0
 40
22.0
 40
22.0
 10
-8.014667999237246
 20
0.3534339443561976
 10
-8.027480887799242
 20
0.3534339443561976
 10
-8.039743443041956
 20
0.3600379443545876
 10
-8.04678488730677
 20
0.3716231665738405
 10
-8.04678488730677
 20
0.3716231665738405
 10
-8.363452323672376
 20
0.914562277549237
 10
-8.363452323672376
 20
0.914562277549237
 10
-8.368969767976054
 20
0.9239320553245988
 10
-8.369929323507122
 20
0.9355172775440223
 10
-8.366343784640719
 20
0.945705499763676
 10
-8.362619768138031
 20
0.955907833094443
 10
-8.354631562421445
 20
0.9638947219813189
 10
-8.344430546379882
 20
0.967761166424907
 10
-7.911727446307921
 20
1.12622894416296
 10
-7.447613013704042
 20
1.378690832988752
 10
-7.03750045163953
 20
1.678890610691496
 10
-6.59681045174976
 20
2.001075499499847
 10
-6.250920266456418
 20
2.352202277189803
 10
-6.036770049697636
 20
2.694368499326515
 10
-6.030024938758614
 20
2.705121165990476
 10
-6.018312716835154
 20
2.711598165988789
 10
-6.005767939377435
 20
2.711598165988789
 10
-6.005767939377435
 20
2.711598165988789
 10
-5.387997621804757
 20
2.711598165988789
 10
-5.387997621804757
 20
2.711598165988789
 10
-5.375043622135237
 20
2.711598165988789
 10
-5.362908066889289
 20
2.704838943768322
 10
-5.356431067054515
 20
2.69381816599332
 10
-4.97016763246448
 20
2.05910038837419
 10
-4.109303785704994
 20
1.422237721866792
 10
-3.053314348034163
 20
0.9898027219748541
 10
-3.04312612607184
 20
0.9856681664202824
 10
-3.035407348491006
 20
0.9773990553113662
 10
-3.032373459679476
 20
0.9672108330915989
 10
-3.028789237548707
 20
0.9570084997608319
 10
-3.029889904187314
 20
0.945705499763676
 10
-3.035675459595282
 20
0.9366179442102975
 10
-3.035675459595282
 20
0.9366179442102975
 10
-3.379633784153483
 20
0.3710728332407029
 10
-3.379633784153483
 20
0.3710728332407029
 10
-3.38969500611904
 20
0.3545346110224727
 10
-3.410777005581167
 20
0.3487490554683745
 10
-3.4281477829158
 20
0.3578366110216962
 10
-3.64229799967461
 20
0.4705702776602721
 10
-3.931124214528253
 20
0.622419944288879
 10
-4.23912600789481
 20
0.8249990553493375
 10
-4.23912600789481
 20
0.8249990553493375
 10
-4.23912600789481
 20
0.5711542776350598
 10
-4.23912600789481
 20
0.5711542776350598
 10
-4.23912600789481
 20
0.5507637220846391
 10
-4.255651539582217
 20
0.5345077220887334
 10
-4.275915094620756
 20
0.5345077220887334
 10
-4.275915094620756
 20
0.5345077220887334
 10
-7.128447910735488
 20
0.5345077220887334
 10
-7.128447910735488
 20
0.5345077220887334
 10
-7.14857035466656
 20
0.5345077220887334
 10
-7.165249687574416
 20
0.5507637220846391
 10
-7.165249687574416
 20
0.5711542776350598
 10
-7.165249687574416
 20
0.5711542776350598
 10
-7.165249687574416
 20
0.8081786109091808
 10
-7.165249687574416
 20
0.8081786109091808
 10
-7.529048233848683
 20
0.5706039443018654
 10
-7.759454450192734
 20
0.4625692776622828
 10
-7.999921888502356
 20
0.3564678332443236
 10
-8.004888999486738
 20
0.3545346110224727
 10
-8.009714999363595
 20
0.3534339443561976
 10
-8.014667999237246
 20
0.3534339443561976
 97
        0
 97
        0
 92
        1
 93
        1
 72
     4
 94
        3
 73
     0
 74
     0
 95
       14
 96
       10
 40
0.0
 40
0.0
 40
0.0
 40
0.0
 40
1.0
 40
1.0
 40
1.0
 40
2.0
 40
2.0
 40
2.0
 40
3.0
 40
3.0
 40
3.0
 40
3.0
 10
-6.692710921852082
 20
1.145250721936008
 10
-6.692710921852082
 20
1.145250721936008
 10
-4.686294417484489
 20
1.145250721936008
 10
-4.686294417484489
 20
1.145250721936008
 10
-5.185968849181165
 20
1.532135055172659
 10
-5.551432506524079
 20
1.956851277288706
 10
-5.693362058458674
 20
2.124688832802291
 10
-5.903095497552399
 20
1.861897610645655
 10
-6.175397601716483
 20
1.549491721834897
 10
-6.692710921852082
 20
1.145250721936008
 97
        0
 97
        0
 92
        1
 93
        1
 72
     4
 94
        3
 73
     0
 74
     0
 95
      107
 96
      103
 40
0.0
 40
0.0
 40
0.0
 40
0.0
 40
1.0
 40
1.0
 40
1.0
 40
2.0
 40
2.0
 40
2.0
 40
3.0
 40
3.0
 40
3.0
 40
4.0
 40
4.0
 40
4.0
 40
5.0
 40
5.0
 40
5.0
 40
6.0
 40
6.0
 40
6.0
 40
7.0
 40
7.0
 40
7.0
 40
8.0
 40
8.0
 40
8.0
 40
9.0
 40
9.0
 40
9.0
 40
10.0
 40
10.0
 40
10.0
 40
11.0
 40
11.0
 40
11.0
 40
12.0
 40
12.0
 40
12.0
 40
13.0
 40
13.0
 40
13.0
 40
14.0
 40
14.0
 40
14.0
 40
15.0
 40
15.0
 40
15.0
 40
16.0
 40
16.0
 40
16.0
 40
17.0
 40
17.0
 40
17.0
 40
18.0
 40
18.0
 40
18.0
 40
19.0
 40
19.0
 40
19.0
 40
20.0
 40
20.0
 40
20.0
 40
21.0
 40
21.0
 40
21.0
 40
22.0
 40
22.0
 40
22.0
 40
23.0
 40
23.0
 40
23.0
 40
24.0
 40
24.0
 40
24.0
 40
25.0
 40
25.0
 40
25.0
 40
26.0
 40
26.0
 40
26.0
 40
27.0
 40
27.0
 40
27.0
 40
28.0
 40
28.0
 40
28.0
 40
29.0
 40
29.0
 40
29.0
 40
30.0
 40
30.0
 40
30.0
 40
31.0
 40
31.0
 40
31.0
 40
32.0
 40
32.0
 40
32.0
 40
33.0
 40
33.0
 40
33.0
 40
34.0
 40
34.0
 40
34.0
 40
34.0
 10
-1.138676507991718
 20
-2.70581261043452
 10
-1.138676507991718
 20
-2.70581261043452
 10
-1.691817938324376
 20
-2.70581261043452
 10
-1.691817938324376
 20
-2.70581261043452
 10
-1.71220849335971
 20
-2.70581261043452
 10
-1.728746715159999
 20
-2.689274388216574
 10
-1.728746715159999
 20
-2.66888383266604
 10
-1.728746715159999
 20
-2.66888383266604
 10
-1.728746715159999
 20
-0.5731580554122502
 10
-1.728746715159999
 20
-0.5731580554122502
 10
-2.007384708051361
 20
-0.8402249442342508
 10
-2.162282370766277
 20
-0.9399904997649173
 10
-2.312212922496769
 20
-1.036736277518457
 10
-2.312212922496769
 20
-1.036736277518457
 10
-2.321990452818468
 20
-1.04307216640575
 10
-2.321990452818468
 20
-1.04307216640575
 10
-2.330952477574228
 20
-1.048857721959905
 10
-2.342664699497689
 20
-1.050508721959431
 10
-2.35299403256748
 20
-1.047206721960321
 10
-2.363477119474779
 20
-1.043904721961098
 10
-2.371874698752449
 20
-1.036185944185319
 10
-2.376009254202514
 20
-1.025983610854552
 10
-2.376009254202514
 20
-1.025983610854552
 10
-2.612342137062071
 20
-0.4494177221097857
 10
-2.612342137062071
 20
-0.4494177221097857
 10
-2.619101359111837
 20
-0.4325972776695153
 10
-2.612892470381368
 20
-0.4135896110076942
 10
-2.597737137434691
 20
-0.4039376110100648
 10
-1.947299598473179
 20
-0.0029280555547757
 10
-1.4306777227644
 20
0.594310610962566
 10
-1.1720210626966
 20
1.201751610810788
 10
-1.1720210626966
 20
1.201751610810788
 10
-2.502924584297957
 20
1.201751610810788
 10
-2.502924584297957
 20
1.201751610810788
 10
-2.523456250440844
 20
1.201751610810788
 10
-2.539994472241119
 20
1.218289833028848
 10
-2.539994472241119
 20
1.238412277468285
 10
-2.539994472241119
 20
1.238412277468285
 10
-2.539994472241119
 20
1.792724943996404
 10
-2.539994472241119
 20
1.792724943996404
 10
-2.539994472241119
 20
1.812974388435691
 10
-2.523456250440844
 20
1.829512610653864
 10
-2.502924584297957
 20
1.829512610653864
 10
-2.502924584297957
 20
1.829512610653864
 10
-1.728746715159999
 20
1.829512610653864
 10
-1.728746715159999
 20
1.829512610653864
 10
-1.728746715159999
 20
1.829512610653864
 10
-1.728746715159999
 20
2.674810499331329
 10
-1.728746715159999
 20
2.674810499331329
 10
-1.728746715159999
 20
2.695059943770729
 10
-1.71220849335971
 20
2.711598165988789
 10
-1.691817938324376
 20
2.711598165988789
 10
-1.691817938324376
 20
2.711598165988789
 10
-1.138676507991718
 20
2.711598165988789
 10
-1.138676507991718
 20
2.711598165988789
 10
-1.11827184184564
 20
2.711598165988789
 10
-1.101747731156081
 20
2.695059943770729
 10
-1.101747731156081
 20
2.674810499331329
 10
-1.101747731156081
 20
2.674810499331329
 10
-1.101747731156081
 20
1.829512610653864
 10
-1.101747731156081
 20
1.829512610653864
 10
-1.101747731156081
 20
1.829512610653864
 10
-0.5101535240266771
 20
1.829512610653864
 10
-0.5101535240266771
 20
1.829512610653864
 10
-0.4896218578838472
 20
1.829512610653864
 10
-0.4730836360835156
 20
1.812974388435691
 10
-0.4730836360835156
 20
1.792724943996404
 10
-0.4730836360835156
 20
1.792724943996404
 10
-0.4730836360835156
 20
1.238412277468285
 10
-0.4730836360835156
 20
1.238412277468285
 10
-0.4730836360835156
 20
1.233445166358364
 10
-0.4741843027221222
 20
1.228760277470655
 10
-0.4759748977245267
 20
1.224075388582946
 10
-0.5576938561471679
 20
1.032248944186449
 10
-0.6803335196850498
 20
0.7213670553753105
 10
-1.006102622485073
 20
0.2619233888235044
 10
-0.7562654066367572
 20
-0.0346216111023523
 10
-0.6321017431377669
 20
-0.1310851666338522
 10
-0.3125415290682127
 20
-0.3794124999050155
 10
-0.3125415290682127
 20
-0.3794124999050155
 10
-0.277955196617242
 20
-0.4064211665649964
 10
-0.277955196617242
 20
-0.4064211665649964
 10
-0.2641671199996409
 20
-0.4168916110067471
 10
-0.259765974859036
 20
-0.4356311665576414
 10
-0.2673436413324026
 20
-0.4513509443314661
 10
-0.2673436413324026
 20
-0.4513509443314661
 10
-0.5251677458658861
 20
-0.988504499752878
 10
-0.5251677458658861
 20
-0.988504499752878
 10
-0.5301348568502391
 20
-0.9987068330835882
 10
-0.5395046343890045
 20
-1.006143388637326
 10
-0.5508076341006501
 20
-1.008626944192144
 10
-0.561828411597233
 20
-1.010828277525035
 10
-0.573399522413169
 20
-1.008076610859006
 10
-0.5822189666325955
 20
-1.000625944194268
 10
-0.7972017389257218
 20
-0.8176330553511661
 10
-0.937480290902485
 20
-0.6784410553858038
 10
-1.101747731156081
 20
-0.4816616109906704
 10
-1.101747731156081
 20
-0.4816616109906704
 10
-1.101747731156081
 20
-2.66888383266604
 10
-1.101747731156081
 20
-2.66888383266604
 10
-1.101747731156081
 20
-2.689274388216574
 10
-1.11827184184564
 20
-2.70581261043452
 10
-1.138676507991718
 20
-2.70581261043452
 97
        0
 97
        0
 92
        1
 93
        1
 72
     4
 94
        3
 73
     0
 74
     0
 95
       83
 96
       79
 40
0.0
 40
0.0
 40
0.0
 40
0.0
 40
1.0
 40
1.0
 40
1.0
 40
2.0
 40
2.0
 40
2.0
 40
3.0
 40
3.0
 40
3.0
 40
4.0
 40
4.0
 40
4.0
 40
5.0
 40
5.0
 40
5.0
 40
6.0
 40
6.0
 40
6.0
 40
7.0
 40
7.0
 40
7.0
 40
8.0
 40
8.0
 40
8.0
 40
9.0
 40
9.0
 40
9.0
 40
10.0
 40
10.0
 40
10.0
 40
11.0
 40
11.0
 40
11.0
 40
12.0
 40
12.0
 40
12.0
 40
13.0
 40
13.0
 40
13.0
 40
14.0
 40
14.0
 40
14.0
 40
15.0
 40
15.0
 40
15.0
 40
16.0
 40
16.0
 40
16.0
 40
17.0
 40
17.0
 40
17.0
 40
18.0
 40
18.0
 40
18.0
 40
19.0
 40
19.0
 40
19.0
 40
20.0
 40
20.0
 40
20.0
 40
21.0
 40
21.0
 40
21.0
 40
22.0
 40
22.0
 40
22.0
 40
23.0
 40
23.0
 40
23.0
 40
24.0
 40
24.0
 40
24.0
 40
25.0
 40
25.0
 40
25.0
 40
26.0
 40
26.0
 40
26.0
 40
26.0
 10
2.530212287296009
 20
-2.519221388258927
 10
2.530212287296009
 20
-2.519221388258927
 10
-0.6603521868614877
 20
-2.519221388258927
 10
-0.6603521868614877
 20
-2.519221388258927
 10
-0.6808838530043176
 20
-2.519221388258927
 10
-0.697422074804635
 20
-2.502697277152037
 10
-0.697422074804635
 20
-2.482292610490503
 10
-0.697422074804635
 20
-2.482292610490503
 10
-0.697422074804635
 20
-1.877335166197099
 10
-0.697422074804635
 20
-1.877335166197099
 10
-0.697422074804635
 20
-1.856944610646849
 10
-0.6808838530043176
 20
-1.840406388428732
 10
-0.6603521868614877
 20
-1.840406388428732
 10
-0.6603521868614877
 20
-1.840406388428732
 10
0.6563555573242752
 20
-1.840406388428732
 10
0.6563555573242752
 20
-1.840406388428732
 10
0.6563555573242752
 20
-1.840406388428732
 10
0.6563555573242752
 20
0.4328089443363865
 10
0.6563555573242752
 20
0.4328089443363865
 10
0.6563555573242752
 20
0.4328089443363865
 10
-0.398111304662919
 20
0.4328089443363865
 10
-0.398111304662919
 20
0.4328089443363865
 10
-0.418515970808997
 20
0.4328089443363865
 10
-0.4350400814985705
 20
0.4490649443322355
 10
-0.4350400814985705
 20
0.4694554998826562
 10
-0.4350400814985705
 20
0.4694554998826562
 10
-0.4350400814985705
 20
1.0746951663981
 10
-0.4350400814985705
 20
1.0746951663981
 10
-0.4350400814985705
 20
1.09481761083748
 10
-0.418515970808997
 20
1.11135583305554
 10
-0.398111304662919
 20
1.11135583305554
 10
-0.398111304662919
 20
1.11135583305554
 10
0.6563555573242752
 20
1.11135583305554
 10
0.6563555573242752
 20
1.11135583305554
 10
0.6563555573242752
 20
1.11135583305554
 10
0.6563555573242752
 20
2.674810499331329
 10
0.6563555573242752
 20
2.674810499331329
 10
0.6563555573242752
 20
2.695059943770729
 10
0.6726256680203165
 20
2.711598165988789
 10
0.6930162230556931
 20
2.711598165988789
 10
0.6930162230556931
 20
2.711598165988789
 10
1.257178430884906
 20
2.711598165988789
 10
1.257178430884906
 20
2.711598165988789
 10
1.277441985923488
 20
2.711598165988789
 10
1.293981768499875
 20
2.695059943770729
 10
1.293981768499875
 20
2.674810499331329
 10
1.293981768499875
 20
2.674810499331329
 10
1.293981768499875
 20
1.11135583305554
 10
1.293981768499875
 20
1.11135583305554
 10
1.293981768499875
 20
1.11135583305554
 10
2.375328735691837
 20
1.11135583305554
 10
2.375328735691837
 20
1.11135583305554
 10
2.3957192907272
 20
1.11135583305554
 10
2.412257512527489
 20
1.09481761083748
 10
2.412257512527489
 20
1.0746951663981
 10
2.412257512527489
 20
1.0746951663981
 10
2.412257512527489
 20
0.4694554998826562
 10
2.412257512527489
 20
0.4694554998826562
 10
2.412257512527489
 20
0.4490649443322355
 10
2.3957192907272
 20
0.4328089443363865
 10
2.375328735691837
 20
0.4328089443363865
 10
2.375328735691837
 20
0.4328089443363865
 10
1.293981768499875
 20
0.4328089443363865
 10
1.293981768499875
 20
0.4328089443363865
 10
1.293981768499875
 20
0.4328089443363865
 10
1.293981768499875
 20
-1.840406388428732
 10
1.293981768499875
 20
-1.840406388428732
 10
1.293981768499875
 20
-1.840406388428732
 10
2.530212287296009
 20
-1.840406388428732
 10
2.530212287296009
 20
-1.840406388428732
 10
2.550616953442116
 20
-1.840406388428732
 10
2.567141064131632
 20
-1.856944610646849
 10
2.567141064131632
 20
-1.877335166197099
 10
2.567141064131632
 20
-1.877335166197099
 10
2.567141064131632
 20
-2.482292610490503
 10
2.567141064131632
 20
-2.482292610490503
 10
2.567141064131632
 20
-2.502697277152037
 10
2.550616953442116
 20
-2.519221388258927
 10
2.530212287296009
 20
-2.519221388258927
 97
        0
 97
        0
 75
     2
 76
     1
 98
        0
450
        0
451
        0
460
0.0
461
0.0
452
        0
462
0.0
453
        0
470

  0
ENDBLK
  5
51AB
330
51A8
100
AcDbEntity
  8
0
100
AcDbBlockEnd
  0
ENDSEC
  0
SECTION
  2
ENTITIES
  0
TEXT
  5
470
330
1A
100
AcDbEntity
  8
BALN
100
AcDbText
 10
117.185
 20
-381.25
 30
0.0
 40
15.625
  1
　　　　　　　　　　　　　
 41
0.833
  7
BIGFONT
100
AcDbText
  0
TEXT
  5
471
330
1A
100
AcDbEntity
  8
BALN
100
AcDbText
 10
331.51
 20
-403.125
 30
0.0
 40
13.02
  1
　　　　　　　　
 41
0.833
  7
BIGFONT
100
AcDbText
  0
TEXT
  5
472
330
1A
100
AcDbEntity
  8
BALN
100
AcDbText
 10
117.185
 20
-425.0
 30
0.0
 40
15.625
  1
　　　　　　　　　　　　　
 41
0.833
  7
BIGFONT
100
AcDbText
  0
TEXT
  5
84E
330
1A
100
AcDbEntity
  8
BALN
100
AcDbText
 10
125.0000000000003
 20
-620.0
 30
0.0
 40
30.0
  1
美術工芸手洗鉢
 41
0.833
  7
BIGFONT
100
AcDbText
  0
TEXT
  5
84F
330
1A
100
AcDbEntity
  8
BALN
100
AcDbText
 10
365.0000000000003
 20
-671.25
 30
0.0
 40
30.0
  1
ＷＡ
 41
0.833
  7
BIGFONT
100
AcDbText
  0
TEXT
  5
850
330
1A
100
AcDbEntity
  8
BALN
100
AcDbText
 10
125.0000000000003
 20
-678.75
 30
0.0
 40
37.5
  1
４２２３０６
 41
0.833
  7
BIGFONT
100
AcDbText
  0
INSERT
  5
851
330
1A
100
AcDbEntity
  8
BALN
 62
     2
100
AcDbBlockReference
  2
S36
 10
-89.99999999999984
 20
-629.9999999999998
 30
0.0
  0
TEXT
  5
853
330
1A
100
AcDbEntity
  8
BALN
100
AcDbText
 10
-322.4999999999997
 20
-592.4999999999999
 30
0.0
 40
15.0
  1
’１９．０３．０８
 41
0.833
  7
BIGFONT
100
AcDbText
  0
TEXT
  5
970
330
1A
100
AcDbEntity
  8
BALN
 62
     7
100
AcDbText
 10
125.0000000000001
 20
-562.5
 30
0.0
 40
15.0
  1
ＫＶ３０１Ｓ
 41
0.833
  7
BIGFONT
100
AcDbText
  0
DIMENSION
  5
4B58
330
1A
100
AcDbEntity
  8
BALN
 62
     4
100
AcDbDimension
280
     0
  2
*D4
 10
120.0000000000001
 20
135.0000035579481
 30
0.0
 11
120.0000000000001
 21
300.0000035579482
 31
0.0
 70
   160
  1
（<>）
 71
     5
 42
330.0
 73
     0
 74
     0
 75
     0
  3
ITM
100
AcDbAlignedDimension
 13
-159.9999999999999
 23
465.0000035579481
 33
0.0
 14
-159.9999999999998
 24
135.0000035579481
 34
0.0
 50
90.0
100
AcDbRotatedDimension
1001
ACAD
1000
DSTYLE
1002
{
1070
   179
1070
     8
1070
   271
1070
     8
1002
}
  0
DIMENSION
  5
4B5A
330
1A
100
AcDbEntity
  8
BALN
 62
     4
100
AcDbDimension
280
     0
  2
*D5
 10
40.00000000000007
 20
55.00000355794862
 30
0.0
 11
-159.9999999999999
 21
55.00000355794862
 31
0.0
 70
   160
  1
（<>）
 71
     5
 42
400.0
 73
     0
 74
     0
 75
     0
  3
ITM
100
AcDbAlignedDimension
 13
-359.9999999999999
 23
300.0000035579481
 33
0.0
 14
40.00000000000008
 24
300.0000035579487
 34
0.0
100
AcDbRotatedDimension
1001
ACAD
1000
DSTYLE
1002
{
1070
   179
1070
     8
1070
   271
1070
     8
1002
}
  0
DIMENSION
  5
4B5B
330
1A
100
AcDbEntity
  8
BALN
 62
     4
100
AcDbDimension
280
     0
  2
*D6
 10
-85.0677024355104
 20
-310.0
 30
0.0
 11
-160.0677024355104
 21
-310.0
 31
0.0
 70
   160
  1
（%%c<>）
 71
     5
 42
150.0
 73
     0
 74
     0
 75
     0
  3
ITM
100
AcDbAlignedDimension
 13
-235.0677024355104
 23
-230.0
 33
0.0
 14
-85.0677024355104
 24
-230.0
 34
0.0
100
AcDbRotatedDimension
1001
ACAD
1000
DSTYLE
1002
{
1070
   179
1070
     8
1070
   271
1070
     8
1002
}
  0
DIMENSION
  5
4B5C
330
1A
100
AcDbEntity
  8
BALN
 62
     4
100
AcDbDimension
280
     0
  2
*D7
 10
120.0000044395523
 20
-230.0000000000088
 30
0.0
 11
120.0000044395524
 21
-160.0000000000044
 31
0.0
 70
   160
  1
（<>）
 71
     5
 42
140.0000000000087
 73
     0
 74
     0
 75
     0
  3
ITM
100
AcDbAlignedDimension
 13
35.4322975644896
 23
-90.00000000000005
 33
0.0
 14
-85.06770243552239
 24
-230.0000000000088
 34
0.0
 50
90.0
100
AcDbRotatedDimension
1001
ACAD
1000
DSTYLE
1002
{
1070
   179
1070
     8
1070
   271
1070
     8
1002
}
  0
LINE
  5
4E7E
330
1A
100
AcDbEntity
  8
422044
  6
CENTER
 62
     3
100
AcDbLine
 10
-159.9999999999999
 20
485.0000035579482
 30
0.0
 11
-159.9999999999999
 21
115.0000035579481
 31
0.0
  0
LINE
  5
4E7F
330
1A
100
AcDbEntity
  8
422044
  6
CENTER
 62
     3
100
AcDbLine
 10
59.99932148143031
 20
300.0000035579482
 30
0.0
 11
-379.9993303605351
 21
300.0000035579482
 31
0.0
  0
ELLIPSE
  5
4E80
330
1A
100
AcDbEntity
  8
422044
100
AcDbEllipse
 10
-159.9999999999999
 20
300.0000035579482
 30
0.0
 11
-200.0
 21
-0.0000000000001137
 31
0.0
210
0.0
220
0.0
230
1.0
 40
0.825
 41
5.581316151540415
 42
11.21341621415522
  0
CIRCLE
  5
4E81
330
1A
100
AcDbEntity
  8
422044
100
AcDbCircle
 10
-159.9999999999999
 20
300.0000035579482
 30
0.0
 40
67.5
  0
ELLIPSE
  5
4E82
330
1A
100
AcDbEntity
  8
422044
100
AcDbEllipse
 10
-159.9999999999999
 20
300.0000035579482
 30
0.0
 11
-193.0
 21
-0.0000000000001137
 31
0.0
210
0.0
220
0.0
230
1.0
 40
0.8186528497409327
 41
5.602052205997409
 42
11.20965820145978
  0
ARC
  5
4E83
330
1A
100
AcDbEntity
  8
422044
100
AcDbCircle
 10
95.44792830864215
 20
-277.4430943349151
 30
0.0
 40
797.0742885863942
100
AcDbArc
 50
112.3170540869048
 51
113.9117187805672
  0
ARC
  5
4E84
330
1A
100
AcDbEntity
  8
422044
100
AcDbCircle
 10
95.44792830864215
 20
-277.4430943349151
 30
0.0
 40
797.0742885863942
100
AcDbArc
 50
118.829680008724
 51
120.4839671306304
  0
ARC
  5
4E85
330
1A
100
AcDbEntity
  8
422044
100
AcDbCircle
 10
-199.6316812754385
 20
441.4257907823597
 30
0.0
 40
20.0
100
AcDbArc
 50
100.3491711763163
 51
112.3170540869048
  0
ARC
  5
4E86
330
1A
100
AcDbEntity
  8
422044
100
AcDbCircle
 10
-298.7597108792862
 20
392.2171084455154
 30
0.0
 40
20.0
100
AcDbArc
 50
120.4839671306435
 51
134.2972988333956
  0
ARC
  5
4E87
330
1A
100
AcDbEntity
  8
422044
100
AcDbCircle
 10
-304.6282139365876
 20
525.6859627988055
 30
0.0
 40
120.5515201496188
100
AcDbArc
 50
273.6332446496709
 51
319.6592994346167
  0
ARC
  5
4E88
330
1A
100
AcDbEntity
  8
422044
100
AcDbCircle
 10
-197.4986246658444
 20
434.7025526678846
 30
0.0
 40
20.0
100
AcDbArc
 50
100.0922693558466
 51
139.6592994346167
  0
ARC
  5
4E89
330
1A
100
AcDbEntity
  8
422044
100
AcDbCircle
 10
-295.7215213690578
 20
385.4169332738389
 30
0.0
 40
20.0
100
AcDbArc
 50
93.63324464967083
 51
135.2854120370785
  0
CIRCLE
  5
4E8A
330
1A
100
AcDbEntity
  8
422044
100
AcDbCircle
 10
-159.9999999999999
 20
300.0000035579486
 30
0.0
 40
20.5
  0
CIRCLE
  5
4E8B
330
1A
100
AcDbEntity
  8
422044
100
AcDbCircle
 10
-159.9999999999999
 20
300.0000035579486
 30
0.0
 40
35.0
  0
ARC
  5
4E8C
330
1A
100
AcDbEntity
  8
422044
 62
     3
100
AcDbCircle
 10
-280.8071680019555
 20
428.994403455967
 30
0.0
 40
14.41628330872915
100
AcDbArc
 50
122.3958491264924
 51
166.3775504292379
  0
ARC
  5
4E8D
330
1A
100
AcDbEntity
  8
422044
 62
     3
100
AcDbCircle
 10
-295.9186212505151
 20
424.7635376364714
 30
0.0
 40
7.705256591244872
100
AcDbArc
 50
81.78704135585524
 51
149.7394798596298
  0
ARC
  5
4E8E
330
1A
100
AcDbEntity
  8
422044
 62
     3
100
AcDbCircle
 10
-302.3148597363201
 20
428.4952876836852
 30
0.0
 40
0.2999999999999999
100
AcDbArc
 50
149.7394798596225
 51
189.2091170191277
  0
ARC
  5
4E8F
330
1A
100
AcDbEntity
  8
422044
 62
     3
100
AcDbCircle
 10
-302.1628140722187
 20
408.0895629697126
 30
0.0
 40
19.12674898717665
100
AcDbArc
 50
60.72262776668535
 51
88.99659390803352
  0
ARC
  5
4E90
330
1A
100
AcDbEntity
  8
422044
 62
     3
100
AcDbCircle
 10
-280.3330921889033
 20
440.6388411212229
 30
0.0
 40
9.245493971030246
100
AcDbArc
 50
153.8407631189744
 51
181.2517176632761
  0
ARC
  5
4E91
330
1A
100
AcDbEntity
  8
422044
 62
     3
100
AcDbCircle
 10
-270.2843063842946
 20
448.4687018358261
 30
0.0
 40
18.72736095503388
100
AcDbArc
 50
176.3544514613754
 51
196.0939939603742
  0
ARC
  5
4E92
330
1A
100
AcDbEntity
  8
422044
 62
     3
100
AcDbCircle
 10
-291.5964709603637
 20
438.7958491434274
 30
0.0
 40
11.41192473179833
100
AcDbArc
 50
28.36362758613463
 51
75.42053527862309
  0
ARC
  5
4E93
330
1A
100
AcDbEntity
  8
422044
 62
     3
100
AcDbCircle
 10
-288.7741771570698
 20
449.6467437553662
 30
0.0
 40
0.2
100
AcDbArc
 50
75.42053527860968
 51
176.3544514613754
  0
ARC
  5
4E94
330
1A
100
AcDbEntity
  8
422044
 62
     3
100
AcDbCircle
 10
-286.0244424077512
 20
427.6008439714841
 30
0.0
 40
7.350357816410777
100
AcDbArc
 50
202.6255641073745
 51
306.4570698475811
  0
ARC
  5
4E95
330
1A
100
AcDbEntity
  8
422044
 62
     3
100
AcDbCircle
 10
-253.3924966212652
 20
436.1097123473765
 30
0.0
 40
23.09985036336119
100
AcDbArc
 50
105.7623317585059
 51
155.7911454331955
  0
ARC
  5
4E96
330
1A
100
AcDbEntity
  8
422044
 62
     3
100
AcDbCircle
 10
-249.171479965656
 20
433.9999997816305
 30
0.0
 40
26.50750552394609
100
AcDbArc
 50
66.46385076315445
 51
113.3261509872369
  0
ARC
  5
4E97
330
1A
100
AcDbEntity
  8
422044
 62
     3
100
AcDbCircle
 10
-241.435940483107
 20
441.3615193398388
 30
0.0
 40
17.17878137581462
100
AcDbArc
 50
43.25919632395144
 51
80.45156497148761
  0
ARC
  5
4E98
330
1A
100
AcDbEntity
  8
422044
 62
     3
100
AcDbCircle
 10
-237.9721092509029
 20
452.0486714131969
 30
0.0
 40
7.909477882679526
100
AcDbArc
 50
302.330975307294
 51
18.79370482576515
  0
SPLINE
  5
4E99
330
1A
100
AcDbEntity
  8
422044
 62
     3
100
AcDbSpline
210
0.0
220
0.0
230
1.0
 70
  1064
 71
     3
 72
    11
 73
     7
 74
     5
 42
0.000000001
 43
0.0000000001
 44
0.00001
 40
0.0
 40
0.0
 40
0.0
 40
0.0
 40
7.007547633504369
 40
21.98262750628926
 40
33.03246723729676
 40
40.39012897274006
 40
40.39012897274006
 40
40.39012897274006
 40
40.39012897274006
 10
-233.7420474141715
 20
445.3653775221562
 30
0.0
 10
-235.6092202607098
 20
443.9518667909648
 30
0.0
 10
-241.4665397344481
 20
439.5177094324939
 30
0.0
 10
-251.7524708095181
 20
435.3234114003627
 30
0.0
 10
-262.0796608671777
 20
431.1373714480132
 30
0.0
 10
-267.272869460101
 20
427.8473082964201
 30
0.0
 10
-269.3486427093729
 20
426.5322303282184
 30
0.0
 11
-233.7420474141715
 21
445.3653775221562
 31
0.0
 11
-239.4439490328262
 21
441.2917970789556
 31
0.0
 11
-252.9572606796901
 21
434.8386029388359
 31
0.0
 11
-263.0412265359428
 21
430.3205927588128
 31
0.0
 11
-269.3486427093729
 21
426.5322303282184
 31
0.0
  0
SPLINE
  5
4E9A
330
1A
100
AcDbEntity
  8
422044
 62
     3
100
AcDbSpline
210
0.0
220
0.0
230
1.0
 70
  1064
 71
     3
 72
    28
 73
    24
 74
    22
 42
0.000000001
 43
0.0000000001
 44
0.00001
 40
0.0
 40
0.0
 40
0.0
 40
0.0
 40
1.822893184568167
 40
4.015268689902906
 40
7.068544996653989
 40
9.56516149302759
 40
11.04315072378807
 40
11.56844125567831
 40
12.94326201869617
 40
13.94127343653185
 40
15.32306669259057
 40
15.82784060048194
 40
16.75567904847496
 40
17.57095973704792
 40
19.00408405358498
 40
19.85044689291606
 40
22.27094952220666
 40
24.05624010122741
 40
26.37876906413866
 40
28.28019471493678
 40
29.4075129598273
 40
30.65540510653748
 40
32.12448982845551
 40
32.12448982845551
 40
32.12448982845551
 40
32.12448982845551
 10
-287.614331463139
 20
420.4244930310109
 30
0.0
 10
-287.2202168147506
 20
419.9414877646177
 30
0.0
 10
-286.3520917321939
 20
418.8775853199785
 30
0.0
 10
-286.3422912966714
 20
416.3888581243202
 30
0.0
 10
-284.9392178170425
 20
414.1854087091386
 30
0.0
 10
-283.0661121149815
 20
412.4289808693269
 30
0.0
 10
-281.3479764343693
 20
412.8304717167619
 30
0.0
 10
-280.8048693414439
 20
414.0522348397367
 30
0.0
 10
-279.7520630647146
 20
412.8907010535998
 30
0.0
 10
-278.5496924546936
 20
413.038022861757
 30
0.0
 10
-277.4816621006905
 20
413.4728456785406
 30
0.0
 10
-277.6154220352731
 20
414.8331011819771
 30
0.0
 10
-276.5618915274278
 20
413.5433897923542
 30
0.0
 10
-276.2199816130622
 20
415.0673025546438
 30
0.0
 10
-275.4503166888953
 20
415.6403055052859
 30
0.0
 10
-275.6596482435331
 20
417.5454170666566
 30
0.0
 10
-273.0856444794031
 20
416.8367196234837
 30
0.0
 10
-271.12609503623
 20
416.9108237745271
 30
0.0
 10
-269.1755145382375
 20
417.2723036225056
 30
0.0
 10
-267.2194258628696
 20
417.919956153669
 30
0.0
 10
-267.4722054109593
 20
420.1306624450079
 30
0.0
 10
-265.8879985032895
 20
418.6792847075495
 30
0.0
 10
-265.1295866999418
 20
419.3645477727557
 30
0.0
 10
-264.7195063141134
 20
419.7350667697327
 30
0.0
 11
-287.614331463139
 21
420.4244930310109
 31
0.0
 11
-286.6097630689046
 21
418.9033795276524
 31
0.0
 11
-286.1787119596138
 21
416.7537975705778
 31
0.0
 11
-284.6950574658822
 21
414.0852252593254
 31
0.0
 11
-282.6138233510327
 21
412.7062511746959
 31
0.0
 11
-281.2252600521144
 21
413.2125543344312
 31
0.0
 11
-280.9120518196461
 21
413.6342543960134
 31
0.0
 11
-279.6494638071286
 21
413.09018374662
 31
0.0
 11
-278.6516621188509
 21
413.0696223364544
 31
0.0
 11
-277.5797782208405
 21
413.9416472779489
 31
0.0
 11
-277.5035120654024
 21
414.4406310278986
 31
0.0
 11
-276.6874503334233
 21
413.9991272782437
 31
0.0
 11
-276.2447956460628
 21
414.683779305639
 31
0.0
 11
-275.5686037993084
 21
415.9473503225127
 31
0.0
 11
-275.4680604389471
 21
416.787719557359
 31
0.0
 11
-273.0536129044526
 21
416.9588470301869
 31
0.0
 11
-271.2683945805558
 21
416.942601588942
 31
0.0
 11
-268.9865404204719
 21
417.3753822233187
 31
0.0
 11
-267.4433567387019
 21
418.4862394736848
 31
0.0
 11
-267.2129664988787
 21
419.5897635904996
 31
0.0
 11
-266.0553559888979
 21
419.1237480752282
 31
0.0
 11
-264.7195063141134
 21
419.7350667697327
 31
0.0
  0
SPLINE
  5
4E9B
330
1A
100
AcDbEntity
  8
422044
 62
     3
100
AcDbSpline
210
0.0
220
0.0
230
1.0
 70
  1064
 71
     3
 72
    33
 73
    29
 74
    27
 42
0.000000001
 43
0.0000000001
 44
0.00001
 40
0.0
 40
0.0
 40
0.0
 40
0.0
 40
1.593947111619295
 40
4.611050975150973
 40
6.618088231046176
 40
8.399685450532086
 40
10.26463138302454
 40
11.41742893130524
 40
13.01347084626377
 40
14.89282261311801
 40
18.4675683110969
 40
22.20308499644721
 40
25.70570887566434
 40
27.89767037611832
 40
31.43777134055103
 40
33.84765019140461
 40
37.44101595097138
 40
41.15115010283192
 40
43.18921982670682
 40
46.36426514749369
 40
47.36376446197095
 40
50.0643720695563
 40
52.99854334700296
 40
54.96731507957427
 40
57.78553636176265
 40
59.68041667690017
 40
62.39587414127326
 40
62.59017991681977
 40
62.59017991681977
 40
62.59017991681977
 40
62.59017991681977
 10
-228.925304247065
 20
453.1341363185509
 30
0.0
 10
-228.6398348900518
 20
452.6846793229016
 30
0.0
 10
-227.8140272762967
 20
451.3844591441344
 30
0.0
 10
-226.4241215327479
 20
449.6990020205087
 30
0.0
 10
-224.5646515077963
 20
448.193025663425
 30
0.0
 10
-224.3380776248155
 20
446.2551187370677
 30
0.0
 10
-224.7617645641416
 20
444.465248109577
 30
0.0
 10
-223.3277478821608
 20
443.5249071588871
 30
0.0
 10
-223.1659991210825
 20
441.7932869716834
 30
0.0
 10
-224.3845254215658
 20
439.7392399552583
 30
0.0
 10
-226.1944992798694
 20
437.2952688425006
 30
0.0
 10
-227.8538923450958
 20
434.0181114964297
 30
0.0
 10
-230.4219581441912
 20
432.0947388663064
 30
0.0
 10
-232.9616497706166
 20
430.3798343717623
 30
0.0
 10
-235.1896779063598
 20
428.7998538763518
 30
0.0
 10
-238.1354044184045
 20
427.5655541616763
 30
0.0
 10
-241.1608989807476
 20
426.4579587151015
 30
0.0
 10
-243.9414731242697
 20
424.8915087367861
 30
0.0
 10
-246.9426294473543
 20
424.7184392879239
 30
0.0
 10
-248.5475588375741
 20
422.1781288137479
 30
0.0
 10
-250.7129260388956
 20
423.784249784054
 30
0.0
 10
-252.5598864204201
 20
421.4421229707182
 30
0.0
 10
-255.154722188706
 20
421.5959974385396
 30
0.0
 10
-257.8088726733046
 20
421.9045180590379
 30
0.0
 10
-259.6140100021992
 20
420.2627385398137
 30
0.0
 10
-262.0956150663331
 20
419.8899781615191
 30
0.0
 10
-263.7723024161783
 20
420.1577680996021
 30
0.0
 10
-264.6602121867311
 20
419.7615222539047
 30
0.0
 10
-264.7195063141134
 20
419.7350667697327
 30
0.0
 11
-228.925304247065
 21
453.1341363185509
 31
0.0
 11
-228.0518564486224
 21
451.8008039392762
 31
0.0
 11
-226.0974647202451
 21
449.5022693787038
 31
0.0
 11
-224.7509336168931
 21
448.01396379041
 31
0.0
 11
-224.4531343048558
 21
446.257429629134
 31
0.0
 11
-224.364661198001
 21
444.3945811288499
 31
0.0
 11
-223.5988711462026
 21
443.5328927617715
 31
0.0
 11
-223.3281914076634
 21
441.9599703516113
 31
0.0
 11
-224.1071105604979
 21
440.2496327016276
 31
0.0
 11
-226.0867975170558
 21
437.2731127025282
 31
0.0
 11
-228.1187779750333
 21
434.1386023297795
 31
0.0
 11
-230.7846797840437
 21
431.866740962304
 31
0.0
 11
-232.5897411706893
 21
430.6231765496844
 31
0.0
 11
-235.5727228052554
 21
428.7168340478389
 31
0.0
 11
-237.7728178202232
 21
427.7334210762973
 31
0.0
 11
-241.1000947276623
 21
426.3763983835601
 31
0.0
 11
-244.5317865884844
 21
424.9662253831891
 31
0.0
 11
-246.4980864458883
 21
424.430133850669
 31
0.0
 11
-249.2463099491294
 21
422.8401102621657
 31
0.0
 11
-250.1672829329068
 21
423.2284499804469
 31
0.0
 11
-252.5762374776719
 21
422.0077064205312
 31
0.0
 11
-255.4885418203627
 21
421.6501529481128
 31
0.0
 11
-257.4572836217069
 21
421.6392615677592
 31
0.0
 11
-259.97114941827
 21
420.3653539764699
 31
0.0
 11
-261.8331005729376
 21
420.0136319171571
 31
0.0
 11
-264.5410580731827
 21
419.8119425768509
 31
0.0
 11
-264.7195063141134
 21
419.7350667697327
 31
0.0
  0
SPLINE
  5
4E9C
330
1A
100
AcDbEntity
  8
422044
 62
     3
100
AcDbSpline
210
0.0
220
0.0
230
1.0
 70
  1064
 71
     3
 72
    12
 73
     8
 74
     6
 42
0.000000001
 43
0.0000000001
 44
0.00001
 40
0.0
 40
0.0
 40
0.0
 40
0.0
 40
2.446181534419096
 40
5.016989863250215
 40
7.501183641354177
 40
9.195830661666201
 40
11.10861351540366
 40
11.10861351540366
 40
11.10861351540366
 40
11.10861351540366
 10
-273.6418241208585
 20
427.1557575413525
 30
0.0
 10
-272.9185815433957
 20
426.7664606964983
 30
0.0
 10
-271.4352547478744
 20
425.968021348618
 30
0.0
 10
-269.0420119255239
 20
425.362437611641
 30
0.0
 10
-267.1720307152476
 20
423.4837775956824
 30
0.0
 10
-267.7765011252501
 20
421.375947641229
 30
0.0
 10
-267.3839323712258
 20
420.2178267603108
 30
0.0
 10
-267.1757859135541
 20
419.6037498675161
 30
0.0
 11
-273.6418241208585
 21
427.1557575413525
 31
0.0
 11
-271.4441991251153
 21
426.0813881487801
 31
0.0
 11
-269.0692818942205
 21
425.0970998032183
 31
0.0
 11
-267.50895825144
 21
423.1640654994361
 31
0.0
 11
-267.5892190474319
 21
421.4713206367235
 31
0.0
 11
-267.1757859135541
 21
419.6037498675161
 31
0.0
  0
SPLINE
  5
4E9D
330
1A
100
AcDbEntity
  8
422044
 62
     3
100
AcDbSpline
210
0.0
220
0.0
230
1.0
 70
  1064
 71
     3
 72
    11
 73
     7
 74
     5
 42
0.000000001
 43
0.0000000001
 44
0.00001
 40
0.0
 40
0.0
 40
0.0
 40
0.0
 40
1.001751436942688
 40
2.864317684091897
 40
6.046903559902313
 40
8.366746283840274
 40
8.366746283840274
 40
8.366746283840274
 40
8.366746283840274
 10
-275.2532555184052
 20
417.042429959303
 30
0.0
 10
-275.5528504983834
 20
417.1811557441072
 30
0.0
 10
-276.4094785764905
 20
417.5778316040175
 30
0.0
 10
-278.6290815066978
 20
417.9679214517841
 30
0.0
 10
-278.7978890187658
 20
420.9588226950835
 30
0.0
 10
-279.1813098735959
 20
422.6889001413629
 30
0.0
 10
-279.3429550796578
 20
423.4183083318836
 30
0.0
 11
-275.2532555184052
 21
417.042429959303
 31
0.0
 11
-276.1758649122973
 21
417.4326933728007
 31
0.0
 11
-277.9079156618603
 21
418.1176409238608
 31
0.0
 11
-278.9037502830499
 21
421.1404166538921
 31
0.0
 11
-279.3429550796578
 21
423.4183083318836
 31
0.0
  0
SPLINE
  5
4E9E
330
1A
100
AcDbEntity
  8
422044
 62
     3
100
AcDbSpline
210
0.0
220
0.0
230
1.0
 70
  1064
 71
     3
 72
    15
 73
    11
 74
     9
 42
0.000000001
 43
0.0000000001
 44
0.00001
 40
0.0
 40
0.0
 40
0.0
 40
0.0
 40
0.9295046879244996
 40
2.234396331908926
 40
3.154338959048708
 40
4.895173028307167
 40
6.0533205581352
 40
7.304655711329241
 40
7.87073099178194
 40
7.996630145574724
 40
7.996630145574724
 40
7.996630145574724
 40
7.996630145574724
 10
-273.6418241208585
 20
427.1557575413525
 30
0.0
 10
-273.9956418726622
 20
427.2614213981633
 30
0.0
 10
-274.8461700512629
 20
427.5154242475078
 30
0.0
 10
-274.9514143192886
 20
425.8254469991616
 30
0.0
 10
-276.6058740983056
 20
426.2619522780431
 30
0.0
 10
-277.029932521696
 20
424.2111653069964
 30
0.0
 10
-278.8746822756074
 20
425.4944510579393
 30
0.0
 10
-278.7757018638966
 20
424.2548148675818
 30
0.0
 10
-279.5259080674575
 20
423.3702288721189
 30
0.0
 10
-279.2657511660788
 20
423.4264836988289
 30
0.0
 10
-279.2184178673421
 20
423.4367158468145
 30
0.0
 11
-273.6418241208585
 21
427.1557575413525
 31
0.0
 11
-274.5689817782464
 21
427.2216290535704
 31
0.0
 11
-275.2580080121017
 21
426.1134801124168
 31
0.0
 11
-276.1660153917199
 21
425.9657837532923
 31
0.0
 11
-277.4431952956547
 21
424.7828588339711
 31
0.0
 11
-278.5673020721737
 21
425.0616022623487
 31
0.0
 11
-279.1141672563277
 21
423.9360897389604
 31
0.0
 11
-279.3429550796578
 21
423.4183083318836
 31
0.0
 11
-279.2184178673421
 21
423.4367158468145
 31
0.0
  0
ARC
  5
4E9F
330
1A
100
AcDbEntity
  8
422044
 62
     3
100
AcDbCircle
 10
-279.8251749635821
 20
416.5613830256507
 30
0.0
 40
3.017692552379558
100
AcDbArc
 50
189.9194414479379
 51
252.9357242125426
  0
ARC
  5
4EA0
330
1A
100
AcDbEntity
  8
422044
 62
     3
100
AcDbCircle
 10
-272.5226104975185
 20
423.186331744684
 30
0.0
 40
10.12491572595205
100
AcDbArc
 50
217.9191534588905
 51
240.3349327441367
  0
SPLINE
  5
4EA1
330
1A
100
AcDbEntity
  8
422044
 62
     3
100
AcDbSpline
210
0.0
220
0.0
230
1.0
 70
  1064
 71
     3
 72
    13
 73
     9
 74
     7
 42
0.000000001
 43
0.0000000001
 44
0.00001
 40
0.0
 40
0.0
 40
0.0
 40
0.0
 40
1.189751138743014
 40
3.88780231007927
 40
5.397373072570742
 40
6.87503627836416
 40
8.120126106184654
 40
9.272070149940978
 40
9.272070149940978
 40
9.272070149940978
 40
9.272070149940978
 10
-282.2688114066434
 20
445.3705577555353
 30
0.0
 10
-281.8912554462979
 20
445.2539605281676
 30
0.0
 10
-280.6574941999159
 20
444.8729686199438
 30
0.0
 10
-278.7399401716903
 20
444.8160503239436
 30
0.0
 10
-277.0722709369873
 20
445.7605316784677
 30
0.0
 10
-275.7682713958356
 20
446.2987118181821
 30
0.0
 10
-274.8215054304978
 20
447.2893176450583
 30
0.0
 10
-273.9913582451841
 20
447.3068987496929
 30
0.0
 10
-273.592414786216
 20
447.3153534686586
 30
0.0
 11
-282.2688114066434
 21
445.3705577555353
 31
0.0
 11
-281.1223268762851
 21
445.0526074028208
 31
0.0
 11
-278.4248665327565
 21
445.1091645840779
 31
0.0
 11
-277.0516364094206
 21
445.7360970377374
 31
0.0
 11
-275.7477406595569
 21
446.4313269938061
 31
0.0
 11
-274.7327860616112
 21
447.1525234274505
 31
0.0
 11
-273.592414786216
 21
447.3153534686586
 31
0.0
  0
ARC
  5
4EA2
330
1A
100
AcDbEntity
  8
422044
 62
     3
100
AcDbCircle
 10
-300.5034656092954
 20
428.7889653155553
 30
0.0
 40
2.135046384939384
100
AcDbArc
 50
189.2091170191277
 51
224.03916460284
  0
ARC
  5
4EA3
330
1A
100
AcDbEntity
  8
422044
 62
     3
100
AcDbCircle
 10
-301.822615857596
 20
427.513332979305
 30
0.0
 40
0.2999999999999999
100
AcDbArc
 50
224.03916460284
 51
268.9965939080465
  0
SPLINE
  5
4EA4
330
1A
100
AcDbEntity
  8
422044
 62
     3
100
AcDbSpline
210
0.0
220
0.0
230
1.0
 70
  1064
 71
     3
 72
    15
 73
    11
 74
     9
 42
0.000000001
 43
0.0000000001
 44
0.00001
 40
0.0
 40
0.0
 40
0.0
 40
0.0
 40
1.779933287880076
 40
3.653785365061287
 40
5.116137123696919
 40
7.363803012358792
 40
9.260097305383448
 40
10.20739919200317
 40
11.9016013637992
 40
13.07971813083947
 40
13.07971813083947
 40
13.07971813083947
 40
13.07971813083947
 10
-281.6710680729683
 20
430.1039468742655
 30
0.0
 10
-282.1729778613796
 20
429.8575466314046
 30
0.0
 10
-283.20328300397
 20
429.3517496008065
 30
0.0
 10
-285.3096035658987
 20
428.6309588535778
 30
0.0
 10
-285.8703159720568
 20
430.9227615638106
 30
0.0
 10
-284.9601638802588
 20
432.5537064522614
 30
0.0
 10
-283.3201884810038
 20
433.7053636212178
 30
0.0
 10
-281.7926852895244
 20
432.8375337887321
 30
0.0
 10
-282.0061744296534
 20
431.3787543641227
 30
0.0
 10
-281.7991465979787
 20
430.4583844787696
 30
0.0
 10
-281.7142349883983
 20
430.0808830516471
 30
0.0
 11
-281.6710680729683
 21
430.1039468742655
 31
0.0
 11
-283.2892846437423
 21
429.362615788669
 31
0.0
 11
-285.1514034438441
 21
429.1532370177553
 31
0.0
 11
-285.640010969697
 21
430.5315510413076
 31
0.0
 11
-284.7083467600686
 21
432.5770425618746
 31
0.0
 11
-282.9961654728799
 21
433.392145932418
 31
0.0
 11
-282.177447798292
 21
432.9156082530857
 31
0.0
 11
-281.9071357260238
 21
431.2431088666359
 31
0.0
 11
-281.7142349883983
 21
430.0808830516471
 31
0.0
  0
SPLINE
  5
4EA5
330
1A
100
AcDbEntity
  8
422044
 62
     3
100
AcDbSpline
210
0.0
220
0.0
230
1.0
 70
  1064
 71
     3
 72
     9
 73
     5
 74
     3
 42
0.000000001
 43
0.0000000001
 44
0.00001
 40
0.0
 40
0.0
 40
0.0
 40
0.0
 40
1.442326471780098
 40
3.501684017476142
 40
3.501684017476142
 40
3.501684017476142
 40
3.501684017476142
 10
-280.6875844569498
 20
434.3501659236491
 30
0.0
 10
-280.4114962150798
 20
434.7612711591644
 30
0.0
 10
-279.7412265070903
 20
435.759361422889
 30
0.0
 10
-279.9123288495987
 20
436.9678095474863
 30
0.0
 10
-280.0129662174852
 20
437.6785057016291
 30
0.0
 11
-280.6875844569498
 21
434.3501659236491
 31
0.0
 11
-280.0020700404187
 21
435.6191745054336
 31
0.0
 11
-280.0129662174852
 21
437.6785057016291
 31
0.0
  0
SPLINE
  5
4EA6
330
1A
100
AcDbEntity
  8
422044
 62
     3
100
AcDbSpline
210
0.0
220
0.0
230
1.0
 70
  1064
 71
     3
 72
     9
 73
     5
 74
     3
 42
0.000000001
 43
0.0000000001
 44
0.00001
 40
0.0
 40
0.0
 40
0.0
 40
0.0
 40
1.032837844791895
 40
2.267961043673765
 40
2.267961043673765
 40
2.267961043673765
 40
2.267961043673765
 10
-279.6232710337673
 20
433.4882912415326
 30
0.0
 10
-279.4672366413109
 20
433.7955160199006
 30
0.0
 10
-279.1246261610449
 20
434.4701452556043
 30
0.0
 10
-278.8638017507829
 20
435.1805775510479
 30
0.0
 10
-278.7217678536143
 20
435.5674805873724
 30
0.0
 11
-279.6232710337673
 21
433.4882912415326
 31
0.0
 11
-279.1721371414687
 21
434.4173945933104
 31
0.0
 11
-278.7217678536143
 21
435.5674805873724
 31
0.0
  0
SPLINE
  5
4EA7
330
1A
100
AcDbEntity
  8
422044
 62
     3
100
AcDbSpline
210
0.0
220
0.0
230
1.0
 70
  1064
 71
     3
 72
    10
 73
     6
 74
     4
 42
0.000000001
 43
0.0000000001
 44
0.00001
 40
0.0
 40
0.0
 40
0.0
 40
0.0
 40
1.912523460167122
 40
3.796888597627493
 40
4.753392583984395
 40
4.753392583984395
 40
4.753392583984395
 40
4.753392583984395
 10
-278.2125283272987
 20
433.834634646075
 30
0.0
 10
-278.0516809402718
 20
434.4474041494246
 30
0.0
 10
-277.7323782324693
 20
435.6639290679358
 30
0.0
 10
-277.4362245794509
 20
437.2741800395028
 30
0.0
 10
-276.8230478429634
 20
438.009172492437
 30
0.0
 10
-276.6165882503219
 20
438.256635880873
 30
0.0
 11
-278.2125283272987
 21
433.834634646075
 31
0.0
 11
-277.7509959364929
 21
435.6906299503148
 31
0.0
 11
-277.1865161376513
 21
437.4884657146624
 31
0.0
 11
-276.6165882503219
 21
438.256635880873
 31
0.0
  0
SPLINE
  5
4EA8
330
1A
100
AcDbEntity
  8
422044
 62
     3
100
AcDbSpline
210
0.0
220
0.0
230
1.0
 70
  1064
 71
     3
 72
    10
 73
     6
 74
     4
 42
0.000000001
 43
0.0000000001
 44
0.00001
 40
0.0
 40
0.0
 40
0.0
 40
0.0
 40
1.809979618546153
 40
3.673055288098341
 40
5.584340352921846
 40
5.584340352921846
 40
5.584340352921846
 40
5.584340352921846
 10
-283.2352281411653
 20
426.2011857325988
 30
0.0
 10
-283.8073870429301
 20
425.9754943062628
 30
0.0
 10
-284.9684766638311
 20
425.5174711881267
 30
0.0
 10
-286.0953711556321
 20
423.9378427131633
 30
0.0
 10
-287.2537355392788
 20
423.401688710977
 30
0.0
 10
-287.8403223768824
 20
423.1301975104094
 30
0.0
 11
-283.2352281411653
 21
426.2011857325988
 31
0.0
 11
-284.8497402297009
 21
425.3830278147713
 31
0.0
 11
-286.1822981572293
 21
424.0809714716065
 31
0.0
 11
-287.8403223768824
 21
423.1301975104094
 31
0.0
  0
SPLINE
  5
4EA9
330
1A
100
AcDbEntity
  8
422044
 62
     3
100
AcDbSpline
210
0.0
220
0.0
230
1.0
 70
  1064
 71
     3
 72
    10
 73
     6
 74
     4
 42
0.000000001
 43
0.0000000001
 44
0.00001
 40
0.0
 40
0.0
 40
0.0
 40
0.0
 40
2.116676835898362
 40
4.333324110114258
 40
5.236783729302571
 40
5.236783729302571
 40
5.236783729302571
 40
5.236783729302571
 10
-281.6576215046326
 20
425.5628060198904
 30
0.0
 10
-282.2298444280955
 20
425.1461305547532
 30
0.0
 10
-283.4012983724388
 20
424.2930789522906
 30
0.0
 10
-284.5091493487932
 20
422.9155312708909
 30
0.0
 10
-285.353636170761
 20
422.3047127529207
 30
0.0
 10
-285.5981707531975
 20
422.1278496481432
 30
0.0
 11
-281.6576215046326
 21
425.5628060198904
 31
0.0
 11
-283.313500975304
 21
424.244327254165
 31
0.0
 11
-284.8800325640973
 21
422.6760448600216
 31
0.0
 11
-285.5981707531975
 21
422.1278496481432
 31
0.0
  0
ARC
  5
4EAA
330
1A
100
AcDbEntity
  8
422044
 62
     3
100
AcDbCircle
 10
-283.7181248272852
 20
435.824734031479
 30
0.0
 40
1.254920248191192
100
AcDbArc
 50
154.1702608206105
 51
247.1146281531227
  0
ARC
  5
4EAB
330
1A
100
AcDbEntity
  8
422044
 62
     3
100
AcDbCircle
 10
-288.2324668738032
 20
437.0492379057243
 30
0.0
 40
4.677466606080804
100
AcDbArc
 50
329.405428966352
 51
18.01277304405018
  0
SPLINE
  5
4EAC
330
1A
100
AcDbEntity
  8
422044
 62
     3
100
AcDbSpline
210
0.0
220
0.0
230
1.0
 70
  1064
 71
     3
 72
    10
 73
     6
 74
     4
 42
0.000000001
 43
0.0000000001
 44
0.00001
 40
0.0
 40
0.0
 40
0.0
 40
0.0
 40
1.209568142198363
 40
1.959637513539394
 40
2.431090712941669
 40
2.431090712941669
 40
2.431090712941669
 40
2.431090712941669
 10
-283.7842541180355
 20
438.495646261075
 30
0.0
 10
-283.9088581814146
 20
438.1176473568602
 30
0.0
 10
-284.1107078531804
 20
437.5052348457444
 30
0.0
 10
-284.3707364037309
 20
436.6953709130326
 30
0.0
 10
-284.7148509683382
 20
436.4616866576312
 30
0.0
 10
-284.8476694381278
 20
436.3715007106357
 30
0.0
 11
-283.7842541180355
 21
438.495646261075
 31
0.0
 11
-284.1609964309299
 21
437.346253303444
 31
0.0
 11
-284.4810146345143
 21
436.6678700873006
 31
0.0
 11
-284.8476694381278
 21
436.3715007106357
 31
0.0
  0
SPLINE
  5
4EAD
330
1A
100
AcDbEntity
  8
422044
 62
     3
100
AcDbSpline
210
0.0
220
0.0
230
1.0
 70
  1064
 71
     3
 72
    15
 73
    11
 74
     9
 42
0.000000001
 43
0.0000000001
 44
0.00001
 40
0.0
 40
0.0
 40
0.0
 40
0.0
 40
0.8302429838442973
 40
1.998931352811823
 40
3.595299137183212
 40
4.066315891058801
 40
5.052243938794164
 40
6.569604320382233
 40
7.802909431098638
 40
8.347155354076639
 40
8.347155354076639
 40
8.347155354076639
 40
8.347155354076639
 10
-287.8467580038817
 20
427.219548796338
 30
0.0
 10
-288.1306172887069
 20
427.2951403124216
 30
0.0
 10
-288.8140485643577
 20
427.47713744097
 30
0.0
 10
-289.7597759561946
 20
426.4665447415946
 30
0.0
 10
-290.3627159194856
 20
425.7824377743491
 30
0.0
 10
-291.7788804681604
 20
425.5266148254107
 30
0.0
 10
-289.8340797171886
 20
425.5092465499203
 30
0.0
 10
-289.3401614076462
 20
426.3480288568689
 30
0.0
 10
-287.669818386213
 20
426.2470325420354
 30
0.0
 10
-287.7934608892201
 20
426.9127453456822
 30
0.0
 10
-287.8313118413786
 20
427.1165722346131
 30
0.0
 11
-287.8467580038817
 21
427.219548796338
 31
0.0
 11
-288.6711533789229
 21
427.3179976550877
 31
0.0
 11
-289.6093845204714
 21
426.6211766404273
 31
0.0
 11
-290.914455774667
 21
425.7018408969369
 31
0.0
 11
-291.3698727264655
 21
425.5816234170888
 31
0.0
 11
-290.3841509451392
 21
425.6017824945935
 31
0.0
 11
-288.9889373981826
 21
426.1982441790753
 31
0.0
 11
-287.8138232420214
 21
426.5726037979282
 31
0.0
 11
-287.8313118413786
 21
427.1165722346131
 31
0.0
  0
SPLINE
  5
4EAE
330
1A
100
AcDbEntity
  8
422044
 62
     3
100
AcDbSpline
210
0.0
220
0.0
230
1.0
 70
  1064
 71
     3
 72
    11
 73
     7
 74
     5
 42
0.000000001
 43
0.0000000001
 44
0.00001
 40
0.0
 40
0.0
 40
0.0
 40
0.0
 40
2.218620109439871
 40
4.20473939668655
 40
7.85881640572151
 40
8.619938780275294
 40
8.619938780275294
 40
8.619938780275294
 40
8.619938780275294
 10
-273.995638066736
 20
427.2614202615647
 30
0.0
 10
-273.2505735814431
 20
427.5220503615862
 30
0.0
 10
-271.8385307634577
 20
428.0160086283092
 30
0.0
 10
-271.0976861056621
 20
430.7641145394352
 30
0.0
 10
-271.5434942296099
 20
433.0270958581889
 30
0.0
 10
-272.5160209788679
 20
434.1383908340421
 30
0.0
 10
-272.6836762858929
 20
434.3299598443352
 30
0.0
 11
-273.995638066736
 21
427.2614202615647
 31
0.0
 11
-272.0432180648276
 21
428.315149010505
 31
0.0
 11
-271.3695518929938
 21
430.1835329430394
 31
0.0
 11
-272.2004743329188
 21
433.7418918271914
 31
0.0
 11
-272.6836762858929
 21
434.3299598443352
 31
0.0
  0
SPLINE
  5
4EAF
330
1A
100
AcDbEntity
  8
422044
 62
     3
100
AcDbSpline
210
0.0
220
0.0
230
1.0
 70
  1064
 71
     3
 72
     9
 73
     5
 74
     3
 42
0.000000001
 43
0.0000000001
 44
0.00001
 40
0.0
 40
0.0
 40
0.0
 40
0.0
 40
1.24163210183001
 40
2.389566759824012
 40
2.389566759824012
 40
2.389566759824012
 40
2.389566759824012
 10
-280.1510434229499
 20
428.4172764151826
 30
0.0
 10
-279.8972091141926
 20
428.0778219931351
 30
0.0
 10
-279.4086827438052
 20
427.424543885662
 30
0.0
 10
-278.6452659233765
 20
427.1419817366654
 30
0.0
 10
-278.2785199731895
 20
427.0062484715851
 30
0.0
 11
-280.1510434229499
 21
428.4172764151826
 31
0.0
 11
-279.3153154167316
 21
427.4990096934025
 31
0.0
 11
-278.2785199731895
 21
427.0062484715851
 31
0.0
  0
SPLINE
  5
4EB0
330
1A
100
AcDbEntity
  8
422044
 62
     3
100
AcDbSpline
210
0.0
220
0.0
230
1.0
 70
  1064
 71
     3
 72
     9
 73
     5
 74
     3
 42
0.000000001
 43
0.0000000001
 44
0.00001
 40
0.0
 40
0.0
 40
0.0
 40
0.0
 40
1.62513833637752
 40
4.112535578420775
 40
4.112535578420775
 40
4.112535578420775
 40
4.112535578420775
 10
-283.2236186114331
 20
426.9886409019048
 30
0.0
 10
-283.7841583917795
 20
427.0501702373891
 30
0.0
 10
-285.2026449662869
 20
427.2058553644499
 30
0.0
 10
-286.2594367575856
 20
426.1939513498209
 30
0.0
 10
-286.8986149926378
 20
425.5819077264972
 30
0.0
 11
-283.2236186114331
 21
426.9886409019048
 31
0.0
 11
-284.8487583556313
 21
426.9908958719118
 31
0.0
 11
-286.8986149926378
 21
425.5819077264972
 31
0.0
  0
SPLINE
  5
4EB1
330
1A
100
AcDbEntity
  8
422044
 62
     3
100
AcDbSpline
210
0.0
220
0.0
230
1.0
 70
  1064
 71
     3
 72
    10
 73
     6
 74
     4
 42
0.000000001
 43
0.0000000001
 44
0.00001
 40
0.0
 40
0.0
 40
0.0
 40
0.0
 40
1.409231072956229
 40
3.587343451364352
 40
5.417417128077991
 40
5.417417128077991
 40
5.417417128077991
 40
5.417417128077991
 10
-277.2168832994136
 20
432.5670304364928
 30
0.0
 10
-277.2191625169093
 20
433.0631907424669
 30
0.0
 10
-277.2249436004758
 20
434.3262119067582
 30
0.0
 10
-275.4584421937198
 20
435.3518378752444
 30
0.0
 10
-274.7697231069504
 20
436.492689928416
 30
0.0
 10
-274.4552738138872
 20
437.0135911500746
 30
0.0
 11
-277.2168832994136
 21
432.5670304364928
 31
0.0
 11
-277.0423064840597
 21
433.9654094999665
 31
0.0
 11
-275.5275196577902
 21
435.5305344500464
 31
0.0
 11
-274.4552738138872
 21
437.0135911500746
 31
0.0
  0
SPLINE
  5
4EB2
330
1A
100
AcDbEntity
  8
422044
 62
     3
100
AcDbSpline
210
0.0
220
0.0
230
1.0
 70
  1064
 71
     3
 72
     9
 73
     5
 74
     3
 42
0.000000001
 43
0.0000000001
 44
0.00001
 40
0.0
 40
0.0
 40
0.0
 40
0.0
 40
2.563060331065117
 40
5.608345745495713
 40
5.608345745495713
 40
5.608345745495713
 40
5.608345745495713
 10
-273.8981209723896
 20
423.1608182361272
 30
0.0
 10
-273.2022719594529
 20
422.6202596009582
 30
0.0
 10
-271.6796454216388
 20
421.4374565612313
 30
0.0
 10
-269.7402855969437
 20
421.5236437532137
 30
0.0
 10
-268.6872270021502
 20
421.5704528029214
 30
0.0
 11
-273.8981209723896
 21
423.1608182361272
 31
0.0
 11
-271.7235317934341
 21
421.8041855032503
 31
0.0
 11
-268.6872270021502
 21
421.5704528029214
 31
0.0
  0
SPLINE
  5
4EB3
330
1A
100
AcDbEntity
  8
422044
 62
     3
100
AcDbSpline
210
0.0
220
0.0
230
1.0
 70
  1064
 71
     3
 72
    10
 73
     6
 74
     4
 42
0.000000001
 43
0.0000000001
 44
0.00001
 40
0.0
 40
0.0
 40
0.0
 40
0.0
 40
3.562846077014068
 40
6.624127930916657
 40
8.725943899545679
 40
8.725943899545679
 40
8.725943899545679
 40
8.725943899545679
 10
-276.2640972137701
 20
421.733112850578
 30
0.0
 10
-275.620902328395
 20
420.6767408295103
 30
0.0
 10
-274.4250480721436
 20
418.7127147060733
 30
0.0
 10
-271.1812830807482
 20
418.1506240381048
 30
0.0
 10
-269.6274303950285
 20
418.9262360207183
 30
0.0
 10
-268.9948838845932
 20
419.2419812260176
 30
0.0
 11
-276.2640972137701
 21
421.733112850578
 31
0.0
 11
-273.9680933926285
 21
419.0087315401936
 31
0.0
 11
-270.9530931700059
 21
418.4783951049401
 31
0.0
 11
-268.9948838845932
 21
419.2419812260176
 31
0.0
  0
SPLINE
  5
4EB4
330
1A
100
AcDbEntity
  8
422044
 62
     3
100
AcDbSpline
210
0.0
220
0.0
230
1.0
 70
  1064
 71
     3
 72
    17
 73
    13
 74
    11
 42
0.000000001
 43
0.0000000001
 44
0.00001
 40
0.0
 40
0.0
 40
0.0
 40
0.0
 40
0.5755691357441312
 40
1.280463987127514
 40
2.021789904105243
 40
3.0327975627639
 40
4.023613583869605
 40
4.882557311879703
 40
5.766091829519338
 40
7.010483731127621
 40
7.742033463574478
 40
7.820339080346522
 40
7.820339080346522
 40
7.820339080346522
 40
7.820339080346522
 10
-268.2646048158438
 20
417.6167580682393
 30
0.0
 10
-268.1547136224547
 20
417.8207970667591
 30
0.0
 10
-267.91022704758
 20
418.2747180614553
 30
0.0
 10
-268.7678159018768
 20
418.5038641233997
 30
0.0
 10
-269.1996107374347
 20
419.3357149148643
 30
0.0
 10
-268.3053726767075
 20
420.2430637320698
 30
0.0
 10
-269.8597340895225
 20
421.0284470442185
 30
0.0
 10
-268.2974103669963
 20
421.5066421825694
 30
0.0
 10
-269.2408112506406
 20
422.5097159802007
 30
0.0
 10
-268.8070511642097
 20
423.6555444599081
 30
0.0
 10
-267.3126694062108
 20
423.4176781073318
 30
0.0
 10
-267.6005032353838
 20
423.3441780449223
 30
0.0
 10
-267.6283330098244
 20
423.3370687701413
 30
0.0
 11
-268.2646048158438
 21
417.6167580682393
 31
0.0
 11
-268.0940692051348
 21
418.1664759740105
 31
0.0
 11
-268.6670128267993
 21
418.5771011144821
 31
0.0
 11
-268.9948838845932
 21
419.2419812260176
 31
0.0
 11
-268.7426804354951
 21
420.2210265206876
 31
0.0
 11
-269.3396734691729
 21
421.0117961178085
 31
0.0
 11
-268.6872270021502
 21
421.5704528029214
 31
0.0
 11
-268.9553260403085
 21
422.412330754132
 31
0.0
 11
-268.2780481085503
 21
423.4562709232396
 31
0.0
 11
-267.5530501039883
 21
423.3585833229555
 31
0.0
 11
-267.6283330098244
 21
423.3370687701413
 31
0.0
  0
SPLINE
  5
4EB5
330
1A
100
AcDbEntity
  8
422044
 62
     3
100
AcDbSpline
210
0.0
220
0.0
230
1.0
 70
  1064
 71
     3
 72
    10
 73
     6
 74
     4
 42
0.000000001
 43
0.0000000001
 44
0.00001
 40
0.0
 40
0.0
 40
0.0
 40
0.0
 40
2.585847009829293
 40
5.516971539360341
 40
9.389694515147377
 40
9.389694515147377
 40
9.389694515147377
 40
9.389694515147377
 10
-301.8895111058249
 20
428.1758685482653
 30
0.0
 10
-301.1542027166805
 20
428.60631372609
 30
0.0
 10
-299.5853961779726
 20
429.524667345709
 30
0.0
 10
-296.2383847408764
 20
430.3391549543956
 30
0.0
 10
-294.4976942796009
 20
428.6182775513029
 30
0.0
 10
-293.5069048200618
 20
427.6387563154638
 30
0.0
 11
-301.8895111058249
 21
428.1758685482653
 31
0.0
 11
-299.596199966639
 21
429.3705849397019
 31
0.0
 11
-296.7010732181287
 21
429.8285731297727
 31
0.0
 11
-293.5069048200618
 21
427.6387563154638
 31
0.0
  0
SPLINE
  5
4EB6
330
1A
100
AcDbEntity
  8
422044
 62
     3
100
AcDbSpline
210
0.0
220
0.0
230
1.0
 70
  1064
 71
     3
 72
    11
 73
     7
 74
     5
 42
0.000000001
 43
0.0000000001
 44
0.00001
 40
0.0
 40
0.0
 40
0.0
 40
0.0
 40
1.83187902665357
 40
4.752904883948609
 40
7.346770009168462
 40
10.91274893748586
 40
10.91274893748586
 40
10.91274893748586
 40
10.91274893748586
 10
-288.5441191646197
 20
449.5181944115477
 30
0.0
 10
-288.6064128581472
 20
448.9113293187243
 30
0.0
 10
-288.7680202449951
 20
447.3367856360808
 30
0.0
 10
-288.2347822204966
 20
444.820954213487
 30
0.0
 10
-285.6501201923861
 20
442.6729659262429
 30
0.0
 10
-283.528793909087
 20
443.1583965283282
 30
0.0
 10
-282.3007424733145
 20
443.439422602186
 30
0.0
 11
-288.5441191646197
 21
449.5181944115477
 31
0.0
 11
-288.6557440989172
 21
447.6897162389723
 31
0.0
 11
-287.8829763668192
 21
444.872759376047
 31
0.0
 11
-285.8615488650395
 21
443.2473391251001
 31
0.0
 11
-282.3007424733145
 21
443.439422602186
 31
0.0
  0
LINE
  5
4EDA
330
1A
100
AcDbEntity
  8
422044
  6
CENTER
 62
     3
100
AcDbLine
 10
390.0
 20
299.999999999999
 30
0.0
 11
209.9999955604467
 21
299.999999999999
 31
0.0
  0
LINE
  5
4EDB
330
1A
100
AcDbEntity
  8
422044
100
AcDbLine
 10
370.0
 20
374.9999999999997
 30
0.0
 11
370.0
 21
224.9999999999997
 31
0.0
  0
ARC
  5
4EDC
330
1A
100
AcDbEntity
  8
422044
100
AcDbCircle
 10
234.4999999999991
 20
460.4999999999997
 30
0.0
 40
4.5
100
AcDbArc
 50
56.13878447477519
 51
180.0
  0
LINE
  5
4EDD
330
1A
100
AcDbEntity
  8
422044
100
AcDbLine
 10
229.9999999999991
 20
460.4999999999997
 30
0.0
 11
229.9999999999991
 21
139.4999999999992
 31
0.0
  0
ARC
  5
4EDE
330
1A
100
AcDbEntity
  8
422044
100
AcDbCircle
 10
253.017167813638
 20
265.8440703687751
 30
0.0
 40
160.0
100
AcDbArc
 50
43.01772354831255
 51
69.25984540125475
  0
ARC
  5
4EDF
330
1A
100
AcDbEntity
  8
422044
100
AcDbCircle
 10
455.5895389568611
 20
711.4650190575373
 30
0.0
 40
330.0
100
AcDbArc
 50
228.5190994674628
 51
243.7584694821221
  0
ARC
  5
4EE0
330
1A
100
AcDbEntity
  8
422044
100
AcDbCircle
 10
234.4999999999991
 20
139.4999999999992
 30
0.0
 40
4.5
100
AcDbArc
 50
180.0
 51
303.8612155252248
  0
ARC
  5
4EE1
330
1A
100
AcDbEntity
  8
422044
100
AcDbCircle
 10
253.017167813638
 20
334.1559296312237
 30
0.0
 40
160.0
100
AcDbArc
 50
290.7401545987453
 51
316.9822764516921
  0
ARC
  5
4EE2
330
1A
100
AcDbEntity
  8
422044
100
AcDbCircle
 10
455.5895389568611
 20
-111.4650190575384
 30
0.0
 40
330.0
100
AcDbArc
 50
116.2415305178925
 51
131.4809005325533
  0
ARC
  5
4EE3
330
1A
100
AcDbEntity
  8
422044
 62
     3
100
AcDbCircle
 10
222.4537469843931
 20
439.1662037465149
 30
0.0
 40
18.72736095503388
100
AcDbArc
 50
210.7714387290745
 51
230.5109812280874
  0
ARC
  5
4EE4
330
1A
100
AcDbEntity
  8
422044
 62
     3
100
AcDbCircle
 10
210.339571607421
 20
419.1407401298531
 30
0.0
 40
11.41192473179833
100
AcDbArc
 50
62.78061485385162
 51
109.8375225463274
  0
ARC
  5
4EE5
330
1A
100
AcDbEntity
  8
422044
 62
     3
100
AcDbCircle
 10
206.5347598460321
 20
429.687335014076
 30
0.0
 40
0.2
100
AcDbArc
 50
109.8375225462996
 51
210.7714387290745
  0
SPLINE
  5
4EE6
330
1A
100
AcDbEntity
  8
422044
 62
     3
100
AcDbSpline
210
0.0
220
0.0
230
1.0
 70
  1065
 71
     3
 72
    15
 73
    11
 74
     9
 42
0.000000001
 43
0.0000000001
 44
0.00001
 40
0.0
 40
0.0
 40
0.0
 40
0.0
 40
0.7783151540339271
 40
1.654147027435184
 40
2.966502605824868
 40
3.840352105837217
 40
5.542533937251164
 40
6.490489319978353
 40
7.281759893634713
 40
8.707975333918078
 40
8.707975333918078
 40
8.707975333918078
 40
8.707975333918078
 10
222.5098030607989
 20
415.3067178884549
 30
0.0
 10
222.3421111738761
 20
415.1048154582577
 30
0.0
 10
221.9857168673578
 20
414.6757146854644
 30
0.0
 10
220.9185616608707
 20
414.4000822860838
 30
0.0
 10
220.0872532065874
 20
414.9876671119655
 30
0.0
 10
218.7489075140231
 20
415.7821733260529
 30
0.0
 10
220.2202889745698
 20
417.114302986761
 30
0.0
 10
221.2803919723651
 20
416.8876971403284
 30
0.0
 10
222.4667007740765
 20
416.7536873663676
 30
0.0
 10
222.49293102758
 20
415.8730906876829
 30
0.0
 10
222.5098030607989
 20
415.3067178884549
 30
0.0
 11
222.5098030607989
 21
415.3067178884549
 31
0.0
 11
221.953882143657
 21
414.761977630434
 31
0.0
 11
221.10652034434
 21
414.5404799588085
 31
0.0
 11
219.9109198205381
 21
415.0816092997843
 31
0.0
 11
219.2597993663589
 21
415.6644093996731
 31
0.0
 11
220.4154879706901
 21
416.9141359244236
 31
0.0
 11
221.363124416325
 21
416.8895325576881
 31
0.0
 11
222.1262612981361
 21
416.680403940583
 31
0.0
 11
222.5098030607989
 21
415.3067178884549
 31
0.0
  0
SPLINE
  5
4EE7
330
1A
100
AcDbEntity
  8
422044
 62
     3
100
AcDbSpline
210
0.0
220
0.0
230
1.0
 70
  1064
 71
     3
 72
     9
 73
     5
 74
     3
 42
0.000000001
 43
0.0000000001
 44
0.00001
 40
0.0
 40
0.0
 40
0.0
 40
0.0
 40
1.442326471780521
 40
3.501684017476367
 40
3.501684017476367
 40
3.501684017476367
 40
3.501684017476367
 10
221.7254231784909
 20
417.353256980602
 30
0.0
 10
221.7208196052112
 20
417.8484448632087
 30
0.0
 10
221.7096236856903
 20
419.0506596141483
 30
0.0
 10
220.8854445880307
 20
419.950854979853
 30
0.0
 10
220.4007304796669
 20
420.4802594910557
 30
0.0
 11
221.7254231784909
 21
417.353256980602
 31
0.0
 11
221.5736771405782
 21
418.7875811893825
 31
0.0
 11
220.4007304796669
 21
420.4802594910557
 31
0.0
  0
SPLINE
  5
4EE8
330
1A
100
AcDbEntity
  8
422044
 62
     3
100
AcDbSpline
210
0.0
220
0.0
230
1.0
 70
  1064
 71
     3
 72
     9
 73
     5
 74
     3
 42
0.000000001
 43
0.0000000001
 44
0.00001
 40
0.0
 40
0.0
 40
0.0
 40
0.0
 40
1.032837844791843
 40
2.267961043673492
 40
2.267961043673492
 40
2.267961043673492
 40
2.267961043673492
 10
223.090565813349
 20
417.2438192497591
 30
0.0
 10
223.0456387427662
 20
417.5854555394026
 30
0.0
 10
222.9469655964282
 20
418.3356356224797
 30
0.0
 10
222.760587057093
 20
419.0691248585788
 30
0.0
 10
222.6590752579371
 20
419.4685781626009
 30
0.0
 11
223.090565813349
 21
417.2438192497591
 31
0.0
 11
222.9375868919781
 21
418.2652654190119
 31
0.0
 11
222.6590752579371
 21
419.4685781626009
 31
0.0
  0
SPLINE
  5
4EE9
330
1A
100
AcDbEntity
  8
422044
 62
     3
100
AcDbSpline
210
0.0
220
0.0
230
1.0
 70
  1064
 71
     3
 72
    10
 73
     6
 74
     4
 42
0.000000001
 43
0.0000000001
 44
0.00001
 40
0.0
 40
0.0
 40
0.0
 40
0.0
 40
1.912523460167204
 40
3.796888597627111
 40
4.753392583984255
 40
4.753392583984255
 40
4.753392583984255
 40
4.753392583984255
 10
224.058594993747
 20
418.3269019998865
 30
0.0
 10
223.8449409572406
 20
418.9233165359548
 30
0.0
 10
223.420754426151
 20
420.1073574488502
 30
0.0
 10
222.7549326390027
 20
421.6031169634068
 30
0.0
 10
222.8453440409579
 20
422.5560206282314
 30
0.0
 10
222.875792866972
 20
422.8768579094259
 30
0.0
 11
224.058594993747
 21
418.3269019998865
 31
0.0
 11
223.3903041777071
 21
420.1188612913663
 31
0.0
 11
222.8398118571199
 21
421.9210291758431
 31
0.0
 11
222.875792866972
 21
422.8768579094259
 31
0.0
  0
ARC
  5
4EEA
330
1A
100
AcDbEntity
  8
422044
 62
     3
100
AcDbCircle
 10
218.5180901692911
 20
418.745319869417
 30
0.0
 40
1.254920248191192
100
AcDbArc
 50
188.5872480883175
 51
281.5316154208267
  0
ARC
  5
4EEB
330
1A
100
AcDbEntity
  8
422044
 62
     3
100
AcDbCircle
 10
214.1018981349762
 20
417.2039108493811
 30
0.0
 40
4.677466606080804
100
AcDbArc
 50
3.822416234060593
 51
52.42976031174636
  0
SPLINE
  5
4EEC
330
1A
100
AcDbEntity
  8
422044
 62
     3
100
AcDbSpline
210
0.0
220
0.0
230
1.0
 70
  1064
 71
     3
 72
    10
 73
     6
 74
     4
 42
0.000000001
 43
0.0000000001
 44
0.00001
 40
0.0
 40
0.0
 40
0.0
 40
0.0
 40
1.209568142198604
 40
1.959637513539869
 40
2.43109071294219
 40
2.43109071294219
 40
2.43109071294219
 40
2.43109071294219
 10
216.95390647312
 20
420.9113010756921
 30
0.0
 10
217.0647642243609
 20
420.5290447439095
 30
0.0
 10
217.2443918156289
 20
419.9097497397165
 30
0.0
 10
217.4876268121344
 20
419.0946846054572
 30
0.0
 10
217.3358319473464
 20
418.7074101758581
 30
0.0
 10
217.2772380319029
 20
418.5579411020476
 30
0.0
 11
216.95390647312
 21
420.9113010756921
 31
0.0
 11
217.2927646703531
 21
419.7501748708611
 31
0.0
 11
217.4121970173662
 21
419.0096673738985
 31
0.0
 11
217.2772380319029
 21
418.5579411020476
 31
0.0
  0
SPLINE
  5
4EED
330
1A
100
AcDbEntity
  8
422044
 62
     3
100
AcDbSpline
210
0.0
220
0.0
230
1.0
 70
  1064
 71
     3
 72
    10
 73
     6
 74
     4
 42
0.000000001
 43
0.0000000001
 44
0.00001
 40
0.0
 40
0.0
 40
0.0
 40
0.0
 40
1.409231072955662
 40
3.58734345136371
 40
5.417417128077385
 40
5.417417128077385
 40
5.417417128077385
 40
5.417417128077385
 10
225.596412953415
 20
417.843947160771
 30
0.0
 10
225.314097156133
 20
418.2519643597486
 30
0.0
 10
224.5954538471891
 20
419.2906210291461
 30
0.0
 10
225.4730263370617
 20
421.1351541333
 30
0.0
 10
225.3963595369499
 20
422.4655674485773
 30
0.0
 10
225.3613437915681
 20
423.073013197767
 30
0.0
 11
225.596412953415
 21
417.843947160771
 31
0.0
 11
224.9500493079611
 21
419.0962071607129
 31
0.0
 11
225.315039783271
 21
421.2435257657027
 31
0.0
 11
225.3613437915681
 21
423.073013197767
 31
0.0
  0
SPLINE
  5
4EEE
330
1A
100
AcDbEntity
  8
422044
 62
     3
100
AcDbSpline
210
0.0
220
0.0
230
1.0
 70
  1064
 71
     3
 72
    11
 73
     7
 74
     5
 42
0.000000001
 43
0.0000000001
 44
0.00001
 40
0.0
 40
0.0
 40
0.0
 40
0.0
 40
1.831879026653776
 40
4.752904883949293
 40
7.346770009169651
 40
10.91274893748675
 40
10.91274893748675
 40
10.91274893748675
 40
10.91274893748675
 10
206.7972028388751
 20
429.7113202010416
 30
0.0
 10
207.088821105139
 20
429.1754801764802
 30
0.0
 10
207.8454541164843
 20
427.7852243575105
 30
0.0
 10
209.707323801918
 20
426.0111917162809
 30
0.0
 10
213.0535982170063
 20
425.7000984495268
 30
0.0
 10
214.5292067482321
 20
427.2995507095932
 30
0.0
 10
215.3834436169439
 20
428.2254909642664
 30
0.0
 11
206.7972028388751
 21
429.7113202010416
 31
0.0
 11
207.738595394675
 21
428.1398328134286
 31
0.0
 11
209.968263739672
 21
426.2527729291973
 31
0.0
 11
212.5545385867602
 21
426.0544233578299
 31
0.0
 11
215.3834436169439
 21
428.2254909642664
 31
0.0
  0
ARC
  5
4EEF
330
1A
100
AcDbEntity
  8
422044
 62
     3
100
AcDbCircle
 10
210.339571607421
 20
413.7288478434967
 30
0.0
 40
11.41192473179833
100
AcDbArc
 50
91.46292103306825
 51
109.8375225463274
  0
ARC
  5
4EF0
330
1A
100
AcDbEntity
  8
422044
 62
     3
100
AcDbCircle
 10
206.5347598460321
 20
424.2754427277197
 30
0.0
 40
0.2
100
AcDbArc
 50
109.8375225462996
 51
210.7714387290745
  0
SPLINE
  5
4EF1
330
1A
100
AcDbEntity
  8
422044
 62
     3
100
AcDbSpline
210
0.0
220
0.0
230
1.0
 70
     8
 71
     3
 72
    13
 73
     9
 74
     0
 42
0.000000001
 43
0.0000000001
 40
0.0
 40
0.0
 40
0.0
 40
0.0
 40
2.058317662685389
 40
5.010231771244589
 40
5.490966473211718
 40
7.326287138105713
 40
11.31337611303307
 40
16.20035530882289
 40
16.20035530882289
 40
16.20035530882289
 40
16.20035530882289
 10
206.3629168385262
 20
424.173119803743
 30
0.0
 10
206.852777548866
 20
423.6438039938443
 30
0.0
 10
208.0451667213051
 20
422.3553756157304
 30
0.0
 10
210.052915245436
 20
422.6692951915215
 30
0.0
 10
211.7437259739111
 20
421.9393978127667
 30
0.0
 10
211.502280768412
 20
419.2841348308836
 30
0.0
 10
215.2708733585921
 20
417.6120704649927
 30
0.0
 10
217.732751253277
 20
416.1130247651463
 30
0.0
 10
219.2597993663589
 20
415.6644093996731
 30
0.0
  0
SPLINE
  5
4EF2
330
1A
100
AcDbEntity
  8
422044
 62
     3
100
AcDbSpline
210
0.0
220
0.0
230
1.0
 70
     8
 71
     3
 72
    10
 73
     6
 74
     0
 42
0.000000001
 43
0.0000000001
 40
19.47127065773555
 40
19.47127065773555
 40
19.47127065773555
 40
19.47127065773555
 40
22.65122954692728
 40
26.93156726854927
 40
29.07158610928687
 40
29.07158610928687
 40
29.07158610928687
 40
29.07158610928687
 10
222.5098030607989
 20
415.3067178884549
 30
0.0
 10
223.5937974708161
 20
415.3710958055325
 30
0.0
 10
226.13866933277
 20
415.9415920799761
 30
0.0
 10
228.8156426538831
 20
418.0143532723615
 30
0.0
 10
229.703921041368
 20
419.9764989073982
 30
0.0
 10
230.0000000000009
 20
420.6305168870016
 30
0.0
  0
SPLINE
  5
4EF3
330
1A
100
AcDbEntity
  8
422044
 62
     3
100
AcDbSpline
210
0.0
220
0.0
230
1.0
 70
     8
 71
     3
 72
    12
 73
     8
 74
     0
 42
0.000000001
 43
0.0000000001
 40
13.32843434831306
 40
13.32843434831306
 40
13.32843434831306
 40
13.32843434831306
 40
15.28245204886229
 40
27.60473945747156
 40
40.03104630735925
 40
46.70133639022977
 40
50.79418696583697
 40
50.79418696583719
 40
50.79418696583719
 40
50.79418696583719
 10
207.6640690544809
 20
439.5980669526691
 30
0.0
 10
207.4394841236749
 20
440.2488676241092
 30
0.0
 10
206.4009549434031
 20
445.3650613507661
 30
0.0
 10
209.8689512924141
 20
453.630233719816
 30
0.0
 10
219.014896827696
 20
462.3932977844579
 30
0.0
 10
226.7542736286182
 20
458.8871289349631
 30
0.0
 10
229.4152206450551
 20
456.2656834591485
 30
0.0
 10
230.0000000000009
 20
455.0781158165807
 30
0.0
  0
SPLINE
  5
4EF4
330
1A
100
AcDbEntity
  8
422044
 62
     3
100
AcDbSpline
210
0.0
220
0.0
230
1.0
 70
  1064
 71
     3
 72
     9
 73
     5
 74
     3
 42
0.000000001
 43
0.0000000001
 44
0.00001
 40
0.0
 40
0.0
 40
0.0
 40
0.0
 40
2.053567981466084
 40
5.201062167048869
 40
5.201062167048869
 40
5.201062167048869
 40
5.201062167048869
 10
211.07420694337
 20
430.5289944740187
 30
0.0
 10
211.442974325295
 20
431.1471538451465
 30
0.0
 10
212.3769637332276
 20
432.7127499861293
 30
0.0
 10
214.2543343084023
 20
432.8173626274489
 30
0.0
 10
215.3904560556971
 20
432.8806604354466
 30
0.0
 11
211.07420694337
 21
430.5289944740187
 31
0.0
 11
212.3275837351671
 21
432.1557095091845
 31
0.0
 11
215.3904560556971
 21
432.8806604354466
 31
0.0
  0
SPLINE
  5
4EF5
330
1A
100
AcDbEntity
  8
422044
 62
     3
100
AcDbSpline
210
0.0
220
0.0
230
1.0
 70
  1064
 71
     3
 72
    10
 73
     6
 74
     4
 42
0.000000001
 43
0.0000000001
 44
0.00001
 40
0.0
 40
0.0
 40
0.0
 40
0.0
 40
2.538130747779427
 40
9.470819889063086
 40
12.50962171331
 40
12.50962171331
 40
12.50962171331
 40
12.50962171331
 10
211.4429749257502
 20
431.14715485168
 30
0.0
 10
210.8081564964022
 20
431.7221825467367
 30
0.0
 10
208.4394002992203
 20
433.8678655941254
 30
0.0
 10
207.6887016441454
 20
438.3391087199505
 30
0.0
 10
207.5227925621958
 20
441.6283975932039
 30
0.0
 10
207.4722375504191
 20
442.6308049880025
 30
0.0
 11
211.4429749257502
 21
431.14715485168
 31
0.0
 11
209.6678272499111
 21
432.9612576712676
 31
0.0
 11
207.6640690544809
 21
439.5980669526695
 31
0.0
 11
207.4722375504191
 21
442.6308049880025
 31
0.0
  0
SPLINE
  5
4EF6
330
1A
100
AcDbEntity
  8
422044
 62
     3
100
AcDbSpline
210
0.0
220
0.0
230
1.0
 70
  1064
 71
     3
 72
    11
 73
     7
 74
     5
 42
0.000000001
 43
0.0000000001
 44
0.00001
 40
0.0
 40
0.0
 40
0.0
 40
0.0
 40
6.182150262861588
 40
14.06117273846246
 40
27.81141232100943
 40
34.72090863604608
 40
34.72090863604608
 40
34.72090863604608
 40
34.72090863604608
 10
220.271838675252
 20
457.7145776689863
 30
0.0
 10
222.3270005622332
 20
457.0674727980762
 30
0.0
 10
227.0014183174569
 20
455.5956348239607
 30
0.0
 10
230.4890862126875
 20
445.8113200985219
 30
0.0
 10
228.3131158735056
 20
436.4646958115751
 30
0.0
 10
229.5772235072488
 20
429.6367353574066
 30
0.0
 10
230.0000000000009
 20
427.3531747451341
 30
0.0
 11
220.271838675252
 21
457.7145776689863
 31
0.0
 11
225.8746101001732
 21
455.1015304449536
 31
0.0
 11
229.1740548540831
 21
447.9466168853392
 31
0.0
 11
229.049259528691
 21
434.196940554946
 31
0.0
 11
230.0000000000009
 21
427.3531747451341
 31
0.0
  0
LINE
  5
4F24
330
1A
100
AcDbEntity
  8
422044
100
AcDbLine
 10
-85.0
 20
-230.0
 30
0.0
 11
-235.0
 21
-230.0
 31
0.0
  0
LINE
  5
4F25
330
1A
100
AcDbEntity
  8
422044
100
AcDbLine
 10
35.5
 20
-90.00000000000005
 30
0.0
 11
-355.5
 21
-90.00000000000005
 31
0.0
  0
ARC
  5
4F26
330
1A
100
AcDbEntity
  8
422044
100
AcDbCircle
 10
35.5
 20
-94.49999999999988
 30
0.0
 40
4.5
100
AcDbArc
 50
316.9313047019686
 51
90.0
  0
ARC
  5
4F27
330
1A
100
AcDbEntity
  8
422044
100
AcDbCircle
 10
-179.3264221702447
 20
-100.7617468372433
 30
0.0
 40
160.0
100
AcDbArc
 50
306.1243818271001
 51
327.7382275768309
  0
ARC
  5
4F28
330
1A
100
AcDbEntity
  8
422044
100
AcDbCircle
 10
256.6152346653623
 20
-384.1929611899065
 30
0.0
 40
360.0
100
AcDbArc
 50
127.234403923669
 51
146.6282054802658
  0
ARC
  5
4F29
330
1A
100
AcDbEntity
  8
422044
100
AcDbCircle
 10
-355.5
 20
-94.49999999999988
 30
0.0
 40
4.5
100
AcDbArc
 50
90.0
 51
223.0686952980498
  0
ARC
  5
4F2A
330
1A
100
AcDbEntity
  8
422044
100
AcDbCircle
 10
-140.6735778297552
 20
-100.7617468372433
 30
0.0
 40
160.0
100
AcDbArc
 50
212.2617724231677
 51
233.8756181728836
  0
ARC
  5
4F2B
330
1A
100
AcDbEntity
  8
422044
100
AcDbCircle
 10
-576.6152346653625
 20
-384.1929611899065
 30
0.0
 40
360.0
100
AcDbArc
 50
33.37179451973283
 51
52.76559607634721
  0
ARC
  5
4F2C
330
1A
100
AcDbEntity
  8
422044
 62
     3
100
AcDbCircle
 10
-282.0045002452658
 20
-89.33511310132701
 30
0.0
 40
14.41628330872915
100
AcDbArc
 50
101.7428619235253
 51
145.7245632262723
  0
ARC
  5
4F2D
330
1A
100
AcDbEntity
  8
422044
 62
     3
100
AcDbCircle
 10
-297.6370537869107
 20
-87.96415918759436
 30
0.0
 40
7.705256591244872
100
AcDbArc
 50
61.13405415289593
 51
129.0864926566803
  0
ARC
  5
4F2E
330
1A
100
AcDbEntity
  8
422044
 62
     3
100
AcDbCircle
 10
-302.3060150373033
 20
-82.21623556036121
 30
0.0
 40
0.2999999999999999
100
AcDbArc
 50
129.0864926566641
 51
168.5561298161661
  0
ARC
  5
4F2F
330
1A
100
AcDbEntity
  8
422044
 62
     3
100
AcDbCircle
 10
-309.3609861271547
 20
-101.3641885033724
 30
0.0
 40
19.12674898717665
100
AcDbArc
 50
40.06964056371961
 51
68.34360670507708
  0
ARC
  5
4F30
330
1A
100
AcDbEntity
  8
422044
 62
     3
100
AcDbCircle
 10
-277.4538148885686
 20
-78.60622969246754
 30
0.0
 40
9.245493971030246
100
AcDbArc
 50
133.1877759160131
 51
160.5987304603137
  0
ARC
  5
4F31
330
1A
100
AcDbEntity
  8
422044
 62
     3
100
AcDbCircle
 10
-265.2891788564198
 20
-74.82384351938458
 30
0.0
 40
18.72736095503388
100
AcDbArc
 50
155.7014642584069
 51
175.4410067574111
  0
ARC
  5
4F32
330
1A
100
AcDbEntity
  8
422044
 62
     3
100
AcDbCircle
 10
-288.6433750447327
 20
-76.3581050759941
 30
0.0
 40
11.41192473179833
100
AcDbArc
 50
7.710640383177784
 51
54.76754807566569
  0
ARC
  5
4F33
330
1A
100
AcDbEntity
  8
422044
 62
     3
100
AcDbCircle
 10
-282.1752711796987
 20
-67.20000000001636
 30
0.0
 40
0.2
100
AcDbArc
 50
54.76754807563314
 51
155.7014642584069
  0
ARC
  5
4F34
330
1A
100
AcDbEntity
  8
422044
 62
     3
100
AcDbCircle
 10
-287.3779984173739
 20
-88.79894367240309
 30
0.0
 40
7.350357816410777
100
AcDbArc
 50
181.9725769044108
 51
189.4043619208619
  0
ARC
  5
4F35
330
1A
100
AcDbEntity
  8
422044
 62
     3
100
AcDbCircle
 10
-253.8420464963571
 20
-92.34642948656391
 30
0.0
 40
23.09985036336119
100
AcDbArc
 50
85.10934455554574
 51
135.138158230235
  0
ARC
  5
4F36
330
1A
100
AcDbEntity
  8
422044
 62
     3
100
AcDbCircle
 10
-250.6364094859596
 20
-95.80934156667309
 30
0.0
 40
26.50750552394609
100
AcDbArc
 50
45.81086356019193
 51
92.67316378427089
  0
ARC
  5
4F37
330
1A
100
AcDbEntity
  8
422044
 62
     3
100
AcDbCircle
 10
-240.801543396257
 20
-91.64929946477434
 30
0.0
 40
17.17878137581462
100
AcDbArc
 50
22.6062091209958
 51
59.79857776852986
  0
ARC
  5
4F38
330
1A
100
AcDbEntity
  8
422044
 62
     3
100
AcDbCircle
 10
-233.7908844727223
 20
-82.87068865769702
 30
0.0
 40
7.909477882679526
100
AcDbArc
 50
295.6621795529374
 51
358.1407176228004
  0
SPLINE
  5
4F39
330
1A
100
AcDbEntity
  8
422044
 62
     3
100
AcDbSpline
210
0.0
220
0.0
230
1.0
 70
     8
 71
     3
 72
    10
 73
     6
 74
     0
 42
0.000000001
 43
0.0000000001
 40
0.0
 40
0.0
 40
0.0
 40
0.0
 40
1.593953038902538
 40
4.611055648045418
 40
5.218139418066033
 40
5.218139418066033
 40
5.218139418066033
 40
5.218139418066033
 10
-224.9426324320477
 20
-85.04585547036374
 30
0.0
 10
-224.8340354192337
 20
-85.56711657771108
 30
0.0
 10
-224.5198813274415
 20
-87.07504304384826
 30
0.0
 10
-223.9631439296918
 20
-88.70509476544004
 30
0.0
 10
-223.391055823594
 20
-89.81381249913869
 30
0.0
 10
-223.299277183213
 20
-90.00000000001808
 30
0.0
  0
SPLINE
  5
4F3A
330
1A
100
AcDbEntity
  8
422044
 62
     3
100
AcDbSpline
210
0.0
220
0.0
230
1.0
 70
  1064
 71
     3
 72
    13
 73
     9
 74
     7
 42
0.000000001
 43
0.0000000001
 44
0.00001
 40
0.0
 40
0.0
 40
0.0
 40
0.0
 40
1.189751138743038
 40
3.887802310079283
 40
5.397373072570779
 40
6.875036278364441
 40
8.120126106184347
 40
9.272070149940802
 40
9.272070149940802
 40
9.272070149940802
 40
9.272070149940802
 10
-277.5962223268742
 20
-73.49586069220248
 30
0.0
 10
-277.284055149251
 20
-73.7381313463003
 30
0.0
 10
-276.2639616856875
 20
-74.52979476771202
 30
0.0
 10
-274.4897171512326
 20
-75.2593901867902
 30
0.0
 10
-272.5960974186398
 20
-74.96380599615509
 30
0.0
 10
-271.1860810431871
 20
-74.92014265841928
 30
0.0
 10
-269.9507663996599
 20
-74.32713049256695
 30
0.0
 10
-269.1677686776817
 20
-74.6034781212909
 30
0.0
 10
-268.7914817780383
 20
-74.73627697250219
 30
0.0
 11
-277.5962223268742
 21
-73.49586069220248
 31
0.0
 11
-276.6355614238206
 21
-74.19775087911671
 31
0.0
 11
-274.091508612707
 21
-75.09624201091828
 31
0.0
 11
-272.5854072676431
 21
-74.99394825995825
 31
0.0
 11
-271.1200954174349
 21
-74.80329150039347
 31
0.0
 11
-269.9159969926641
 21
-74.48642541628919
 31
0.0
 11
-268.7914817780383
 21
-74.73627697250219
 31
0.0
  0
ARC
  5
4F3B
330
1A
100
AcDbEntity
  8
422044
 62
     3
100
AcDbCircle
 10
-300.5074502091076
 20
-82.58032317846318
 30
0.0
 40
2.135046384939384
100
AcDbArc
 50
168.5561298161661
 51
203.3861773998785
  0
ARC
  5
4F3C
330
1A
100
AcDbEntity
  8
422044
 62
     3
100
AcDbCircle
 10
-302.1917482874674
 20
-83.30870166394436
 30
0.0
 40
0.2999999999999999
100
AcDbArc
 50
203.3861773998836
 51
248.343606705091
  0
SPLINE
  5
4F3D
330
1A
100
AcDbEntity
  8
422044
 62
     3
100
AcDbSpline
210
0.0
220
0.0
230
1.0
 70
  1064
 71
     3
 72
    15
 73
    11
 74
     9
 42
0.000000001
 43
0.0000000001
 44
0.00001
 40
0.0
 40
0.0
 40
0.0
 40
0.0
 40
1.779933287880029
 40
3.653785365061161
 40
5.116137123696514
 40
7.363803012358161
 40
9.260097305383052
 40
10.20739919200262
 40
11.90160136379852
 40
13.07971813083872
 40
13.07971813083872
 40
13.07971813083872
 40
13.07971813083872
 10
-282.4215367845464
 20
-87.99217212917284
 30
0.0
 10
-282.9780978455394
 20
-88.04570997346287
 30
0.0
 10
-284.1205873798751
 20
-88.15560531888023
 30
0.0
 10
-286.3457706843542
 20
-88.08715919145575
 30
0.0
 10
-286.0621129672225
 20
-85.74487475856567
 30
0.0
 10
-284.6352069847816
 20
-84.53976174451202
 30
0.0
 10
-282.6944289142078
 20
-84.04054833749002
 30
0.0
 10
-281.5711824231959
 20
-85.39136732557119
 30
0.0
 10
-282.2854733750706
 20
-86.68109732006078
 30
0.0
 10
-282.4163715000183
 20
-87.61533868600306
 30
0.0
 10
-282.4700642998117
 20
-87.99852844600639
 30
0.0
 11
-282.4215367845464
 21
-87.99217212917284
 31
0.0
 11
-284.1972294345973
 21
-88.11510406544119
 31
0.0
 11
-286.0135262390386
 21
-87.65424420216641
 31
0.0
 11
-285.9845915582742
 21
-86.19217387345804
 31
0.0
 11
-284.391342392999
 21
-84.60674306211291
 31
0.0
 11
-282.5017037726982
 21
-84.44792193776487
 31
0.0
 11
-281.9036802660112
 21
-85.18260191976759
 31
0.0
 11
-282.240642656439
 21
-86.84295705091438
 31
0.0
 11
-282.4700642998117
 21
-87.99852844600639
 31
0.0
  0
SPLINE
  5
4F3E
330
1A
100
AcDbEntity
  8
422044
 62
     3
100
AcDbSpline
210
0.0
220
0.0
230
1.0
 70
  1064
 71
     3
 72
     9
 73
     5
 74
     3
 42
0.000000001
 43
0.0000000001
 44
0.00001
 40
0.0
 40
0.0
 40
0.0
 40
0.0
 40
1.442326471780452
 40
3.501684017476392
 40
3.501684017476392
 40
3.501684017476392
 40
3.501684017476392
 10
-280.0035860802027
 20
-84.3657233663078
 30
0.0
 10
-279.6002412309121
 20
-84.07841662340404
 30
0.0
 10
-278.6210136531541
 20
-83.38087880582824
 30
0.0
 10
-278.3548915758696
 20
-82.18974408572448
 30
0.0
 10
-278.1983937307509
 20
-81.4892261860233
 30
0.0
 11
-280.0035860802027
 21
-84.3657233663078
 31
0.0
 11
-278.9145386817369
 21
-83.42005505246271
 31
0.0
 11
-278.1983937307509
 21
-81.4892261860233
 31
0.0
  0
SPLINE
  5
4F3F
330
1A
100
AcDbEntity
  8
422044
 62
     3
100
AcDbSpline
210
0.0
220
0.0
230
1.0
 70
  1064
 71
     3
 72
     9
 73
     5
 74
     3
 42
0.000000001
 43
0.0000000001
 44
0.00001
 40
0.0
 40
0.0
 40
0.0
 40
0.0
 40
1.032837844791962
 40
2.267961043673495
 40
2.267961043673495
 40
2.267961043673495
 40
2.267961043673495
 10
-279.3116614647234
 20
-85.54759956834136
 30
0.0
 10
-279.0572944361017
 20
-85.31515342227164
 30
0.0
 10
-278.4987556796096
 20
-84.80472124817771
 30
0.0
 10
-278.0041189134963
 20
-84.23194040963055
 30
0.0
 10
-277.7347495282429
 20
-83.91999855326924
 30
0.0
 11
-279.3116614647234
 21
-85.54759956834136
 31
0.0
 11
-278.5618188442222
 21
-84.83732436002759
 31
0.0
 11
-277.7347495282429
 21
-83.91999855326924
 31
0.0
  0
SPLINE
  5
4F40
330
1A
100
AcDbEntity
  8
422044
 62
     3
100
AcDbSpline
210
0.0
220
0.0
230
1.0
 70
  1064
 71
     3
 72
    10
 73
     6
 74
     4
 42
0.000000001
 43
0.0000000001
 44
0.00001
 40
0.0
 40
0.0
 40
0.0
 40
0.0
 40
1.912523460166744
 40
3.796888597627109
 40
4.753392583984089
 40
4.753392583984089
 40
4.753392583984089
 40
4.753392583984089
 10
-277.8694240980381
 20
-85.72109341797846
 30
0.0
 10
-277.5027855736817
 20
-85.2044363376957
 30
0.0
 10
-276.7749261956027
 20
-84.17871326478039
 30
0.0
 10
-275.9298581687572
 20
-82.7764025974773
 30
0.0
 10
-275.0968508948571
 20
-82.30491718129846
 30
0.0
 10
-274.8163775749986
 20
-82.14617711434158
 30
0.0
 11
-277.8694240980381
 21
-85.72109341797846
 31
0.0
 11
-276.7829298170674
 21
-84.14716175029406
 31
0.0
 11
-275.6206174582584
 21
-82.66396221569761
 31
0.0
 11
-274.8163775749986
 21
-82.14617711434158
 31
0.0
  0
ARC
  5
4F41
330
1A
100
AcDbEntity
  8
422044
 62
     3
100
AcDbCircle
 10
-282.319274251824
 20
-81.91702691050238
 30
0.0
 40
1.254920248191192
100
AcDbArc
 50
133.5172736176442
 51
226.4616409501756
  0
ARC
  5
4F42
330
1A
100
AcDbEntity
  8
422044
 62
     3
100
AcDbCircle
 10
-286.1116051803674
 20
-79.17897651297209
 30
0.0
 40
4.677466606080804
100
AcDbArc
 50
308.7524417633879
 51
357.3597858410828
  0
SPLINE
  5
4F43
330
1A
100
AcDbEntity
  8
422044
 62
     3
100
AcDbSpline
210
0.0
220
0.0
230
1.0
 70
  1064
 71
     3
 72
    10
 73
     6
 74
     4
 42
0.000000001
 43
0.0000000001
 44
0.00001
 40
0.0
 40
0.0
 40
0.0
 40
0.0
 40
1.209568142198031
 40
1.959637513539137
 40
2.43109071294118
 40
2.43109071294118
 40
2.43109071294118
 40
2.43109071294118
 10
-281.4391037760009
 20
-79.39443991402652
 30
0.0
 10
-281.6890229262778
 20
-79.70419750073424
 30
0.0
 10
-282.0939027586513
 20
-80.20605873165367
 30
0.0
 10
-282.6228650630384
 20
-80.87216181462698
 30
0.0
 10
-283.0272867873139
 20
-80.96945638657819
 30
0.0
 10
-283.1833787422232
 20
-81.0070003949591
 30
0.0
 11
-281.4391037760009
 21
-79.39443991402652
 31
0.0
 11
-282.1970334075408
 21
-80.33708598494071
 31
0.0
 11
-282.7357558640139
 21
-80.85899934313545
 31
0.0
 11
-283.1833787422232
 21
-81.0070003949591
 31
0.0
  0
SPLINE
  5
4F44
330
1A
100
AcDbEntity
  8
422044
 62
     3
100
AcDbSpline
210
0.0
220
0.0
230
1.0
 70
  1064
 71
     3
 72
    15
 73
    11
 74
     9
 42
0.000000001
 43
0.0000000001
 44
0.00001
 40
0.0
 40
0.0
 40
0.0
 40
0.0
 40
0.8302429838441971
 40
1.998931352811811
 40
3.595299137183024
 40
4.06631589105862
 40
5.052243938794063
 40
6.56960432038212
 40
7.80290943109869
 40
8.34715535407671
 40
8.34715535407671
 40
8.34715535407671
 40
8.34715535407671
 10
-289.2176861682809
 20
-88.51299066638103
 30
0.0
 10
-289.4566412124236
 20
-88.34213792931194
 30
0.0
 10
-290.0319592326107
 20
-87.93078596446276
 30
0.0
 10
-291.2733515610312
 20
-88.54286683382516
 30
0.0
 10
-292.0788322652537
 20
-88.97034756683265
 30
0.0
 10
-293.4942158192584
 20
-88.71023834904283
 30
0.0
 10
-291.6805260310209
 20
-89.41243559342451
 30
0.0
 10
-290.9225054670683
 20
-88.8017672058543
 30
0.0
 10
-289.3951312486582
 20
-89.48541482107602
 30
0.0
 10
-289.2760260350449
 20
-88.81887528467972
 30
0.0
 10
-289.2395532440179
 20
-88.6147972830596
 30
0.0
 11
-289.2176861682809
 21
-88.51299066638103
 31
0.0
 11
-289.9543771276076
 21
-88.13009858938732
 31
0.0
 11
-291.0780854396944
 21
-88.45121668416073
 31
0.0
 11
-292.6235409663177
 21
-88.85116218421741
 31
0.0
 11
-293.0920915460325
 21
-88.80302491492011
 31
0.0
 11
-292.1626081541144
 21
-89.13183252239832
 31
0.0
 11
-290.6466834362515
 21
-89.06580500966578
 31
0.0
 11
-289.4150501374361
 21
-89.12997526358418
 31
0.0
 11
-289.2395532440179
 21
-88.6147972830596
 31
0.0
  0
SPLINE
  5
4F45
330
1A
100
AcDbEntity
  8
422044
 62
     3
100
AcDbSpline
210
0.0
220
0.0
230
1.0
 70
     8
 71
     3
 72
     9
 73
     5
 74
     0
 42
0.000000001
 43
0.0000000001
 40
5.780557886512829
 40
5.780557886512829
 40
5.780557886512829
 40
5.780557886512829
 40
7.858832802886165
 40
8.619955736547513
 40
8.619955736547513
 40
8.619955736547513
 40
8.619955736547513
 10
-272.2218108002954
 20
-89.99999999999834
 30
0.0
 10
-272.0884647337424
 20
-89.30168399270206
 30
0.0
 10
-272.0986872140283
 20
-88.33538424291555
 30
0.0
 10
-272.4318728538999
 20
-87.44605764295881
 30
0.0
 10
-272.5211858861225
 20
-87.20766665075093
 30
0.0
  0
SPLINE
  5
4F46
330
1A
100
AcDbEntity
  8
422044
 62
     3
100
AcDbSpline
210
0.0
220
0.0
230
1.0
 70
     8
 71
     3
 72
     9
 73
     5
 74
     0
 42
0.000000001
 43
0.0000000001
 40
0.8140521133921279
 40
0.8140521133921279
 40
0.8140521133921279
 40
0.8140521133921279
 40
1.625141308644542
 40
3.142519659046417
 40
3.142519659046417
 40
3.142519659046417
 40
3.142519659046417
 10
-285.7301391999195
 20
-89.99999999999834
 30
0.0
 10
-285.982523176175
 20
-89.89645225211461
 30
0.0
 10
-286.7111688360428
 20
-89.66743753465733
 30
0.0
 10
-287.4633351655939
 20
-89.82956819891752
 30
0.0
 10
-287.9573900728248
 20
-90.00000000000005
 30
0.0
  0
SPLINE
  5
4F47
330
1A
100
AcDbEntity
  8
422044
 62
     3
100
AcDbSpline
210
0.0
220
0.0
230
1.0
 70
  1064
 71
     3
 72
    10
 73
     6
 74
     4
 42
0.000000001
 43
0.0000000001
 44
0.00001
 40
0.0
 40
0.0
 40
0.0
 40
0.0
 40
1.409231072955897
 40
3.587343451363874
 40
5.417417128078111
 40
5.417417128078111
 40
5.417417128078111
 40
5.417417128078111
 10
-277.3848585298349
 20
-87.25840459786855
 30
0.0
 10
-277.2119919747937
 20
-86.79332675685179
 30
0.0
 10
-276.7719249133921
 20
-85.60943619440804
 30
0.0
 10
-274.7572042947439
 20
-85.27278106508896
 30
0.0
 10
-273.7103599042815
 20
-84.44816345075848
 30
0.0
 10
-273.2323934934352
 20
-84.07164711547357
 30
0.0
 11
-277.3848585298349
 21
-87.25840459786855
 31
0.0
 11
-276.7282827938657
 21
-86.01146860409983
 31
0.0
 11
-274.7588148467645
 21
-85.08120453205203
 31
0.0
 11
-273.2323934934352
 21
-84.07164711547357
 31
0.0
  0
SPLINE
  5
4F48
330
1A
100
AcDbEntity
  8
422044
 62
     3
100
AcDbSpline
210
0.0
220
0.0
230
1.0
 70
  1064
 71
     3
 72
    10
 73
     6
 74
     4
 42
0.000000001
 43
0.0000000001
 44
0.00001
 40
0.0
 40
0.0
 40
0.0
 40
0.0
 40
2.585847009829751
 40
5.516971539360426
 40
9.389694515147578
 40
9.389694515147578
 40
9.389694515147578
 40
9.389694515147578
 10
-302.0206633856726
 20
-82.66515033673659
 30
0.0
 10
-301.1807894087505
 20
-82.52171679411857
 30
0.0
 10
-299.3888942769599
 20
-82.21571162549206
 30
0.0
 10
-295.9697070903264
 20
-82.63408300060737
 30
0.0
 10
-294.9478500672242
 20
-84.85832007043306
 30
0.0
 10
-294.3662190887453
 20
-86.12434969467853
 30
0.0
 11
-302.0206633856726
 21
-82.66515033673659
 31
0.0
 11
-299.4533497155344
 21
-82.35608115968204
 31
0.0
 11
-296.5827461838867
 21
-82.9486581051276
 31
0.0
 11
-294.3662190887453
 21
-86.12434969467853
 31
0.0
  0
SPLINE
  5
4F49
330
1A
100
AcDbEntity
  8
422044
 62
     3
100
AcDbSpline
210
0.0
220
0.0
230
1.0
 70
  1064
 71
     3
 72
    11
 73
     7
 74
     5
 42
0.000000001
 43
0.0000000001
 44
0.00001
 40
0.0
 40
0.0
 40
0.0
 40
0.0
 40
1.831879026654112
 40
4.752904883949254
 40
7.346770009168864
 40
10.91274893748643
 40
10.91274893748643
 40
10.91274893748643
 40
10.91274893748643
 10
-282.0053384261073
 20
-67.40143106252429
 30
0.0
 10
-282.2776744051702
 20
-67.94732378060054
 30
0.0
 10
-282.9842487328544
 20
-69.36367736480713
 30
0.0
 10
-283.372631688628
 20
-71.90590261394369
 30
0.0
 10
-281.7116870546056
 20
-74.82747657405582
 30
0.0
 10
-279.5554756001298
 20
-75.12144975862132
 30
0.0
 10
-278.3072265122656
 20
-75.29162671868732
 30
0.0
 11
-282.0053384261073
 21
-67.40143106252429
 31
0.0
 11
-282.7547070004225
 21
-69.07302888896833
 31
0.0
 11
-283.0251630251029
 21
-71.98151122071255
 31
0.0
 11
-281.706942456102
 21
-74.21544377757306
 31
0.0
 11
-278.3072265122656
 21
-75.29162671868732
 31
0.0
  0
LINE
  5
4F4A
330
1A
100
AcDbEntity
  8
422044
  6
CENTER
 62
     3
100
AcDbLine
 10
-160.0
 20
-70.0
 30
0.0
 11
-160.0
 21
-250.0
 31
0.0
  0
DIMENSION
  5
502E
330
1A
100
AcDbEntity
  8
BALN
 62
     4
100
AcDbDimension
280
     0
  2
*D8
 10
-175.9967200219488
 20
312.8201029545749
 30
0.0
 11
-82.08035664517296
 21
237.5536038342598
 31
0.0
 70
   163
 71
     5
 42
41.0
 73
     0
 74
     0
 75
     0
  3
ITM
100
AcDbDiametricDimension
 15
-144.003279978051
 25
287.1799041613222
 35
0.0
 40
0.0
1001
ACAD
1000
DSTYLE
1002
{
1070
   179
1070
     8
1070
   271
1070
     8
1002
}
1001
ACAD_DSTYLE_DIMRADIAL_EXTENSION
1070
   387
1070
     1
1070
   388
1040
0.0
1070
   390
1040
0.0
  0
INSERT
  5
51B5
330
1A
100
AcDbEntity
  8
0
100
AcDbBlockReference
  2
株式会社ＫＶＫ
 10
-218.75
 20
-661.2499999999998
 30
0.0
 41
5.0
 42
5.0
 43
5.0
  0
LINE
  5
51BF
330
1A
100
AcDbEntity
  8
0
 62
     2
100
AcDbLine
 10
-437.4999999999999
 20
692.4999999999998
 30
0.0
 11
-437.4999999999999
 21
-692.4999999999998
 31
0.0
  0
LINE
  5
51C0
330
1A
100
AcDbEntity
  8
0
 62
     2
100
AcDbLine
 10
-437.4999999999999
 20
-692.4999999999998
 30
0.0
 11
437.4999999999999
 21
-692.4999999999998
 31
0.0
  0
LINE
  5
51C1
330
1A
100
AcDbEntity
  8
0
 62
     2
100
AcDbLine
 10
437.4999999999999
 20
-692.4999999999998
 30
0.0
 11
437.4999999999999
 21
692.4999999999998
 31
0.0
  0
LINE
  5
51C2
330
1A
100
AcDbEntity
  8
0
 62
     2
100
AcDbLine
 10
437.4999999999999
 20
692.4999999999998
 30
0.0
 11
-437.4999999999999
 21
692.4999999999998
 31
0.0
  0
LINE
  5
51C3
330
1A
100
AcDbEntity
  8
0
 62
     3
100
AcDbLine
 10
0.0
 20
-692.4999999999998
 30
0.0
 11
0.0
 21
-741.9999999999999
 31
0.0
  0
LINE
  5
51C4
330
1A
100
AcDbEntity
  8
0
 62
     3
100
AcDbLine
 10
0.0
 20
741.9999999999999
 30
0.0
 11
0.0
 21
692.4999999999998
 31
0.0
  0
LINE
  5
51C5
330
1A
100
AcDbEntity
  8
0
 62
     3
100
AcDbLine
 10
-561.9999999999999
 20
0.0
 30
0.0
 11
-437.4999999999999
 21
0.0
 31
0.0
  0
LINE
  5
51C6
330
1A
100
AcDbEntity
  8
0
 62
     3
100
AcDbLine
 10
437.4999999999999
 20
0.0
 30
0.0
 11
486.9999999999999
 21
0.0
 31
0.0
  0
LINE
  5
51C7
330
1A
100
AcDbEntity
  8
0
 62
     3
100
AcDbLine
 10
-250.0
 20
-692.4999999999998
 30
0.0
 11
-250.0
 21
-717.4999999999998
 31
0.0
  0
LINE
  5
51C8
330
1A
100
AcDbEntity
  8
0
 62
     3
100
AcDbLine
 10
-200.0
 20
-692.4999999999998
 30
0.0
 11
-200.0
 21
-717.4999999999998
 31
0.0
  0
LINE
  5
51C9
330
1A
100
AcDbEntity
  8
0
 62
     3
100
AcDbLine
 10
-150.0
 20
-692.4999999999998
 30
0.0
 11
-150.0
 21
-717.4999999999998
 31
0.0
  0
LINE
  5
51CA
330
1A
100
AcDbEntity
  8
0
 62
     3
100
AcDbLine
 10
-100.0
 20
-692.4999999999998
 30
0.0
 11
-100.0
 21
-717.4999999999998
 31
0.0
  0
LINE
  5
51CB
330
1A
100
AcDbEntity
  8
0
 62
     3
100
AcDbLine
 10
250.0
 20
-717.4999999999998
 30
0.0
 11
250.0
 21
-692.4999999999998
 31
0.0
  0
LINE
  5
51CC
330
1A
100
AcDbEntity
  8
0
 62
     3
100
AcDbLine
 10
200.0
 20
-692.4999999999998
 30
0.0
 11
200.0
 21
-717.4999999999998
 31
0.0
  0
LINE
  5
51CD
330
1A
100
AcDbEntity
  8
0
 62
     3
100
AcDbLine
 10
150.0
 20
-717.4999999999998
 30
0.0
 11
150.0
 21
-692.4999999999998
 31
0.0
  0
LINE
  5
51CE
330
1A
100
AcDbEntity
  8
0
 62
     3
100
AcDbLine
 10
100.0
 20
-692.4999999999998
 30
0.0
 11
100.0
 21
-717.4999999999998
 31
0.0
  0
LINE
  5
51CF
330
1A
100
AcDbEntity
  8
0
 62
     3
100
AcDbLine
 10
-50.0
 20
-692.4999999999998
 30
0.0
 11
-50.0
 21
-717.4999999999998
 31
0.0
  0
LINE
  5
51D0
330
1A
100
AcDbEntity
  8
0
 62
     3
100
AcDbLine
 10
50.0
 20
-692.4999999999998
 30
0.0
 11
50.0
 21
-717.4999999999998
 31
0.0
  0
LINE
  5
51D1
330
1A
100
AcDbEntity
  8
0
 62
     3
100
AcDbLine
 10
-250.0
 20
-717.4999999999998
 30
0.0
 11
250.0
 21
-717.4999999999998
 31
0.0
  0
LINE
  5
51D2
330
1A
100
AcDbEntity
  8
0
 62
     3
100
AcDbLine
 10
-462.4999999999999
 20
599.9999999999999
 30
0.0
 11
-437.4999999999999
 21
599.9999999999999
 31
0.0
  0
LINE
  5
51D3
330
1A
100
AcDbEntity
  8
0
 62
     3
100
AcDbLine
 10
-462.4999999999999
 20
-300.0
 30
0.0
 11
-437.4999999999999
 21
-300.0
 31
0.0
  0
LINE
  5
51D4
330
1A
100
AcDbEntity
  8
0
 62
     3
100
AcDbLine
 10
462.4999999999999
 20
599.9999999999999
 30
0.0
 11
437.4999999999999
 21
599.9999999999999
 31
0.0
  0
LINE
  5
51D5
330
1A
100
AcDbEntity
  8
0
 62
     3
100
AcDbLine
 10
437.4999999999999
 20
-300.0
 30
0.0
 11
462.4999999999999
 21
-300.0
 31
0.0
  0
LINE
  5
51D6
330
1A
100
AcDbEntity
  8
0
 62
     3
100
AcDbLine
 10
462.4999999999999
 20
300.0
 30
0.0
 11
437.4999999999999
 21
300.0
 31
0.0
  0
LINE
  5
51D7
330
1A
100
AcDbEntity
  8
0
 62
     3
100
AcDbLine
 10
437.4999999999999
 20
-599.9999999999999
 30
0.0
 11
462.4999999999999
 21
-599.9999999999999
 31
0.0
  0
LINE
  5
51D8
330
1A
100
AcDbEntity
  8
0
 62
     3
100
AcDbLine
 10
-437.4999999999999
 20
-599.9999999999999
 30
0.0
 11
-462.4999999999999
 21
-599.9999999999999
 31
0.0
  0
LINE
  5
51D9
330
1A
100
AcDbEntity
  8
0
 62
     3
100
AcDbLine
 10
-462.4999999999999
 20
300.0
 30
0.0
 11
-437.4999999999999
 21
300.0
 31
0.0
  0
LINE
  5
51DA
330
1A
100
AcDbEntity
  8
0
 62
     3
100
AcDbLine
 10
-250.0
 20
717.4999999999998
 30
0.0
 11
-250.0
 21
692.4999999999998
 31
0.0
  0
LINE
  5
51DB
330
1A
100
AcDbEntity
  8
0
 62
     3
100
AcDbLine
 10
250.0
 20
717.4999999999998
 30
0.0
 11
250.0
 21
692.4999999999998
 31
0.0
  0
TEXT
  5
51DC
330
1A
100
AcDbEntity
  8
0
  6
Continuous
 62
     7
100
AcDbText
 10
-135.9999999999999
 20
695.4999999999999
 30
0.0
 40
22.0
  1
２
  7
BIGFONT
100
AcDbText
  0
TEXT
  5
51DD
330
1A
100
AcDbEntity
  8
0
  6
Continuous
 62
     7
100
AcDbText
 10
114.0
 20
695.4999999999999
 30
0.0
 40
22.0
  1
３
  7
BIGFONT
100
AcDbText
  0
TEXT
  5
51DE
330
1A
100
AcDbEntity
  8
0
  6
Continuous
 62
     7
100
AcDbText
 10
-354.7499999999999
 20
695.4999999999999
 30
0.0
 40
22.0
  1
１
  7
BIGFONT
100
AcDbText
  0
TEXT
  5
51DF
330
1A
100
AcDbEntity
  8
0
  6
Continuous
 62
     7
100
AcDbText
 10
332.75
 20
695.4999999999999
 30
0.0
 40
22.0
  1
４
  7
BIGFONT
100
AcDbText
  0
TEXT
  5
51E0
330
1A
100
AcDbEntity
  8
0
  6
Continuous
 62
     7
100
AcDbText
 10
-354.7499999999999
 20
-717.4999999999999
 30
0.0
 40
22.0
  1
１
  7
BIGFONT
100
AcDbText
  0
TEXT
  5
51E1
330
1A
100
AcDbEntity
  8
0
  6
Continuous
 62
     7
100
AcDbText
 10
332.75
 20
-717.4999999999999
 30
0.0
 40
22.0
  1
４
  7
BIGFONT
100
AcDbText
  0
TEXT
  5
51E2
330
1A
100
AcDbEntity
  8
0
  6
Continuous
 62
     7
100
AcDbText
 10
-462.4999999999999
 20
138.9999999999999
 30
0.0
 40
22.0
  1
Ｃ
  7
BIGFONT
100
AcDbText
  0
TEXT
  5
51E3
330
1A
100
AcDbEntity
  8
0
  6
Continuous
 62
     7
100
AcDbText
 10
-462.4999999999999
 20
438.9999999999998
 30
0.0
 40
22.0
  1
Ｂ
  7
BIGFONT
100
AcDbText
  0
TEXT
  5
51E4
330
1A
100
AcDbEntity
  8
0
  6
Continuous
 62
     7
100
AcDbText
 10
-462.4999999999999
 20
-160.9999999999999
 30
0.0
 40
22.0
  1
Ｄ
  7
BIGFONT
100
AcDbText
  0
TEXT
  5
51E5
330
1A
100
AcDbEntity
  8
0
  6
Continuous
 62
     7
100
AcDbText
 10
-462.4999999999999
 20
-460.9999999999999
 30
0.0
 40
22.0
  1
Ｅ
  7
BIGFONT
100
AcDbText
  0
TEXT
  5
51E6
330
1A
100
AcDbEntity
  8
0
  6
Continuous
 62
     7
100
AcDbText
 10
-462.4999999999999
 20
635.2499999999999
 30
0.0
 40
22.0
  1
Ａ
  7
BIGFONT
100
AcDbText
  0
TEXT
  5
51E7
330
1A
100
AcDbEntity
  8
0
  6
Continuous
 62
     7
100
AcDbText
 10
-462.4999999999999
 20
-657.2499999999998
 30
0.0
 40
22.0
  1
Ｆ
  7
BIGFONT
100
AcDbText
  0
TEXT
  5
51E8
330
1A
100
AcDbEntity
  8
0
  6
Continuous
 62
     7
100
AcDbText
 10
440.4999999999999
 20
635.2499999999999
 30
0.0
 40
22.0
  1
Ａ
  7
BIGFONT
100
AcDbText
  0
TEXT
  5
51E9
330
1A
100
AcDbEntity
  8
0
  6
Continuous
 62
     7
100
AcDbText
 10
440.4999999999999
 20
438.9999999999998
 30
0.0
 40
22.0
  1
Ｂ
  7
BIGFONT
100
AcDbText
  0
TEXT
  5
51EA
330
1A
100
AcDbEntity
  8
0
  6
Continuous
 62
     7
100
AcDbText
 10
440.4999999999999
 20
138.9999999999999
 30
0.0
 40
22.0
  1
Ｃ
  7
BIGFONT
100
AcDbText
  0
TEXT
  5
51EB
330
1A
100
AcDbEntity
  8
0
  6
Continuous
 62
     7
100
AcDbText
 10
440.4999999999999
 20
-160.9999999999999
 30
0.0
 40
22.0
  1
Ｄ
  7
BIGFONT
100
AcDbText
  0
TEXT
  5
51EC
330
1A
100
AcDbEntity
  8
0
  6
Continuous
 62
     7
100
AcDbText
 10
440.4999999999999
 20
-460.9999999999999
 30
0.0
 40
22.0
  1
Ｅ
  7
BIGFONT
100
AcDbText
  0
TEXT
  5
51ED
330
1A
100
AcDbEntity
  8
0
  6
Continuous
 62
     7
100
AcDbText
 10
440.4999999999999
 20
-657.2499999999998
 30
0.0
 40
22.0
  1
Ｆ
  7
BIGFONT
100
AcDbText
  0
POINT
  5
51EE
330
1A
100
AcDbEntity
  8
DEFPOINTS
100
AcDbPoint
 10
0.0
 20
0.0
 30
0.0
  0
LINE
  5
51EF
330
1A
100
AcDbEntity
  8
0
 62
     2
100
AcDbLine
 10
-437.4999999999997
 20
-540.0
 30
0.0
 11
437.5
 21
-540.0
 31
0.0
  0
LINE
  5
51F0
330
1A
100
AcDbEntity
  8
0
 62
     3
100
AcDbLine
 10
437.5
 20
-569.9999999999999
 30
0.0
 11
-437.4999999999997
 21
-569.9999999999999
 31
0.0
  0
LINE
  5
51F1
330
1A
100
AcDbEntity
  8
0
 62
     3
100
AcDbLine
 10
0.0000000000001705
 20
-540.0
 30
0.0
 11
0.0000000000001705
 21
-569.9999999999999
 31
0.0
  0
LINE
  5
51F2
330
1A
100
AcDbEntity
  8
0
 62
     3
100
AcDbLine
 10
0.0000000000002842
 20
-569.9999999999999
 30
0.0
 11
0.0000000000001705
 21
-629.9999999999998
 31
0.0
  0
LINE
  5
51F3
330
1A
100
AcDbEntity
  8
0
 62
     3
100
AcDbLine
 10
0.0000000000001705
 20
-629.9999999999998
 30
0.0
 11
0.0000000000001705
 21
-692.4999999999998
 31
0.0
  0
LINE
  5
51F4
330
1A
100
AcDbEntity
  8
0
 62
     3
100
AcDbLine
 10
-437.4999999999997
 20
-629.9999999999998
 30
0.0
 11
437.5
 21
-629.9999999999998
 31
0.0
  0
LINE
  5
51F5
330
1A
100
AcDbEntity
  8
0
 62
     3
100
AcDbLine
 10
-329.9999999999997
 20
-569.9999999999999
 30
0.0
 11
-329.9999999999998
 21
-629.9999999999998
 31
0.0
  0
LINE
  5
51F6
330
1A
100
AcDbEntity
  8
0
 62
     3
100
AcDbLine
 10
-179.9999999999998
 20
-629.9999999999998
 30
0.0
 11
-179.9999999999998
 21
-569.9999999999999
 31
0.0
  0
LINE
  5
51F7
330
1A
100
AcDbEntity
  8
0
 62
     3
100
AcDbLine
 10
-89.99999999999984
 20
-569.9999999999999
 30
0.0
 11
-89.99999999999984
 21
-629.9999999999998
 31
0.0
  0
LINE
  5
51F8
330
1A
100
AcDbEntity
  8
0
 62
     3
100
AcDbLine
 10
100.0000000000001
 20
-540.0
 30
0.0
 11
100.0
 21
-569.9999999999999
 31
0.0
  0
LINE
  5
51F9
330
1A
100
AcDbEntity
  8
0
 62
     3
100
AcDbLine
 10
100.0000000000001
 20
-629.9999999999998
 30
0.0
 11
100.0000000000001
 21
-692.4999999999998
 31
0.0
  0
TEXT
  5
51FA
330
1A
100
AcDbEntity
  8
0
  6
Continuous
 62
     7
100
AcDbText
 10
-164.9999999999998
 20
-596.0
 30
0.0
 40
15.0
  1
尺    度
 41
0.833
  7
BIGFONT
100
AcDbText
  0
TEXT
  5
51FB
330
1A
100
AcDbEntity
  8
0
  6
Continuous
 62
     7
100
AcDbText
 10
-157.7499999999998
 20
-617.4999999999998
 30
0.0
 40
12.5
  1
Ｓ
 41
0.833
  7
BIGFONT
100
AcDbText
  0
TEXT
  5
51FC
330
1A
100
AcDbEntity
  8
0
  6
Continuous
 62
     7
100
AcDbText
 10
-147.9999999999998
 20
-617.4999999999998
 30
0.0
 40
12.5
  1
ｃ
 41
0.833
  7
BIGFONT
100
AcDbText
  0
TEXT
  5
51FD
330
1A
100
AcDbEntity
  8
0
  6
Continuous
 62
     7
100
AcDbText
 10
-138.4999999999998
 20
-617.4999999999998
 30
0.0
 40
12.5
  1
ａ
 41
0.833
  7
BIGFONT
100
AcDbText
  0
TEXT
  5
51FE
330
1A
100
AcDbEntity
  8
0
  6
Continuous
 62
     7
100
AcDbText
 10
-130.7499999999998
 20
-617.4999999999998
 30
0.0
 40
12.5
  1
ｌ
 41
0.833
  7
BIGFONT
100
AcDbText
  0
TEXT
  5
51FF
330
1A
100
AcDbEntity
  8
0
  6
Continuous
 62
     7
100
AcDbText
 10
-123.2499999999998
 20
-617.4999999999998
 30
0.0
 40
12.5
  1
ｅ
 41
0.833
  7
BIGFONT
100
AcDbText
  0
TEXT
  5
5200
330
1A
100
AcDbEntity
  8
0
  6
Continuous
 62
     7
100
AcDbText
 10
20.00000000000017
 20
-556.0
 30
0.0
 40
15.0
  1
品    番
 41
0.833
  7
BIGFONT
100
AcDbText
  0
TEXT
  5
5201
330
1A
100
AcDbEntity
  8
0
  6
Continuous
 62
     7
100
AcDbText
 10
14.50000000000017
 20
-568.9999999999998
 30
0.0
 40
12.5
  1
Ｍ
 41
0.833
  7
BIGFONT
100
AcDbText
  0
TEXT
  5
5202
330
1A
100
AcDbEntity
  8
0
  6
Continuous
 62
     7
100
AcDbText
 10
25.00000000000017
 20
-568.9999999999998
 30
0.0
 40
12.5
  1
ｏ
 41
0.833
  7
BIGFONT
100
AcDbText
  0
TEXT
  5
5203
330
1A
100
AcDbEntity
  8
0
  6
Continuous
 62
     7
100
AcDbText
 10
32.50000000000017
 20
-568.9999999999998
 30
0.0
 40
12.5
  1
ｄ
 41
0.833
  7
BIGFONT
100
AcDbText
  0
TEXT
  5
5204
330
1A
100
AcDbEntity
  8
0
  6
Continuous
 62
     7
100
AcDbText
 10
41.00000000000017
 20
-568.9999999999998
 30
0.0
 40
12.5
  1
ｅ
 41
0.833
  7
BIGFONT
100
AcDbText
  0
TEXT
  5
5205
330
1A
100
AcDbEntity
  8
0
  6
Continuous
 62
     7
100
AcDbText
 10
47.00000000000017
 20
-568.9999999999998
 30
0.0
 40
12.5
  1
ｌ
 41
0.833
  7
BIGFONT
100
AcDbText
  0
TEXT
  5
5206
330
1A
100
AcDbEntity
  8
0
  6
Continuous
 62
     7
100
AcDbText
 10
62.00000000000017
 20
-568.9999999999998
 30
0.0
 40
12.5
  1
Ｎ
 41
0.833
  7
BIGFONT
100
AcDbText
  0
TEXT
  5
5207
330
1A
100
AcDbEntity
  8
0
  6
Continuous
 62
     7
100
AcDbText
 10
70.75000000000017
 20
-568.9999999999998
 30
0.0
 40
12.5
  1
ｏ
 41
0.833
  7
BIGFONT
100
AcDbText
  0
TEXT
  5
5208
330
1A
100
AcDbEntity
  8
0
  6
Continuous
 62
     7
100
AcDbText
 10
79.00000000000017
 20
-568.9999999999998
 30
0.0
 40
12.5
  1
．
 41
0.833
  7
BIGFONT
100
AcDbText
  0
TEXT
  5
5209
330
1A
100
AcDbEntity
  8
0
  6
Continuous
 62
     7
100
AcDbText
 10
30.50000000000017
 20
-617.5457107056444
 30
0.0
 40
12.5
  1
Ｎ
 41
0.833
  7
BIGFONT
100
AcDbText
  0
TEXT
  5
520A
330
1A
100
AcDbEntity
  8
0
  6
Continuous
 62
     7
100
AcDbText
 10
39.75000000000017
 20
-617.5457107056444
 30
0.0
 40
12.5
  1
ａ
 41
0.833
  7
BIGFONT
100
AcDbText
  0
TEXT
  5
520B
330
1A
100
AcDbEntity
  8
0
  6
Continuous
 62
     7
100
AcDbText
 10
49.75000000000017
 20
-617.5457107056444
 30
0.0
 40
12.5
  1
ｍ
 41
0.833
  7
BIGFONT
100
AcDbText
  0
TEXT
  5
520C
330
1A
100
AcDbEntity
  8
0
  6
Continuous
 62
     7
100
AcDbText
 10
59.00000000000017
 20
-617.5457107056444
 30
0.0
 40
12.5
  1
ｅ
 41
0.833
  7
BIGFONT
100
AcDbText
  0
TEXT
  5
520D
330
1A
100
AcDbEntity
  8
0
  6
Continuous
 62
     7
100
AcDbText
 10
20.00000000000017
 20
-655.9999999999997
 30
0.0
 40
15.0
  1
図    番
 41
0.833
  7
BIGFONT
100
AcDbText
  0
TEXT
  5
520E
330
1A
100
AcDbEntity
  8
0
  6
Continuous
 62
     7
100
AcDbText
 10
6.50000000000017
 20
-679.9999999999998
 30
0.0
 40
12.5
  1
Ｄ
 41
0.833
  7
BIGFONT
100
AcDbText
  0
TEXT
  5
520F
330
1A
100
AcDbEntity
  8
0
  6
Continuous
 62
     7
100
AcDbText
 10
15.00000000000017
 20
-679.9999999999998
 30
0.0
 40
12.5
  1
ｒ
 41
0.833
  7
BIGFONT
100
AcDbText
  0
TEXT
  5
5210
330
1A
100
AcDbEntity
  8
0
  6
Continuous
 62
     7
100
AcDbText
 10
21.25000000000017
 20
-679.9999999999998
 30
0.0
 40
12.5
  1
ａ
 41
0.833
  7
BIGFONT
100
AcDbText
  0
TEXT
  5
5211
330
1A
100
AcDbEntity
  8
0
  6
Continuous
 62
     7
100
AcDbText
 10
29.25000000000017
 20
-679.9999999999998
 30
0.0
 40
12.5
  1
ｗ
 41
0.833
  7
BIGFONT
100
AcDbText
  0
TEXT
  5
5212
330
1A
100
AcDbEntity
  8
0
  6
Continuous
 62
     7
100
AcDbText
 10
37.00000000000017
 20
-679.9999999999998
 30
0.0
 40
12.5
  1
ｉ
 41
0.833
  7
BIGFONT
100
AcDbText
  0
TEXT
  5
5213
330
1A
100
AcDbEntity
  8
0
  6
Continuous
 62
     7
100
AcDbText
 10
42.75000000000017
 20
-679.9999999999998
 30
0.0
 40
12.5
  1
ｎ
 41
0.833
  7
BIGFONT
100
AcDbText
  0
TEXT
  5
5214
330
1A
100
AcDbEntity
  8
0
  6
Continuous
 62
     7
100
AcDbText
 10
51.00000000000017
 20
-679.9999999999998
 30
0.0
 40
12.5
  1
ｇ
 41
0.833
  7
BIGFONT
100
AcDbText
  0
TEXT
  5
5215
330
1A
100
AcDbEntity
  8
0
  6
Continuous
 62
     7
100
AcDbText
 10
67.00000000000017
 20
-679.9999999999998
 30
0.0
 40
12.5
  1
Ｎ
 41
0.833
  7
BIGFONT
100
AcDbText
  0
TEXT
  5
5216
330
1A
100
AcDbEntity
  8
0
  6
Continuous
 62
     7
100
AcDbText
 10
75.75000000000017
 20
-679.9999999999998
 30
0.0
 40
12.5
  1
ｏ
 41
0.833
  7
BIGFONT
100
AcDbText
  0
TEXT
  5
5217
330
1A
100
AcDbEntity
  8
0
  6
Continuous
 62
     7
100
AcDbText
 10
84.00000000000018
 20
-679.9999999999998
 30
0.0
 40
12.5
  1
．
 41
0.833
  7
BIGFONT
100
AcDbText
  0
TEXT
  5
5218
330
1A
100
AcDbEntity
  8
0
  6
Continuous
 62
     7
100
AcDbText
 10
-402.4999999999996
 20
-562.5
 30
0.0
 40
15.0
  1
第
  7
BIGFONT
100
AcDbText
  0
TEXT
  5
5219
330
1A
100
AcDbEntity
  8
0
  6
Continuous
 62
     7
100
AcDbText
 10
-380.4999999999997
 20
-562.5
 30
0.0
 40
15.0
  1
三
  7
BIGFONT
100
AcDbText
  0
TEXT
  5
521A
330
1A
100
AcDbEntity
  8
0
  6
Continuous
 62
     7
100
AcDbText
 10
-358.4999999999998
 20
-562.5
 30
0.0
 40
15.0
  1
角
  7
BIGFONT
100
AcDbText
  0
TEXT
  5
521B
330
1A
100
AcDbEntity
  8
0
  6
Continuous
 62
     7
100
AcDbText
 10
-336.4999999999997
 20
-562.5
 30
0.0
 40
15.0
  1
法
  7
BIGFONT
100
AcDbText
  0
TEXT
  5
521C
330
1A
100
AcDbEntity
  8
0
  6
Continuous
 62
     7
100
AcDbText
 10
-285.9999999999999
 20
-562.5
 30
0.0
 40
15.0
  1
Ｔ
  7
BIGFONT
100
AcDbText
  0
TEXT
  5
521D
330
1A
100
AcDbEntity
  8
0
  6
Continuous
 62
     7
100
AcDbText
 10
-271.9999999999998
 20
-562.5
 30
0.0
 40
15.0
  1
ｈ
  7
BIGFONT
100
AcDbText
  0
TEXT
  5
521E
330
1A
100
AcDbEntity
  8
0
  6
Continuous
 62
     7
100
AcDbText
 10
-262.4999999999998
 20
-562.5
 30
0.0
 40
15.0
  1
ｉ
  7
BIGFONT
100
AcDbText
  0
TEXT
  5
521F
330
1A
100
AcDbEntity
  8
0
  6
Continuous
 62
     7
100
AcDbText
 10
-253.7499999999998
 20
-562.5
 30
0.0
 40
15.0
  1
ｒ
  7
BIGFONT
100
AcDbText
  0
TEXT
  5
5220
330
1A
100
AcDbEntity
  8
0
  6
Continuous
 62
     7
100
AcDbText
 10
-244.4999999999998
 20
-562.5
 30
0.0
 40
15.0
  1
ｄ
  7
BIGFONT
100
AcDbText
  0
TEXT
  5
5221
330
1A
100
AcDbEntity
  8
0
  6
Continuous
 62
     7
100
AcDbText
 10
-219.4999999999998
 20
-562.5
 30
0.0
 40
15.0
  1
Ａ
  7
BIGFONT
100
AcDbText
  0
TEXT
  5
5222
330
1A
100
AcDbEntity
  8
0
  6
Continuous
 62
     7
100
AcDbText
 10
-206.2499999999998
 20
-562.5
 30
0.0
 40
15.0
  1
ｎ
  7
BIGFONT
100
AcDbText
  0
TEXT
  5
5223
330
1A
100
AcDbEntity
  8
0
  6
Continuous
 62
     7
100
AcDbText
 10
-194.9999999999998
 20
-562.5
 30
0.0
 40
15.0
  1
ｇ
  7
BIGFONT
100
AcDbText
  0
TEXT
  5
5224
330
1A
100
AcDbEntity
  8
0
  6
Continuous
 62
     7
100
AcDbText
 10
-186.7499999999998
 20
-562.5
 30
0.0
 40
15.0
  1
ｌ
  7
BIGFONT
100
AcDbText
  0
TEXT
  5
5225
330
1A
100
AcDbEntity
  8
0
  6
Continuous
 62
     7
100
AcDbText
 10
-177.9999999999998
 20
-562.5
 30
0.0
 40
15.0
  1
ｅ
  7
BIGFONT
100
AcDbText
  0
TEXT
  5
5226
330
1A
100
AcDbEntity
  8
0
  6
Continuous
 62
     7
100
AcDbText
 10
-153.4999999999998
 20
-562.5
 30
0.0
 40
15.0
  1
Ｐ
  7
BIGFONT
100
AcDbText
  0
TEXT
  5
5227
330
1A
100
AcDbEntity
  8
0
  6
Continuous
 62
     7
100
AcDbText
 10
-141.4999999999998
 20
-562.5
 30
0.0
 40
15.0
  1
ｒ
  7
BIGFONT
100
AcDbText
  0
TEXT
  5
5228
330
1A
100
AcDbEntity
  8
0
  6
Continuous
 62
     7
100
AcDbText
 10
-130.4999999999998
 20
-562.5
 30
0.0
 40
15.0
  1
ｏ
  7
BIGFONT
100
AcDbText
  0
TEXT
  5
5229
330
1A
100
AcDbEntity
  8
0
  6
Continuous
 62
     7
100
AcDbText
 10
-119.4999999999998
 20
-562.5
 30
0.0
 40
15.0
  1
ｊ
  7
BIGFONT
100
AcDbText
  0
TEXT
  5
522A
330
1A
100
AcDbEntity
  8
0
  6
Continuous
 62
     7
100
AcDbText
 10
-108.7499999999998
 20
-562.5
 30
0.0
 40
15.0
  1
ｅ
  7
BIGFONT
100
AcDbText
  0
TEXT
  5
522B
330
1A
100
AcDbEntity
  8
0
  6
Continuous
 62
     7
100
AcDbText
 10
-97.49999999999984
 20
-562.5
 30
0.0
 40
15.0
  1
ｃ
  7
BIGFONT
100
AcDbText
  0
TEXT
  5
522C
330
1A
100
AcDbEntity
  8
0
  6
Continuous
 62
     7
100
AcDbText
 10
-86.49999999999982
 20
-562.5
 30
0.0
 40
15.0
  1
ｔ
  7
BIGFONT
100
AcDbText
  0
TEXT
  5
522D
330
1A
100
AcDbEntity
  8
0
  6
Continuous
 62
     7
100
AcDbText
 10
-77.99999999999982
 20
-562.5
 30
0.0
 40
15.0
  1
ｉ
  7
BIGFONT
100
AcDbText
  0
TEXT
  5
522E
330
1A
100
AcDbEntity
  8
0
  6
Continuous
 62
     7
100
AcDbText
 10
-69.49999999999983
 20
-562.5
 30
0.0
 40
15.0
  1
ｏ
  7
BIGFONT
100
AcDbText
  0
TEXT
  5
522F
330
1A
100
AcDbEntity
  8
0
  6
Continuous
 62
     7
100
AcDbText
 10
-58.49999999999983
 20
-562.5
 30
0.0
 40
15.0
  1
ｎ
  7
BIGFONT
100
AcDbText
  0
TEXT
  5
5231
330
1A
100
AcDbEntity
  8
0
  6
Continuous
 62
     7
100
AcDbText
 10
361.2500000000002
 20
-688.9999999999998
 30
0.0
 40
12.5
  1
Ｒ
 41
0.833
  7
BIGFONT
100
AcDbText
  0
TEXT
  5
5232
330
1A
100
AcDbEntity
  8
0
  6
Continuous
 62
     7
100
AcDbText
 10
371.5000000000002
 20
-688.9999999999998
 30
0.0
 40
12.5
  1
ｅ
 41
0.833
  7
BIGFONT
100
AcDbText
  0
TEXT
  5
5233
330
1A
100
AcDbEntity
  8
0
  6
Continuous
 62
     7
100
AcDbText
 10
379.0000000000002
 20
-688.9999999999998
 30
0.0
 40
12.5
  1
ｖ
 41
0.833
  7
BIGFONT
100
AcDbText
  0
TEXT
  5
5234
330
1A
100
AcDbEntity
  8
0
  6
Continuous
 62
     7
100
AcDbText
 10
388.2500000000002
 20
-688.9999999999998
 30
0.0
 40
12.5
  1
ｉ
 41
0.833
  7
BIGFONT
100
AcDbText
  0
TEXT
  5
5235
330
1A
100
AcDbEntity
  8
0
  6
Continuous
 62
     7
100
AcDbText
 10
396.0000000000001
 20
-688.9999999999998
 30
0.0
 40
12.5
  1
ｓ
 41
0.833
  7
BIGFONT
100
AcDbText
  0
TEXT
  5
5236
330
1A
100
AcDbEntity
  8
0
  6
Continuous
 62
     7
100
AcDbText
 10
402.7500000000001
 20
-688.9999999999998
 30
0.0
 40
12.5
  1
ｉ
 41
0.833
  7
BIGFONT
100
AcDbText
  0
TEXT
  5
5237
330
1A
100
AcDbEntity
  8
0
  6
Continuous
 62
     7
100
AcDbText
 10
410.2500000000001
 20
-688.9999999999998
 30
0.0
 40
12.5
  1
ｏ
 41
0.833
  7
BIGFONT
100
AcDbText
  0
TEXT
  5
5238
330
1A
100
AcDbEntity
  8
0
  6
Continuous
 62
     7
100
AcDbText
 10
418.75
 20
-688.9999999999998
 30
0.0
 40
12.5
  1
ｎ
 41
0.833
  7
BIGFONT
100
AcDbText
  0
LINE
  5
523A
330
1A
100
AcDbEntity
  8
0
 62
     3
100
AcDbLine
 10
-329.9999999999997
 20
-599.9999999999999
 30
0.0
 11
-179.9999999999998
 21
-599.9999999999999
 31
0.0
  0
TEXT
  5
523B
330
1A
100
AcDbEntity
  8
0
  6
Continuous
 62
     7
100
AcDbText
 10
-413.7499999999998
 20
-595.2843884034495
 30
0.0
 40
15.0
  1
製    図
 41
0.833
  7
BIGFONT
100
AcDbText
  0
TEXT
  5
523C
330
1A
100
AcDbEntity
  8
0
  6
Continuous
 62
     7
100
AcDbText
 10
-405.9999999999998
 20
-618.0037515529201
 30
0.0
 40
12.5
  1
Ｄ
 41
0.833
  7
BIGFONT
100
AcDbText
  0
TEXT
  5
523D
330
1A
100
AcDbEntity
  8
0
  6
Continuous
 62
     7
100
AcDbText
 10
-397.2499999999998
 20
-618.0037515529201
 30
0.0
 40
12.5
  1
ｒ
 41
0.833
  7
BIGFONT
100
AcDbText
  0
TEXT
  5
523E
330
1A
100
AcDbEntity
  8
0
  6
Continuous
 62
     7
100
AcDbText
 10
-390.4999999999997
 20
-618.0037515529201
 30
0.0
 40
12.5
  1
ａ
 41
0.833
  7
BIGFONT
100
AcDbText
  0
TEXT
  5
523F
330
1A
100
AcDbEntity
  8
0
  6
Continuous
 62
     7
100
AcDbText
 10
-381.9999999999998
 20
-618.0037515529201
 30
0.0
 40
12.5
  1
ｗ
 41
0.833
  7
BIGFONT
100
AcDbText
  0
TEXT
  5
5240
330
1A
100
AcDbEntity
  8
0
  6
Continuous
 62
     7
100
AcDbText
 10
-372.4999999999998
 20
-618.0037515529201
 30
0.0
 40
12.5
  1
ｎ
 41
0.833
  7
BIGFONT
100
AcDbText
  0
LINE
  5
5241
330
1A
100
AcDbEntity
  8
0
 62
     3
100
AcDbLine
 10
100.0000000000001
 20
-629.9999999999998
 30
0.0
 11
100.0000000000001
 21
-569.9999999999999
 31
0.0
  0
TEXT
  5
5242
330
1A
100
AcDbEntity
  8
0
  6
Continuous
 62
     7
100
AcDbText
 10
20.00000000000017
 20
-593.4999999999997
 30
0.0
 40
15.0
  1
図    名
 41
0.833
  7
BIGFONT
100
AcDbText
  0
VIEWPORT
  5
22
330
17
100
AcDbEntity
 67
     1
  8
0
100
AcDbViewport
 10
261.5176990000001
 20
148.5
 30
0.0
 40
523.0353980000001
 41
297.0
 68
     1
 69
     1
 12
261.5176990000001
 22
148.5
 13
0.0
 23
0.0
 14
1.0
 24
1.0
 15
10.0
 25
10.0
 16
0.0
 26
0.0
 36
1.0
 17
0.0
 27
0.0
 37
0.0
 42
50.0
 43
0.0
 44
0.0
 45
297.0
 50
0.0
 51
0.0
 72
   100
 90
    32800
  1

281
     0
 71
     1
 74
     0
110
0.0
120
0.0
130
0.0
111
1.0
121
0.0
131
0.0
112
0.0
122
1.0
132
0.0
 79
     0
146
0.0
170
     0
 61
     5
348
57B
292
     1
282
     1
141
0.0
142
0.0
 63
   250
421
  3355443
  0
ENDSEC
  0
SECTION
  2
OBJECTS
  0
DICTIONARY
  5
C
330
0
100
AcDbDictionary
281
     1
  3
ACAD_CIP_PREVIOUS_PRODUCT_INFO
350
602
  3
ACAD_COLOR
350
4F4
  3
ACAD_DETAILVIEWSTYLE
350
5F8
  3
ACAD_GROUP
350
D
  3
ACAD_LAYOUT
350
4BC
  3
ACAD_MATERIAL
350
4F3
  3
ACAD_MLEADERSTYLE
350
5A8
  3
ACAD_MLINESTYLE
350
E
  3
ACAD_PLOTSETTINGS
350
4BD
  3
ACAD_PLOTSTYLENAME
350
4BA
  3
ACAD_SCALELIST
350
586
  3
ACAD_SECTIONVIEWSTYLE
350
5F6
  3
ACAD_TABLESTYLE
350
4F5
  3
ACAD_VISUALSTYLE
350
575
  3
ACDB_RECOMPOSE_DATA
350
5316
  3
AcDbVariableDictionary
350
4FD
  3
ASE_INDEX_DICTIONARY
350
972
  0
DICTIONARY
  5
60C
330
2
100
AcDbDictionary
280
     1
281
     1
  3
ACAD_LAYERSTATES
360
60D
  0
DICTIONARY
  5
5D5
330
F
100
AcDbDictionary
280
     1
281
     1
  3
ADSK_XREC_LAYER_RECONCILED
360
98B
  0
DICTIONARY
  5
5D7
330
44C
100
AcDbDictionary
280
     1
281
     1
  3
ADSK_XREC_LAYER_RECONCILED
360
98C
  0
DICTIONARY
  5
4B12
330
4B11
100
AcDbDictionary
280
     1
281
     1
  0
DICTIONARY
  5
768
330
1A
100
AcDbDictionary
280
     1
281
     1
  3
ACAD_SORTENTS
360
769
  0
XRECORD
  5
602
102
{ACAD_REACTORS
330
C
102
}
330
C
100
AcDbXrecord
280
     1
300
ACD
300
2014
300
86063ACD_2014_0F
  0
DICTIONARY
  5
4F4
102
{ACAD_REACTORS
330
C
102
}
330
C
100
AcDbDictionary
281
     1
  0
DICTIONARY
  5
5F8
102
{ACAD_REACTORS
330
C
102
}
330
C
100
AcDbDictionary
281
     1
  3
Imperial24
350
968
  3
Metric50
350
5F9
  0
DICTIONARY
  5
D
102
{ACAD_REACTORS
330
C
102
}
330
C
100
AcDbDictionary
281
     1
  0
DICTIONARY
  5
4BC
102
{ACAD_REACTORS
330
C
102
}
330
C
100
AcDbDictionary
281
     1
  3
Model
350
4BE
  3
ﾚｲｱｳﾄ1
350
4BF
  0
DICTIONARY
  5
4F3
102
{ACAD_REACTORS
330
C
102
}
330
C
100
AcDbDictionary
281
     1
  3
ByBlock
350
565
  3
ByLayer
350
55D
  3
Global
350
56D
  0
DICTIONARY
  5
5A8
102
{ACAD_REACTORS
330
C
102
}
330
C
100
AcDbDictionary
281
     1
  3
KVKMLEADER
350
4170
  3
Standard
350
5A9
  0
DICTIONARY
  5
E
102
{ACAD_REACTORS
330
C
102
}
330
C
100
AcDbDictionary
281
     1
  3
STANDARD
350
13
  0
DICTIONARY
  5
4BD
102
{ACAD_REACTORS
330
C
102
}
330
C
100
AcDbDictionary
281
     1
  0
ACDBDICTIONARYWDFLT
  5
4BA
102
{ACAD_REACTORS
330
C
102
}
330
C
100
AcDbDictionary
281
     1
  3
Normal
350
4BB
100
AcDbDictionaryWithDefault
340
4BB
  0
DICTIONARY
  5
586
102
{ACAD_REACTORS
330
C
102
}
330
C
100
AcDbDictionary
281
     1
  3
A0
350
587
  3
A1
350
588
  3
A2
350
589
  3
A3
350
58A
  3
A4
350
58B
  3
A5
350
58C
  3
A6
350
58D
  3
A7
350
58E
  3
A8
350
58F
  3
A9
350
590
  3
B0
350
591
  3
B1
350
592
  3
B2
350
593
  3
B3
350
594
  3
B4
350
595
  3
B5
350
596
  3
B6
350
597
  3
B7
350
598
  3
B8
350
599
  3
B9
350
59A
  3
C0
350
59B
  3
C1
350
59C
  3
C2
350
59D
  3
C3
350
59E
  3
C4
350
59F
  3
C5
350
5A0
  3
C6
350
5A1
  3
C7
350
5A2
  3
C8
350
5A3
  3
C9
350
5A4
  3
D0
350
5A5
  3
D1
350
5A6
  3
D2
350
5A7
  0
DICTIONARY
  5
5F6
102
{ACAD_REACTORS
330
C
102
}
330
C
100
AcDbDictionary
281
     1
  3
Imperial24
350
967
  3
Metric50
350
5F7
  0
DICTIONARY
  5
4F5
102
{ACAD_REACTORS
330
C
102
}
330
C
100
AcDbDictionary
281
     1
  3
Standard
350
4F6
  0
DICTIONARY
  5
575
102
{ACAD_REACTORS
330
C
102
}
330
C
100
AcDbDictionary
281
     1
  3
2dWireframe
350
57B
  3
3D Hidden
350
57D
  3
3dWireframe
350
57C
  3
Basic
350
57A
  3
Brighten
350
581
  3
ColorChange
350
585
  3
Conceptual
350
57E
  3
Dim
350
580
  3
EdgeColorOff
350
5F5
  3
Facepattern
350
584
  3
Flat
350
576
  3
FlatWithEdges
350
577
  3
Gouraud
350
578
  3
GouraudWithEdges
350
579
  3
Hidden
350
5ED
  3
JitterOff
350
5F3
  3
Linepattern
350
583
  3
OverhangOff
350
5F4
  3
Realistic
350
57F
  3
Shaded
350
5F2
  3
Shaded with edges
350
5F1
  3
Shades of Gray
350
5EE
  3
Sketchy
350
5EF
  3
Thicken
350
582
  3
Wireframe
350
5EC
  3
X-Ray
350
5F0
  0
XRECORD
  5
5316
102
{ACAD_REACTORS
330
C
102
}
330
C
100
AcDbXrecord
280
     1
 90
        1
330
4F6
330
5F7
330
5F9
330
967
330
968
  0
DICTIONARY
  5
4FD
102
{ACAD_REACTORS
330
C
102
}
330
C
100
AcDbDictionary
281
     1
  3
CANNOSCALE
350
5CA
  3
CMLEADERSTYLE
350
5C8
  3
CTABLESTYLE
350
4FE
  3
CVIEWDETAILSTYLE
350
618
  3
CVIEWSECTIONSTYLE
350
619
  3
LAYEREVAL
350
61A
  3
LAYERNOTIFY
350
61B
  3
LIGHTINGUNITS
350
5CB
  3
MSLTSCALE
350
5C9
  0
DICTIONARY
  5
972
102
{ACAD_REACTORS
330
C
102
}
330
C
100
AcDbDictionary
281
     1
  3
ASEBlockHierarchyIndexRecord
350
973
1001
DCO15
1040
1844747841.292
  0
DICTIONARY
  5
60D
102
{ACAD_REACTORS
330
60C
102
}
330
60C
100
AcDbDictionary
281
     1
  0
XRECORD
  5
98B
102
{ACAD_REACTORS
330
5D5
102
}
330
5D5
100
AcDbXrecord
280
     1
290
     1
  0
XRECORD
  5
98C
102
{ACAD_REACTORS
330
5D7
102
}
330
5D7
100
AcDbXrecord
280
     1
290
     1
  0
SORTENTSTABLE
  5
769
102
{ACAD_REACTORS
330
768
102
}
330
768
100
AcDbSortentsTable
330
1A
331
4F36
  5
522B
331
523F
  5
4F49
331
523B
  5
4F45
331
51CC
  5
4E86
331
4F32
  5
5227
331
4F2E
  5
5223
331
5207
  5
4EE4
331
51C8
  5
4E82
331
4B5A
  5
51C0
331
5203
  5
4EE0
331
51C4
  5
4E7E
331
4EAC
  5
51F1
331
4F2A
  5
521F
331
4EA8
  5
51ED
331
51C0
  5
4B58
331
851
  5
851
331
5237
  5
4F41
331
5233
  5
4F3D
331
4F26
  5
521B
331
522F
  5
4F39
331
51FF
  5
4EDC
331
522B
  5
4F35
331
51FB
  5
4EB5
331
4EA4
  5
51E9
331
4EF6
  5
5218
331
4EA0
  5
51E5
331
51F7
  5
4EB1
331
470
  5
752
331
51F3
  5
4EAD
331
4E9C
  5
51E1
331
4EF2
  5
5214
331
4E98
  5
51DD
331
5227
  5
4F31
331
5223
  5
4F2D
331
4EEE
  5
5210
331
521F
  5
4F29
331
51EF
  5
4EA9
331
521B
  5
4F25
331
51EB
  5
4EA5
331
4E94
  5
51D9
331
4EEA
  5
520C
331
4EE6
  5
5208
331
4E90
  5
51D5
331
51E7
  5
4EA1
331
4F49
  5
523E
331
51E3
  5
4E9D
331
4E8C
  5
51D1
331
4EE2
  5
5204
331
4E88
  5
51CD
331
5217
  5
4EF4
331
5213
  5
4EF0
331
4F45
  5
523A
331
4EDE
  5
5200
331
520F
  5
4EEC
331
51DF
  5
4E99
331
520B
  5
4EE8
331
4F41
  5
5236
331
51DB
  5
4E95
331
4E84
  5
51C9
331
4EDA
  5
51FC
331
4F3D
  5
5232
331
4EB6
  5
51FB
331
4E80
  5
51C5
331
51D7
  5
4E91
331
51D3
  5
4E8D
331
4EB2
  5
51F7
331
4F39
  5
522E
331
5242
  5
51B4
331
4F35
  5
522A
331
523E
  5
4F48
331
51CF
  5
4E89
331
523A
  5
4F44
331
51CB
  5
4E85
331
4F31
  5
5226
331
4F2D
  5
5222
331
4EAF
  5
51F4
331
51C7
  5
4E81
331
5206
  5
4EE3
331
5202
  5
4EDF
331
51C3
  5
4B5C
331
4EAB
  5
51F0
331
4F29
  5
521E
331
850
  5
850
331
5236
  5
4F40
331
5232
  5
4F3C
331
4F25
  5
521A
331
522E
  5
4F38
331
51FE
  5
4EDB
331
4EA7
  5
51EC
331
51BF
  5
970
331
522A
  5
4F34
331
51FA
  5
4EB4
331
4EA3
  5
51E8
331
4EF5
  5
5217
331
4E9F
  5
51E4
331
51F6
  5
4EB0
331
51F2
  5
4EAC
331
4E9B
  5
51E0
331
4EF1
  5
5213
331
5226
  5
4F30
331
5222
  5
4F2C
331
4EED
  5
520F
331
521E
  5
4F28
331
4E97
  5
51DC
331
51EE
  5
4EA8
331
521A
  5
4F24
331
51EA
  5
4EA4
331
4E93
  5
51D8
331
4EE9
  5
520B
331
4EE5
  5
5207
331
4E8F
  5
51D4
331
51E6
  5
4EA0
331
51E2
  5
4E9C
331
4E8B
  5
51D0
331
4EE1
  5
5203
331
4F48
  5
523D
331
5216
  5
4EF3
331
5212
  5
4EEF
331
4EDD
  5
51FF
331
4F44
  5
5239
331
520E
  5
4EEB
331
4E87
  5
51CC
331
51DE
  5
4E98
331
520A
  5
4EE7
331
51DA
  5
4E94
331
4E83
  5
51C8
331
4F40
  5
5235
331
4F3C
  5
5231
331
4EB5
  5
51FA
331
4E7F
  5
51C4
331
51D6
  5
4E90
331
4F38
  5
522D
331
51D2
  5
4E8C
331
4EB1
  5
51F6
331
5241
  5
502E
331
4F34
  5
5229
331
523D
  5
4F47
331
51CE
  5
4E88
331
51CA
  5
4E84
331
4F30
  5
5225
331
4F2C
  5
5221
331
4B5C
  5
51C2
331
5205
  5
4EE2
331
4EAE
  5
51F3
331
51C6
  5
4E80
331
4B58
  5
51BF
331
5201
  5
4EDE
331
51C2
  5
4B5B
331
4EAA
  5
51EF
331
4F28
  5
521D
331
853
  5
853
331
84F
  5
84F
331
5235
  5
4F3F
331
5231
  5
4F3B
331
4F24
  5
5219
331
522D
  5
4F37
331
4EA6
  5
51EB
331
51FD
  5
4EDA
331
5229
  5
4F33
331
51F9
  5
4EB3
331
4EA2
  5
51E7
331
472
  5
754
331
4EF4
  5
5216
331
4E9E
  5
51E3
331
51F5
  5
4EAF
331
51F1
  5
4EAB
331
4E9A
  5
51DF
331
4EF0
  5
5212
331
5225
  5
4F2F
331
5221
  5
4F2B
331
51ED
  5
4EA7
331
4E96
  5
51DB
331
4EEC
  5
520E
331
521D
  5
4F27
331
4EE8
  5
520A
331
5219
  5
4EF6
331
51E9
  5
4EA3
331
4E92
  5
51D7
331
51E5
  5
4E9F
331
4E8E
  5
51D3
331
4EE4
  5
5206
331
4EE0
  5
5202
331
51E1
  5
4E9B
331
4E8A
  5
51CF
331
5215
  5
4EF2
331
4F47
  5
523C
331
5211
  5
4EEE
331
4F43
  5
5238
331
51DD
  5
4E97
331
4E86
  5
51CB
331
4EDC
  5
51FE
331
520D
  5
4EEA
331
4F3F
  5
5234
331
5209
  5
4EE6
331
51D9
  5
4E93
331
4E82
  5
51C7
331
4F3B
  5
5230
331
502E
  5
5240
331
51D5
  5
4E8F
331
4E7E
  5
51C3
331
4EB4
  5
51F9
331
4EB0
  5
51F5
331
51D1
  5
4E8B
331
4F37
  5
522C
331
5240
  5
4F4A
331
51CD
  5
4E87
331
4F33
  5
5228
331
523C
  5
4F46
331
4F2F
  5
5224
331
5238
  5
4F42
331
51C9
  5
4E83
331
4F2B
  5
5220
331
5204
  5
4EE1
331
51C5
  5
4E7F
331
4EAD
  5
51F2
331
4B5B
  5
51C1
331
5200
  5
4EDD
331
51C1
  5
4B5A
331
4EA9
  5
51EE
331
84E
  5
84E
331
5234
  5
4F3E
331
4F27
  5
521C
331
51FC
  5
4EB6
331
4EA5
  5
51EA
331
522C
  5
4F36
331
5228
  5
4F32
331
51F8
  5
4EB2
331
4EA1
  5
51E6
331
471
  5
753
331
51F4
  5
4EAE
331
51B5
  5
5242
331
4E9D
  5
51E2
331
4EF3
  5
5215
331
51F0
  5
4EAA
331
4E99
  5
51DE
331
5224
  5
4F2E
331
4EEF
  5
5211
331
5220
  5
4F2A
331
521C
  5
4F26
331
51EC
  5
4EA6
331
4E95
  5
51DA
331
4EEB
  5
520D
331
4EE7
  5
5209
331
5218
  5
4EF5
331
4E91
  5
51D6
331
51E8
  5
4EA2
331
51E4
  5
4E9E
331
4E8D
  5
51D2
331
4EE3
  5
5205
331
4F4A
  5
523F
331
970
  5
51B5
331
4E89
  5
51CE
331
51E0
  5
4E9A
331
5214
  5
4EF1
331
4EDF
  5
5201
331
4F46
  5
523B
331
5210
  5
4EED
331
520C
  5
4EE9
331
51DC
  5
4E96
331
4E85
  5
51CA
331
4EDB
  5
51FD
331
4F42
  5
5237
331
4F3E
  5
5233
331
5208
  5
4EE5
331
4E81
  5
51C6
331
51D8
  5
4E92
331
4F3A
  5
522F
331
51D4
  5
4E8E
331
4EB3
  5
51F8
331
51D0
  5
4E8A
  0
ACDBDETAILVIEWSTYLE
  5
968
102
{ACAD_XDICTIONARY
360
5314
102
}
102
{ACAD_REACTORS
330
5F8
102
}
330
5F8
100
AcDbModelDocViewStyle
 70
     0
  3
Imperial24
290
     0
100
AcDbDetailViewStyle
 70
     0
 71
     0
 90
        3
 71
     1
340
10
 62
   256
 40
0.24
340
0
 62
   256
 40
0.24
300

 40
0.36
280
     3
 71
     2
340
16
 90
       25
 62
   256
 71
     3
340
10
 62
   256
 40
0.24
 90
        1
 40
0.75
 90
        1
300
%<\AcVar ViewType \f "%tc1">% %<\AcVar ViewDetailId>%\PSCALE %<\AcVar ViewScale \f "%sn">%
 71
     4
340
16
 90
       25
 62
   256
340
16
 90
       25
 62
   256
280
     0
  0
ACDBDETAILVIEWSTYLE
  5
5F9
102
{ACAD_XDICTIONARY
360
5310
102
}
102
{ACAD_REACTORS
330
5F8
102
}
330
5F8
100
AcDbModelDocViewStyle
 70
     0
  3
Metric50
290
     0
100
AcDbDetailViewStyle
 70
     0
 71
     0
 90
        3
 71
     1
340
10
 62
   256
 40
5.0
340
0
 62
   256
 40
5.0
300

 40
0.0
280
     1
 71
     2
340
16
 90
       25
 62
   256
 71
     3
340
10
 62
   256
 40
5.0
 90
        0
 40
15.0
 90
        1
300
%<\AcVar ViewDetailId>% (%<\AcVar ViewScale \f "%sn">%)
 71
     4
340
16
 90
       25
 62
   256
340
16
 90
       25
 62
   256
280
     0
  0
LAYOUT
  5
4BE
102
{ACAD_XDICTIONARY
360
997
102
}
102
{ACAD_REACTORS
330
4BC
102
}
330
4BC
100
AcDbPlotSettings
  1

  2
FX DocuWide 3030
  4
A4
  6

 40
3.174999952316284
 41
3.174999952316284
 42
3.175003051757812
 43
3.17498779296875
 44
210.0156707763672
 45
297.0106506347656
 46
-3.088977162818991
 47
-3.087626601905611
 48
0.0
 49
0.0
140
0.0
141
0.0
142
1.0
143
5.0
 70
 11940
 72
     1
 73
     0
 74
     1
  7
monochrome.ctb
 75
     0
147
0.2
 76
     0
 77
     2
 78
   300
148
562.1624656690273
149
742.1359169965881
100
AcDbLayout
  1
Model
 70
     1
 71
     0
 10
0.0
 20
0.0
 11
12.0
 21
9.0
 12
0.0
 22
0.0
 32
0.0
 14
0.0
 24
0.0
 34
0.0
 15
0.0
 25
0.0
 35
0.0
146
0.0
 13
0.0
 23
0.0
 33
0.0
 16
1.0
 26
0.0
 36
0.0
 17
0.0
 27
1.0
 37
0.0
 76
     0
330
1A
331
55B
1001
ACAD_PSEXT
1000
FX DocuWide 3030
1000
FX DocuWide 3030
1000
IP_10.70.61.108
1000

1070
     0
  0
LAYOUT
  5
4BF
102
{ACAD_REACTORS
330
4BC
102
}
330
4BC
100
AcDbPlotSettings
  1

  2
C:\PROGRAM FILES\AUTOCAD 2000I\plotters\DocuWide2050.pc3
  4

  6

 40
0.0
 41
0.0
 42
0.0
 43
0.0
 44
0.0
 45
0.0
 46
0.0
 47
0.0
 48
0.0
 49
0.0
140
0.0
141
0.0
142
1.0
143
1.0
 70
   688
 72
     0
 73
     0
 74
     5
  7
monochrome.ctb
 75
    16
147
1.0
 76
     0
 77
     2
 78
   300
148
0.0
149
0.0
100
AcDbLayout
  1
ﾚｲｱｳﾄ1
 70
     1
 71
     1
 10
0.0
 20
0.0
 11
420.0
 21
297.0
 12
0.0
 22
0.0
 32
0.0
 14
1.000000000000000E+20
 24
1.000000000000000E+20
 34
1.000000000000000E+20
 15
-1.000000000000000E+20
 25
-1.000000000000000E+20
 35
-1.000000000000000E+20
146
0.0
 13
0.0
 23
0.0
 33
0.0
 16
1.0
 26
0.0
 36
0.0
 17
0.0
 27
1.0
 37
0.0
 76
     0
330
17
331
22
  0
MATERIAL
  5
565
102
{ACAD_XDICTIONARY
360
566
102
}
102
{ACAD_REACTORS
330
4F3
102
}
330
4F3
100
AcDbMaterial
  1
ByBlock
 72
     0
 43
0.0208333333333333
 43
0.0
 43
0.0
 43
0.0
 43
0.0
 43
0.0208333333333333
 43
0.0
 43
0.0
 43
0.0
 43
0.0
 43
1.0
 43
0.0
 43
0.0
 43
0.0
 43
0.0
 43
1.0
 77
     0
 47
0.0208333333333333
 47
0.0
 47
0.0
 47
0.0
 47
0.0
 47
0.0208333333333333
 47
0.0
 47
0.0
 47
0.0
 47
0.0
 47
1.0
 47
0.0
 47
0.0
 47
0.0
 47
0.0
 47
1.0
171
     0
 49
0.0208333333333333
 49
0.0
 49
0.0
 49
0.0
 49
0.0
 49
0.0208333333333333
 49
0.0
 49
0.0
 49
0.0
 49
0.0
 49
1.0
 49
0.0
 49
0.0
 49
0.0
 49
0.0
 49
1.0
175
     0
142
0.0208333333333333
142
0.0
142
0.0
142
0.0
142
0.0
142
0.0208333333333333
142
0.0
142
0.0
142
0.0
142
0.0
142
1.0
142
0.0
142
0.0
142
0.0
142
0.0
142
1.0
179
     0
144
0.0208333333333333
144
0.0
144
0.0
144
0.0
144
0.0
144
0.0208333333333333
144
0.0
144
0.0
144
0.0
144
0.0
144
1.0
144
0.0
144
0.0
144
0.0
144
0.0
144
1.0
147
0.0208333333333333
147
0.0
147
0.0
147
0.0
147
0.0
147
0.0208333333333333
147
0.0
147
0.0
147
0.0
147
0.0
147
1.0
147
0.0
147
0.0
147
0.0
147
0.0
147
1.0
  0
MATERIAL
  5
55D
102
{ACAD_XDICTIONARY
360
55E
102
}
102
{ACAD_REACTORS
330
4F3
102
}
330
4F3
100
AcDbMaterial
  1
ByLayer
 72
     0
 43
0.0208333333333333
 43
0.0
 43
0.0
 43
0.0
 43
0.0
 43
0.0208333333333333
 43
0.0
 43
0.0
 43
0.0
 43
0.0
 43
1.0
 43
0.0
 43
0.0
 43
0.0
 43
0.0
 43
1.0
 77
     0
 47
0.0208333333333333
 47
0.0
 47
0.0
 47
0.0
 47
0.0
 47
0.0208333333333333
 47
0.0
 47
0.0
 47
0.0
 47
0.0
 47
1.0
 47
0.0
 47
0.0
 47
0.0
 47
0.0
 47
1.0
171
     0
 49
0.0208333333333333
 49
0.0
 49
0.0
 49
0.0
 49
0.0
 49
0.0208333333333333
 49
0.0
 49
0.0
 49
0.0
 49
0.0
 49
1.0
 49
0.0
 49
0.0
 49
0.0
 49
0.0
 49
1.0
175
     0
142
0.0208333333333333
142
0.0
142
0.0
142
0.0
142
0.0
142
0.0208333333333333
142
0.0
142
0.0
142
0.0
142
0.0
142
1.0
142
0.0
142
0.0
142
0.0
142
0.0
142
1.0
179
     0
144
0.0208333333333333
144
0.0
144
0.0
144
0.0
144
0.0
144
0.0208333333333333
144
0.0
144
0.0
144
0.0
144
0.0
144
1.0
144
0.0
144
0.0
144
0.0
144
0.0
144
1.0
147
0.0208333333333333
147
0.0
147
0.0
147
0.0
147
0.0
147
0.0208333333333333
147
0.0
147
0.0
147
0.0
147
0.0
147
1.0
147
0.0
147
0.0
147
0.0
147
0.0
147
1.0
  0
MATERIAL
  5
56D
102
{ACAD_XDICTIONARY
360
56E
102
}
102
{ACAD_REACTORS
330
4F3
102
}
330
4F3
100
AcDbMaterial
  1
Global
 72
     0
 43
0.0208333333333333
 43
0.0
 43
0.0
 43
0.0
 43
0.0
 43
0.0208333333333333
 43
0.0
 43
0.0
 43
0.0
 43
0.0
 43
1.0
 43
0.0
 43
0.0
 43
0.0
 43
0.0
 43
1.0
 77
     0
 47
0.0208333333333333
 47
0.0
 47
0.0
 47
0.0
 47
0.0
 47
0.0208333333333333
 47
0.0
 47
0.0
 47
0.0
 47
0.0
 47
1.0
 47
0.0
 47
0.0
 47
0.0
 47
0.0
 47
1.0
171
     0
 49
0.0208333333333333
 49
0.0
 49
0.0
 49
0.0
 49
0.0
 49
0.0208333333333333
 49
0.0
 49
0.0
 49
0.0
 49
0.0
 49
1.0
 49
0.0
 49
0.0
 49
0.0
 49
0.0
 49
1.0
175
     0
142
0.0208333333333333
142
0.0
142
0.0
142
0.0
142
0.0
142
0.0208333333333333
142
0.0
142
0.0
142
0.0
142
0.0
142
1.0
142
0.0
142
0.0
142
0.0
142
0.0
142
1.0
179
     0
144
0.0208333333333333
144
0.0
144
0.0
144
0.0
144
0.0
144
0.0208333333333333
144
0.0
144
0.0
144
0.0
144
0.0
144
1.0
144
0.0
144
0.0
144
0.0
144
0.0
144
1.0
147
0.0208333333333333
147
0.0
147
0.0
147
0.0
147
0.0
147
0.0208333333333333
147
0.0
147
0.0
147
0.0
147
0.0
147
1.0
147
0.0
147
0.0
147
0.0
147
0.0
147
1.0
  0
MLEADERSTYLE
  5
4170
102
{ACAD_REACTORS
330
5A8
102
}
330
5A8
100
AcDbMLeaderStyle
179
     2
170
     2
171
     1
172
     0
 90
        2
 40
0.0
 41
0.0
173
     1
 91
-1073741824
 92
       -2
290
     1
 42
0.4
291
     1
 43
2.0
  3

341
4A1
 44
1.5
300

342
2CC
174
     6
178
     6
175
     0
176
     0
 93
-1073741824
 45
3.0
292
     0
297
     0
 46
5.0
 94
-1073741824
 47
1.0
 49
1.0
140
1.0
293
     1
141
0.0
294
     1
177
     0
142
5.0
295
     0
296
     0
143
0.125
271
     0
272
     9
273
     9
298
     1
  0
MLEADERSTYLE
  5
5A9
102
{ACAD_REACTORS
330
5A8
102
}
330
5A8
100
AcDbMLeaderStyle
179
     2
170
     2
171
     1
172
     0
 90
        2
 40
0.0
 41
0.0
173
     1
 91
-1056964608
340
14
 92
       -2
290
     1
 42
2.0
291
     1
 43
0.36
  3
Standard
 44
4.0
300

342
10
174
     1
178
     6
175
     1
176
     0
 93
-1056964608
 45
4.0
292
     0
297
     0
 46
4.0
 94
-1056964608
 47
1.0
 49
1.0
140
1.0
293
     1
141
0.0
294
     1
177
     0
142
1.0
295
     0
296
     0
143
0.125
271
     0
272
     9
273
     9
298
     0
  0
MLINESTYLE
  5
13
102
{ACAD_REACTORS
330
E
102
}
330
E
100
AcDbMlineStyle
  2
STANDARD
 70
     0
  3

 62
     0
 51
90.0
 52
90.0
 71
     2
 49
0.5
 62
   256
  6
BYLAYER
 49
-0.5
 62
   256
  6
BYLAYER
  0
ACDBPLACEHOLDER
  5
4BB
102
{ACAD_REACTORS
330
4BA
102
}
330
4BA
  0
SCALE
  5
587
102
{ACAD_REACTORS
330
586
102
}
330
586
100
AcDbScale
 70
     0
300
1:1
140
1.0
141
1.0
290
     1
  0
SCALE
  5
588
102
{ACAD_REACTORS
330
586
102
}
330
586
100
AcDbScale
 70
     0
300
1:2
140
1.0
141
2.0
290
     0
  0
SCALE
  5
589
102
{ACAD_REACTORS
330
586
102
}
330
586
100
AcDbScale
 70
     0
300
1:4
140
1.0
141
4.0
290
     0
  0
SCALE
  5
58A
102
{ACAD_REACTORS
330
586
102
}
330
586
100
AcDbScale
 70
     0
300
1:5
140
1.0
141
5.0
290
     0
  0
SCALE
  5
58B
102
{ACAD_REACTORS
330
586
102
}
330
586
100
AcDbScale
 70
     0
300
1:8
140
1.0
141
8.0
290
     0
  0
SCALE
  5
58C
102
{ACAD_REACTORS
330
586
102
}
330
586
100
AcDbScale
 70
     0
300
1:10
140
1.0
141
10.0
290
     0
  0
SCALE
  5
58D
102
{ACAD_REACTORS
330
586
102
}
330
586
100
AcDbScale
 70
     0
300
1:16
140
1.0
141
16.0
290
     0
  0
SCALE
  5
58E
102
{ACAD_REACTORS
330
586
102
}
330
586
100
AcDbScale
 70
     0
300
1:20
140
1.0
141
20.0
290
     0
  0
SCALE
  5
58F
102
{ACAD_REACTORS
330
586
102
}
330
586
100
AcDbScale
 70
     0
300
1:30
140
1.0
141
30.0
290
     0
  0
SCALE
  5
590
102
{ACAD_REACTORS
330
586
102
}
330
586
100
AcDbScale
 70
     0
300
1:40
140
1.0
141
40.0
290
     0
  0
SCALE
  5
591
102
{ACAD_REACTORS
330
586
102
}
330
586
100
AcDbScale
 70
     0
300
1:50
140
1.0
141
50.0
290
     0
  0
SCALE
  5
592
102
{ACAD_REACTORS
330
586
102
}
330
586
100
AcDbScale
 70
     0
300
1:100
140
1.0
141
100.0
290
     0
  0
SCALE
  5
593
102
{ACAD_REACTORS
330
586
102
}
330
586
100
AcDbScale
 70
     0
300
2:1
140
2.0
141
1.0
290
     0
  0
SCALE
  5
594
102
{ACAD_REACTORS
330
586
102
}
330
586
100
AcDbScale
 70
     0
300
4:1
140
4.0
141
1.0
290
     0
  0
SCALE
  5
595
102
{ACAD_REACTORS
330
586
102
}
330
586
100
AcDbScale
 70
     0
300
8:1
140
8.0
141
1.0
290
     0
  0
SCALE
  5
596
102
{ACAD_REACTORS
330
586
102
}
330
586
100
AcDbScale
 70
     0
300
10:1
140
10.0
141
1.0
290
     0
  0
SCALE
  5
597
102
{ACAD_REACTORS
330
586
102
}
330
586
100
AcDbScale
 70
     0
300
100:1
140
100.0
141
1.0
290
     0
  0
SCALE
  5
598
102
{ACAD_REACTORS
330
586
102
}
330
586
100
AcDbScale
 70
     0
300
1/128" = 1'-0"
140
0.0078125
141
12.0
290
     0
  0
SCALE
  5
599
102
{ACAD_REACTORS
330
586
102
}
330
586
100
AcDbScale
 70
     0
300
1/64" = 1'-0"
140
0.015625
141
12.0
290
     0
  0
SCALE
  5
59A
102
{ACAD_REACTORS
330
586
102
}
330
586
100
AcDbScale
 70
     0
300
1/32" = 1'-0"
140
0.03125
141
12.0
290
     0
  0
SCALE
  5
59B
102
{ACAD_REACTORS
330
586
102
}
330
586
100
AcDbScale
 70
     0
300
1/16" = 1'-0"
140
0.0625
141
12.0
290
     0
  0
SCALE
  5
59C
102
{ACAD_REACTORS
330
586
102
}
330
586
100
AcDbScale
 70
     0
300
3/32" = 1'-0"
140
0.09375
141
12.0
290
     0
  0
SCALE
  5
59D
102
{ACAD_REACTORS
330
586
102
}
330
586
100
AcDbScale
 70
     0
300
1/8" = 1'-0"
140
0.125
141
12.0
290
     0
  0
SCALE
  5
59E
102
{ACAD_REACTORS
330
586
102
}
330
586
100
AcDbScale
 70
     0
300
3/16" = 1'-0"
140
0.1875
141
12.0
290
     0
  0
SCALE
  5
59F
102
{ACAD_REACTORS
330
586
102
}
330
586
100
AcDbScale
 70
     0
300
1/4" = 1'-0"
140
0.25
141
12.0
290
     0
  0
SCALE
  5
5A0
102
{ACAD_REACTORS
330
586
102
}
330
586
100
AcDbScale
 70
     0
300
3/8" = 1'-0"
140
0.375
141
12.0
290
     0
  0
SCALE
  5
5A1
102
{ACAD_REACTORS
330
586
102
}
330
586
100
AcDbScale
 70
     0
300
1/2" = 1'-0"
140
0.5
141
12.0
290
     0
  0
SCALE
  5
5A2
102
{ACAD_REACTORS
330
586
102
}
330
586
100
AcDbScale
 70
     0
300
3/4" = 1'-0"
140
0.75
141
12.0
290
     0
  0
SCALE
  5
5A3
102
{ACAD_REACTORS
330
586
102
}
330
586
100
AcDbScale
 70
     0
300
1" = 1'-0"
140
1.0
141
12.0
290
     0
  0
SCALE
  5
5A4
102
{ACAD_REACTORS
330
586
102
}
330
586
100
AcDbScale
 70
     0
300
1-1/2" = 1'-0"
140
1.5
141
12.0
290
     0
  0
SCALE
  5
5A5
102
{ACAD_REACTORS
330
586
102
}
330
586
100
AcDbScale
 70
     0
300
3" = 1'-0"
140
3.0
141
12.0
290
     0
  0
SCALE
  5
5A6
102
{ACAD_REACTORS
330
586
102
}
330
586
100
AcDbScale
 70
     0
300
6" = 1'-0"
140
6.0
141
12.0
290
     0
  0
SCALE
  5
5A7
102
{ACAD_REACTORS
330
586
102
}
330
586
100
AcDbScale
 70
     0
300
1'-0" = 1'-0"
140
12.0
141
12.0
290
     0
  0
ACDBSECTIONVIEWSTYLE
  5
967
102
{ACAD_XDICTIONARY
360
5312
102
}
102
{ACAD_REACTORS
330
5F6
102
}
330
5F6
100
AcDbModelDocViewStyle
 70
     0
  3
Imperial24
290
     0
100
AcDbSectionViewStyle
 70
     0
 71
     0
 90
       78
 71
     1
340
10
 62
   256
 40
0.24
340
0
340
0
 62
   256
 40
0.24
300
I, O, Q, S, X, Z
 40
0.48
 90
        3
 40
0.18
 90
        1
 71
     2
340
16
 90
       25
 62
   256
340
16
 90
       50
 62
   256
 40
0.24
 40
0.0
 40
0.24
 71
     3
340
10
 62
   256
 40
0.24
 90
        1
 40
0.75
 90
        1
300
%<\AcVar ViewType \f "%tc1">% %<\AcVar ViewSectionStartId>%-%<\AcVar ViewSectionEndId>%\PSCALE %<\AcVar ViewScale \f "%sn">%
 71
     4
 62
   256
 62
   257
300
ANSI31
 40
1.0
 90
        0
290
     0
290
     0
 90
        6
 40
0.0
 40
1.570796326794896
 40
0.2617993877991494
 40
1.308996938995747
 40
-0.2617993877991494
 40
1.832595714594046
  0
ACDBSECTIONVIEWSTYLE
  5
5F7
102
{ACAD_XDICTIONARY
360
530E
102
}
102
{ACAD_REACTORS
330
5F6
102
}
330
5F6
100
AcDbModelDocViewStyle
 70
     0
  3
Metric50
290
     0
100
AcDbSectionViewStyle
 70
     0
 71
     0
 90
      102
 71
     1
340
10
 62
   256
 40
5.0
340
0
340
0
 62
   256
 40
5.0
300
I, O, Q, S, X, Z
 40
10.0
 90
        0
 40
2.5
 90
        0
 71
     2
340
16
 90
       25
 62
   256
340
16
 90
       50
 62
   256
 40
5.0
 40
2.5
 40
5.0
 71
     3
340
10
 62
   256
 40
5.0
 90
        0
 40
15.0
 90
        1
300
%<\AcVar ViewSectionStartId>%-%<\AcVar ViewSectionEndId>% (%<\AcVar ViewScale \f "%sn">%)
 71
     4
 62
   256
 62
   257
300
ANSI31
 40
1.0
 90
        0
290
     0
290
     0
 90
        6
 40
0.0
 40
1.570796326794896
 40
0.2617993877991494
 40
1.308996938995747
 40
-0.2617993877991494
 40
1.832595714594046
  0
TABLESTYLE
  5
4F6
102
{ACAD_XDICTIONARY
360
5C5
102
}
102
{ACAD_REACTORS
330
4F5
102
}
330
4F5
100
AcDbTableStyle
280
     0
  3
Standard
 70
     0
 71
     0
 40
1.5
 41
1.5
280
     0
281
     0
  7
STANDARD
140
4.5
170
     2
 62
     0
 63
     7
283
     0
 90
        4
 91
        0
  1

274
    -2
284
     1
 64
     0
275
    -2
285
     1
 65
     0
276
    -2
286
     1
 66
     0
277
    -2
287
     1
 67
     0
278
    -2
288
     1
 68
     0
279
    -2
289
     1
 69
     0
  7
STANDARD
140
6.0
170
     5
 62
     0
 63
     7
283
     0
 90
        4
 91
        0
  1

274
    -2
284
     1
 64
     0
275
    -2
285
     1
 65
     0
276
    -2
286
     1
 66
     0
277
    -2
287
     1
 67
     0
278
    -2
288
     1
 68
     0
279
    -2
289
     1
 69
     0
  7
STANDARD
140
4.5
170
     5
 62
     0
 63
     7
283
     0
 90
        4
 91
        0
  1

274
    -2
284
     1
 64
     0
275
    -2
285
     1
 65
     0
276
    -2
286
     1
 66
     0
277
    -2
287
     1
 67
     0
278
    -2
288
     1
 68
     0
279
    -2
289
     1
 69
     0
  0
VISUALSTYLE
  5
57B
102
{ACAD_REACTORS
330
575
102
}
330
575
100
AcDbVisualStyle
  2
2dWireframe
 70
     4
177
     3
291
     0
 70
    58
 90
        0
176
     1
 90
        2
176
     1
 90
        0
176
     1
 90
        0
176
     1
 40
0.6
176
     1
 40
30.0
176
     1
 62
     7
420
 16777215
176
     1
 90
        1
176
     1
 90
        4
176
     1
 62
     7
176
     1
 62
   257
176
     1
 90
        1
176
     1
 90
        1
176
     1
 40
1.0
176
     1
 90
        0
176
     1
 62
   257
176
     1
 40
1.0
176
     1
 90
        1
176
     1
 90
        6
176
     1
 90
        2
176
     1
 62
     7
176
     1
 90
        5
176
     1
 90
        0
176
     1
 90
        0
176
     1
290
     0
176
     1
 90
        1
176
     1
 40
0.0
176
     1
 90
        0
176
     1
290
     1
176
     1
290
     1
176
     1
290
     0
176
     1
290
     0
176
     1
290
     0
176
     1
290
     0
176
     1
290
     0
176
     1
290
     0
176
     1
290
     0
176
     1
 90
       50
176
     1
 40
0.0
176
     1
 40
1.0
176
     1
 90
        0
176
     1
 62
    18
420
        0
176
     1
 90
       50
176
     1
 90
        3
176
     1
 62
     5
420
      255
176
     1
290
     0
176
     1
 90
       50
176
     1
 90
       50
176
     1
 90
       50
176
     1
290
     0
176
     1
 90
       50
176
     1
 62
   256
176
     0
 40
1.0
176
     0
 90
        2
176
     1
  1
strokes_ogs.tif
176
     1
290
     0
176
     1
 40
1.0
176
     1
 40
1.0
176
     1
  0
VISUALSTYLE
  5
57D
102
{ACAD_REACTORS
330
575
102
}
330
575
100
AcDbVisualStyle
  2
3D Hidden
 70
     6
177
     3
291
     0
 70
    58
 90
        1
176
     1
 90
        2
176
     1
 90
        2
176
     1
 90
        0
176
     1
 40
0.6
176
     1
 40
30.0
176
     1
 62
     7
420
 16777215
176
     1
 90
        2
176
     1
 90
        2
176
     1
 62
     7
176
     1
 62
   257
176
     1
 90
        2
176
     1
 90
        1
176
     1
 40
40.0
176
     1
 90
        0
176
     1
 62
   257
176
     1
 40
1.0
176
     1
 90
        1
176
     1
 90
        6
176
     1
 90
        2
176
     1
 62
     7
176
     1
 90
        3
176
     1
 90
        0
176
     1
 90
        0
176
     1
290
     0
176
     1
 90
        1
176
     1
 40
0.0
176
     1
 90
        0
176
     1
290
     0
176
     1
290
     1
176
     1
290
     1
176
     1
290
     0
176
     1
290
     0
176
     1
290
     0
176
     1
290
     0
176
     1
290
     0
176
     1
290
     0
176
     1
 90
       50
176
     1
 40
0.0
176
     1
 40
1.0
176
     1
 90
        0
176
     1
 62
    18
420
        0
176
     1
 90
       50
176
     1
 90
        3
176
     1
 62
     5
420
      255
176
     1
290
     0
176
     1
 90
       50
176
     1
 90
       50
176
     1
 90
       50
176
     1
290
     0
176
     1
 90
       50
176
     1
 62
   256
176
     0
 40
1.0
176
     0
 90
        2
176
     1
  1
strokes_ogs.tif
176
     1
290
     0
176
     1
 40
1.0
176
     1
 40
1.0
176
     1
  0
VISUALSTYLE
  5
57C
102
{ACAD_REACTORS
330
575
102
}
330
575
100
AcDbVisualStyle
  2
3dWireframe
 70
     5
177
     3
291
     0
 70
    58
 90
        0
176
     1
 90
        2
176
     1
 90
        0
176
     1
 90
        0
176
     1
 40
0.6
176
     1
 40
30.0
176
     1
 62
     7
420
 16777215
176
     1
 90
        1
176
     1
 90
        4
176
     1
 62
     7
176
     1
 62
   257
176
     1
 90
        1
176
     1
 90
        1
176
     1
 40
1.0
176
     1
 90
        0
176
     1
 62
   257
176
     1
 40
1.0
176
     1
 90
        1
176
     1
 90
        6
176
     1
 90
        2
176
     1
 62
     7
176
     1
 90
        5
176
     1
 90
        0
176
     1
 90
        0
176
     1
290
     0
176
     1
 90
        1
176
     1
 40
0.0
176
     1
 90
        0
176
     1
290
     0
176
     1
290
     1
176
     1
290
     1
176
     1
290
     0
176
     1
290
     0
176
     1
290
     0
176
     1
290
     0
176
     1
290
     0
176
     1
290
     0
176
     1
 90
       50
176
     1
 40
0.0
176
     1
 40
1.0
176
     1
 90
        0
176
     1
 62
    18
420
        0
176
     1
 90
       50
176
     1
 90
        3
176
     1
 62
     5
420
      255
176
     1
290
     0
176
     1
 90
       50
176
     1
 90
       50
176
     1
 90
       50
176
     1
290
     0
176
     1
 90
       50
176
     1
 62
   256
176
     0
 40
1.0
176
     0
 90
        2
176
     1
  1
strokes_ogs.tif
176
     1
290
     0
176
     1
 40
1.0
176
     1
 40
1.0
176
     1
  0
VISUALSTYLE
  5
57A
102
{ACAD_REACTORS
330
575
102
}
330
575
100
AcDbVisualStyle
  2
Basic
 70
     7
177
     3
291
     1
 70
    58
 90
        1
176
     1
 90
        0
176
     1
 90
        1
176
     1
 90
        0
176
     1
 40
0.6
176
     1
 40
30.0
176
     1
 62
     7
420
 16777215
176
     1
 90
        0
176
     1
 90
        4
176
     1
 62
     7
176
     1
 62
   257
176
     1
 90
        1
176
     1
 90
        1
176
     1
 40
1.0
176
     1
 90
        8
176
     1
 62
     7
176
     1
 40
1.0
176
     1
 90
        1
176
     1
 90
        6
176
     1
 90
        2
176
     1
 62
     7
176
     1
 90
        5
176
     1
 90
        0
176
     1
 90
        0
176
     1
290
     0
176
     1
 90
        1
176
     1
 40
0.0
176
     1
 90
        0
176
     1
290
     0
176
     1
290
     1
176
     1
290
     1
176
     1
290
     0
176
     1
290
     0
176
     1
290
     0
176
     1
290
     0
176
     1
290
     0
176
     1
290
     0
176
     1
 90
       50
176
     1
 40
0.0
176
     1
 40
1.0
176
     1
 90
        0
176
     1
 62
    18
420
        0
176
     1
 90
       50
176
     1
 90
        3
176
     1
 62
     5
420
      255
176
     1
290
     0
176
     1
 90
       50
176
     1
 90
       50
176
     1
 90
       50
176
     1
290
     0
176
     1
 90
       50
176
     1
 62
   256
176
     0
 40
1.0
176
     0
 90
        2
176
     1
  1
strokes_ogs.tif
176
     1
290
     0
176
     1
 40
1.0
176
     1
 40
1.0
176
     1
  0
VISUALSTYLE
  5
581
102
{ACAD_REACTORS
330
575
102
}
330
575
100
AcDbVisualStyle
  2
Brighten
 70
    12
177
     3
291
     1
 70
    58
 90
        2
176
     1
 90
        2
176
     1
 90
        0
176
     1
 90
        0
176
     1
 40
0.6
176
     1
 40
30.0
176
     1
 62
     7
420
 16777215
176
     1
 90
        1
176
     1
 90
        4
176
     1
 62
     7
176
     1
 62
   257
176
     1
 90
        1
176
     1
 90
        1
176
     1
 40
1.0
176
     1
 90
        8
176
     1
 62
     7
176
     1
 40
1.0
176
     1
 90
        1
176
     1
 90
        6
176
     1
 90
        2
176
     1
 62
     7
176
     1
 90
        5
176
     1
 90
        0
176
     1
 90
        0
176
     1
290
     0
176
     1
 90
        1
176
     1
 40
50.0
176
     1
 90
        0
176
     1
290
     0
176
     1
290
     1
176
     1
290
     1
176
     1
290
     0
176
     1
290
     0
176
     1
290
     0
176
     1
290
     0
176
     1
290
     0
176
     1
290
     0
176
     1
 90
       50
176
     1
 40
0.0
176
     1
 40
1.0
176
     1
 90
        0
176
     1
 62
    18
420
        0
176
     1
 90
       50
176
     1
 90
        3
176
     1
 62
     5
420
      255
176
     1
290
     0
176
     1
 90
       50
176
     1
 90
       50
176
     1
 90
       50
176
     1
290
     0
176
     1
 90
       50
176
     1
 62
   256
176
     0
 40
1.0
176
     0
 90
        2
176
     1
  1
strokes_ogs.tif
176
     1
290
     0
176
     1
 40
1.0
176
     1
 40
1.0
176
     1
  0
VISUALSTYLE
  5
585
102
{ACAD_REACTORS
330
575
102
}
330
575
100
AcDbVisualStyle
  2
ColorChange
 70
    16
177
     3
291
     1
 70
    58
 90
        2
176
     1
 90
        2
176
     1
 90
        3
176
     1
 90
        0
176
     1
 40
0.6
176
     1
 40
30.0
176
     1
 62
     8
420
  8421504
176
     1
 90
        1
176
     1
 90
        4
176
     1
 62
     7
176
     1
 62
   257
176
     1
 90
        1
176
     1
 90
        1
176
     1
 40
1.0
176
     1
 90
        8
176
     1
 62
     8
420
  8421504
176
     1
 40
1.0
176
     1
 90
        1
176
     1
 90
        6
176
     1
 90
        2
176
     1
 62
     7
176
     1
 90
        5
176
     1
 90
        0
176
     1
 90
        0
176
     1
290
     0
176
     1
 90
        1
176
     1
 40
0.0
176
     1
 90
        0
176
     1
290
     0
176
     1
290
     1
176
     1
290
     1
176
     1
290
     0
176
     1
290
     0
176
     1
290
     0
176
     1
290
     0
176
     1
290
     0
176
     1
290
     0
176
     1
 90
       50
176
     1
 40
0.0
176
     1
 40
1.0
176
     1
 90
        0
176
     1
 62
    18
420
        0
176
     1
 90
       50
176
     1
 90
        3
176
     1
 62
     5
420
      255
176
     1
290
     0
176
     1
 90
       50
176
     1
 90
       50
176
     1
 90
       50
176
     1
290
     0
176
     1
 90
       50
176
     1
 62
   256
176
     0
 40
1.0
176
     0
 90
        2
176
     1
  1
strokes_ogs.tif
176
     1
290
     0
176
     1
 40
1.0
176
     1
 40
1.0
176
     1
  0
VISUALSTYLE
  5
57E
102
{ACAD_REACTORS
330
575
102
}
330
575
100
AcDbVisualStyle
  2
Conceptual
 70
     9
177
     3
291
     0
 70
    58
 90
        3
176
     1
 90
        2
176
     1
 90
        0
176
     1
 90
        0
176
     1
 40
0.6
176
     1
 40
30.0
176
     1
 62
     7
420
 16777215
176
     1
 90
        2
176
     1
 90
        2
176
     1
 62
     7
176
     1
 62
   257
176
     1
 90
        1
176
     1
 90
        1
176
     1
 40
40.0
176
     1
 90
        8
176
     1
 62
     7
176
     1
 40
1.0
176
     1
 90
        1
176
     1
 90
        6
176
     1
 90
        2
176
     1
 62
     7
176
     1
 90
        3
176
     1
 90
        0
176
     1
 90
        0
176
     1
290
     0
176
     1
 90
        1
176
     1
 40
0.0
176
     1
 90
        0
176
     1
290
     0
176
     1
290
     1
176
     1
290
     1
176
     1
290
     0
176
     1
290
     0
176
     1
290
     0
176
     1
290
     0
176
     1
290
     0
176
     1
290
     0
176
     1
 90
       50
176
     1
 40
0.0
176
     1
 40
1.0
176
     1
 90
        0
176
     1
 62
    18
420
        0
176
     1
 90
       50
176
     1
 90
        3
176
     1
 62
     5
420
      255
176
     1
290
     0
176
     1
 90
       50
176
     1
 90
       50
176
     1
 90
       50
176
     1
290
     0
176
     1
 90
       50
176
     1
 62
   256
176
     0
 40
1.0
176
     0
 90
        2
176
     1
  1
strokes_ogs.tif
176
     1
290
     0
176
     1
 40
1.0
176
     1
 40
1.0
176
     1
  0
VISUALSTYLE
  5
580
102
{ACAD_REACTORS
330
575
102
}
330
575
100
AcDbVisualStyle
  2
Dim
 70
    11
177
     3
291
     1
 70
    58
 90
        2
176
     1
 90
        2
176
     1
 90
        0
176
     1
 90
        0
176
     1
 40
0.6
176
     1
 40
30.0
176
     1
 62
     7
420
 16777215
176
     1
 90
        1
176
     1
 90
        4
176
     1
 62
     7
176
     1
 62
   257
176
     1
 90
        1
176
     1
 90
        1
176
     1
 40
1.0
176
     1
 90
        8
176
     1
 62
     7
176
     1
 40
1.0
176
     1
 90
        1
176
     1
 90
        6
176
     1
 90
        2
176
     1
 62
     7
176
     1
 90
        5
176
     1
 90
        0
176
     1
 90
        0
176
     1
290
     0
176
     1
 90
        1
176
     1
 40
-50.0
176
     1
 90
        0
176
     1
290
     0
176
     1
290
     1
176
     1
290
     1
176
     1
290
     0
176
     1
290
     0
176
     1
290
     0
176
     1
290
     0
176
     1
290
     0
176
     1
290
     0
176
     1
 90
       50
176
     1
 40
0.0
176
     1
 40
1.0
176
     1
 90
        0
176
     1
 62
    18
420
        0
176
     1
 90
       50
176
     1
 90
        3
176
     1
 62
     5
420
      255
176
     1
290
     0
176
     1
 90
       50
176
     1
 90
       50
176
     1
 90
       50
176
     1
290
     0
176
     1
 90
       50
176
     1
 62
   256
176
     0
 40
1.0
176
     0
 90
        2
176
     1
  1
strokes_ogs.tif
176
     1
290
     0
176
     1
 40
1.0
176
     1
 40
1.0
176
     1
  0
VISUALSTYLE
  5
5F5
102
{ACAD_REACTORS
330
575
102
}
330
575
100
AcDbVisualStyle
  2
EdgeColorOff
 70
    22
177
     3
291
     1
 70
    58
 90
        2
176
     0
 90
        2
176
     0
 90
        0
176
     0
 90
        0
176
     0
 40
0.6
176
     0
 40
30.0
176
     0
 62
     7
420
 16777215
176
     0
 90
        1
176
     0
 90
        4
176
     0
 62
     7
176
     0
 62
   257
176
     0
 90
        1
176
     0
 90
        1
176
     0
 40
1.0
176
     0
 90
        8
176
     2
 62
     7
176
     0
 40
1.0
176
     0
 90
        1
176
     0
 90
        6
176
     0
 90
        2
176
     0
 62
     7
176
     0
 90
        5
176
     0
 90
        0
176
     0
 90
        0
176
     0
290
     0
176
     0
 90
        1
176
     0
 40
0.0
176
     0
 90
        0
176
     0
290
     0
176
     0
290
     1
176
     0
290
     1
176
     0
290
     0
176
     0
290
     0
176
     0
290
     0
176
     0
290
     0
176
     0
290
     0
176
     0
290
     0
176
     0
 90
       50
176
     0
 40
0.0
176
     0
 40
1.0
176
     0
 90
        0
176
     0
 62
    18
420
        0
176
     0
 90
       50
176
     0
 90
        3
176
     0
 62
     5
420
      255
176
     0
290
     0
176
     0
 90
       50
176
     0
 90
       50
176
     0
 90
       50
176
     0
290
     0
176
     0
 90
       50
176
     0
 62
   256
176
     0
 40
1.0
176
     0
 90
        2
176
     0
  1
strokes_ogs.tif
176
     0
290
     0
176
     0
 40
1.0
176
     0
 40
1.0
176
     0
  0
VISUALSTYLE
  5
584
102
{ACAD_REACTORS
330
575
102
}
330
575
100
AcDbVisualStyle
  2
Facepattern
 70
    15
177
     3
291
     1
 70
    58
 90
        2
176
     1
 90
        2
176
     1
 90
        0
176
     1
 90
        0
176
     1
 40
0.6
176
     1
 40
30.0
176
     1
 62
     7
420
 16777215
176
     1
 90
        1
176
     1
 90
        4
176
     1
 62
     7
176
     1
 62
   257
176
     1
 90
        1
176
     1
 90
        1
176
     1
 40
1.0
176
     1
 90
        8
176
     1
 62
     7
176
     1
 40
1.0
176
     1
 90
        1
176
     1
 90
        6
176
     1
 90
        2
176
     1
 62
     7
176
     1
 90
        5
176
     1
 90
        0
176
     1
 90
        0
176
     1
290
     0
176
     1
 90
        1
176
     1
 40
0.0
176
     1
 90
        0
176
     1
290
     0
176
     1
290
     1
176
     1
290
     1
176
     1
290
     0
176
     1
290
     0
176
     1
290
     0
176
     1
290
     0
176
     1
290
     0
176
     1
290
     0
176
     1
 90
       50
176
     1
 40
0.0
176
     1
 40
1.0
176
     1
 90
        0
176
     1
 62
    18
420
        0
176
     1
 90
       50
176
     1
 90
        3
176
     1
 62
     5
420
      255
176
     1
290
     0
176
     1
 90
       50
176
     1
 90
       50
176
     1
 90
       50
176
     1
290
     0
176
     1
 90
       50
176
     1
 62
   256
176
     0
 40
1.0
176
     0
 90
        2
176
     1
  1
strokes_ogs.tif
176
     1
290
     0
176
     1
 40
1.0
176
     1
 40
1.0
176
     1
  0
VISUALSTYLE
  5
576
102
{ACAD_REACTORS
330
575
102
}
330
575
100
AcDbVisualStyle
  2
Flat
 70
     0
177
     3
291
     1
 70
    58
 90
        2
176
     1
 90
        1
176
     1
 90
        1
176
     1
 90
        2
176
     1
 40
0.6
176
     1
 40
30.0
176
     1
 62
     7
420
 16777215
176
     1
 90
        0
176
     1
 90
        4
176
     1
 62
     7
176
     1
 62
   257
176
     1
 90
        1
176
     1
 90
        1
176
     1
 40
1.0
176
     1
 90
        8
176
     1
 62
     7
176
     1
 40
1.0
176
     1
 90
        1
176
     1
 90
        6
176
     1
 90
        2
176
     1
 62
     7
176
     1
 90
        5
176
     1
 90
        0
176
     1
 90
        0
176
     1
290
     0
176
     1
 90
       13
176
     1
 40
0.0
176
     1
 90
        0
176
     1
290
     0
176
     1
290
     1
176
     1
290
     1
176
     1
290
     0
176
     1
290
     0
176
     1
290
     0
176
     1
290
     0
176
     1
290
     0
176
     1
290
     0
176
     1
 90
       50
176
     1
 40
0.0
176
     1
 40
1.0
176
     1
 90
        0
176
     1
 62
    18
420
        0
176
     1
 90
       50
176
     1
 90
        3
176
     1
 62
     5
420
      255
176
     1
290
     0
176
     1
 90
       50
176
     1
 90
       50
176
     1
 90
       50
176
     1
290
     0
176
     1
 90
       50
176
     1
 62
   256
176
     0
 40
1.0
176
     0
 90
        2
176
     1
  1
strokes_ogs.tif
176
     1
290
     0
176
     1
 40
1.0
176
     1
 40
1.0
176
     1
  0
VISUALSTYLE
  5
577
102
{ACAD_REACTORS
330
575
102
}
330
575
100
AcDbVisualStyle
  2
FlatWithEdges
 70
     1
177
     3
291
     1
 70
    58
 90
        2
176
     1
 90
        1
176
     1
 90
        1
176
     1
 90
        2
176
     1
 40
0.6
176
     1
 40
30.0
176
     1
 62
     7
420
 16777215
176
     1
 90
        1
176
     1
 90
        4
176
     1
 62
     7
176
     1
 62
   257
176
     1
 90
        1
176
     1
 90
        1
176
     1
 40
1.0
176
     1
 90
        0
176
     1
 62
   257
176
     1
 40
1.0
176
     1
 90
        1
176
     1
 90
        6
176
     1
 90
        2
176
     1
 62
     7
176
     1
 90
        5
176
     1
 90
        0
176
     1
 90
        0
176
     1
290
     0
176
     1
 90
       13
176
     1
 40
0.0
176
     1
 90
        0
176
     1
290
     0
176
     1
290
     1
176
     1
290
     1
176
     1
290
     0
176
     1
290
     0
176
     1
290
     0
176
     1
290
     0
176
     1
290
     0
176
     1
290
     0
176
     1
 90
       50
176
     1
 40
0.0
176
     1
 40
1.0
176
     1
 90
        0
176
     1
 62
    18
420
        0
176
     1
 90
       50
176
     1
 90
        3
176
     1
 62
     5
420
      255
176
     1
290
     0
176
     1
 90
       50
176
     1
 90
       50
176
     1
 90
       50
176
     1
290
     0
176
     1
 90
       50
176
     1
 62
   256
176
     0
 40
1.0
176
     0
 90
        2
176
     1
  1
strokes_ogs.tif
176
     1
290
     0
176
     1
 40
1.0
176
     1
 40
1.0
176
     1
  0
VISUALSTYLE
  5
578
102
{ACAD_REACTORS
330
575
102
}
330
575
100
AcDbVisualStyle
  2
Gouraud
 70
     2
177
     3
291
     1
 70
    58
 90
        2
176
     1
 90
        2
176
     1
 90
        1
176
     1
 90
        2
176
     1
 40
0.6
176
     1
 40
30.0
176
     1
 62
     7
420
 16777215
176
     1
 90
        0
176
     1
 90
        4
176
     1
 62
     7
176
     1
 62
   257
176
     1
 90
        1
176
     1
 90
        1
176
     1
 40
1.0
176
     1
 90
        0
176
     1
 62
     7
176
     1
 40
1.0
176
     1
 90
        1
176
     1
 90
        6
176
     1
 90
        2
176
     1
 62
     7
176
     1
 90
        5
176
     1
 90
        0
176
     1
 90
        0
176
     1
290
     0
176
     1
 90
       13
176
     1
 40
0.0
176
     1
 90
        0
176
     1
290
     0
176
     1
290
     1
176
     1
290
     1
176
     1
290
     0
176
     1
290
     0
176
     1
290
     0
176
     1
290
     0
176
     1
290
     0
176
     1
290
     0
176
     1
 90
       50
176
     1
 40
0.0
176
     1
 40
1.0
176
     1
 90
        0
176
     1
 62
    18
420
        0
176
     1
 90
       50
176
     1
 90
        3
176
     1
 62
     5
420
      255
176
     1
290
     0
176
     1
 90
       50
176
     1
 90
       50
176
     1
 90
       50
176
     1
290
     0
176
     1
 90
       50
176
     1
 62
   256
176
     0
 40
1.0
176
     0
 90
        2
176
     1
  1
strokes_ogs.tif
176
     1
290
     0
176
     1
 40
1.0
176
     1
 40
1.0
176
     1
  0
VISUALSTYLE
  5
579
102
{ACAD_REACTORS
330
575
102
}
330
575
100
AcDbVisualStyle
  2
GouraudWithEdges
 70
     3
177
     3
291
     1
 70
    58
 90
        2
176
     1
 90
        2
176
     1
 90
        1
176
     1
 90
        2
176
     1
 40
0.6
176
     1
 40
30.0
176
     1
 62
     7
420
 16777215
176
     1
 90
        1
176
     1
 90
        4
176
     1
 62
     7
176
     1
 62
   257
176
     1
 90
        1
176
     1
 90
        1
176
     1
 40
1.0
176
     1
 90
        0
176
     1
 62
   257
176
     1
 40
1.0
176
     1
 90
        1
176
     1
 90
        6
176
     1
 90
        2
176
     1
 62
     7
176
     1
 90
        5
176
     1
 90
        0
176
     1
 90
        0
176
     1
290
     0
176
     1
 90
       13
176
     1
 40
0.0
176
     1
 90
        0
176
     1
290
     0
176
     1
290
     1
176
     1
290
     1
176
     1
290
     0
176
     1
290
     0
176
     1
290
     0
176
     1
290
     0
176
     1
290
     0
176
     1
290
     0
176
     1
 90
       50
176
     1
 40
0.0
176
     1
 40
1.0
176
     1
 90
        0
176
     1
 62
    18
420
        0
176
     1
 90
       50
176
     1
 90
        3
176
     1
 62
     5
420
      255
176
     1
290
     0
176
     1
 90
       50
176
     1
 90
       50
176
     1
 90
       50
176
     1
290
     0
176
     1
 90
       50
176
     1
 62
   256
176
     0
 40
1.0
176
     0
 90
        2
176
     1
  1
strokes_ogs.tif
176
     1
290
     0
176
     1
 40
1.0
176
     1
 40
1.0
176
     1
  0
VISUALSTYLE
  5
5ED
102
{ACAD_REACTORS
330
575
102
}
330
575
100
AcDbVisualStyle
  2
Hidden
 70
     6
177
     3
291
     0
 70
    58
 90
        1
176
     1
 90
        2
176
     1
 90
        2
176
     1
 90
        0
176
     1
 40
0.6
176
     1
 40
30.0
176
     1
 62
     7
420
 16777215
176
     1
 90
        2
176
     1
 90
        2
176
     1
 62
     7
176
     1
 62
   257
176
     1
 90
        2
176
     1
 90
        1
176
     1
 40
40.0
176
     1
 90
        0
176
     1
 62
   257
176
     1
 40
1.0
176
     1
 90
        1
176
     1
 90
        6
176
     1
 90
        2
176
     1
 62
     7
176
     1
 90
        3
176
     1
 90
        0
176
     1
 90
        0
176
     1
290
     0
176
     1
 90
        1
176
     1
 40
0.0
176
     1
 90
        0
176
     1
290
     0
176
     1
290
     1
176
     1
290
     1
176
     1
290
     0
176
     1
290
     0
176
     1
290
     0
176
     1
290
     0
176
     1
290
     0
176
     1
290
     0
176
     1
 90
       50
176
     1
 40
0.0
176
     1
 40
1.0
176
     1
 90
        0
176
     1
 62
    18
420
        0
176
     1
 90
       50
176
     1
 90
        3
176
     1
 62
     5
420
      255
176
     1
290
     0
176
     1
 90
       50
176
     1
 90
       50
176
     1
 90
       50
176
     1
290
     0
176
     1
 90
       50
176
     1
 62
   256
176
     0
 40
1.0
176
     0
 90
        2
176
     1
  1
strokes_ogs.tif
176
     1
290
     0
176
     1
 40
1.0
176
     1
 40
1.0
176
     1
  0
VISUALSTYLE
  5
5F3
102
{ACAD_REACTORS
330
575
102
}
330
575
100
AcDbVisualStyle
  2
JitterOff
 70
    20
177
     3
291
     1
 70
    58
 90
        2
176
     0
 90
        2
176
     0
 90
        0
176
     0
 90
        0
176
     0
 40
0.6
176
     0
 40
30.0
176
     0
 62
     7
420
 16777215
176
     0
 90
        1
176
     0
 90
        4
176
     0
 62
     7
176
     0
 62
   257
176
     0
 90
        1
176
     0
 90
        1
176
     0
 40
1.0
176
     0
 90
       10
176
     2
 62
     7
176
     0
 40
1.0
176
     0
 90
        1
176
     0
 90
        6
176
     0
 90
        2
176
     0
 62
     7
176
     0
 90
        5
176
     0
 90
        0
176
     0
 90
        0
176
     0
290
     0
176
     0
 90
        1
176
     0
 40
0.0
176
     0
 90
        0
176
     0
290
     0
176
     0
290
     1
176
     0
290
     1
176
     0
290
     0
176
     0
290
     0
176
     0
290
     0
176
     0
290
     0
176
     0
290
     0
176
     0
290
     0
176
     0
 90
       50
176
     0
 40
0.0
176
     0
 40
1.0
176
     0
 90
        0
176
     0
 62
    18
420
        0
176
     0
 90
       50
176
     0
 90
        3
176
     0
 62
     5
420
      255
176
     0
290
     0
176
     0
 90
       50
176
     0
 90
       50
176
     0
 90
       50
176
     0
290
     0
176
     0
 90
       50
176
     0
 62
   256
176
     0
 40
1.0
176
     0
 90
        2
176
     0
  1
strokes_ogs.tif
176
     0
290
     0
176
     0
 40
1.0
176
     0
 40
1.0
176
     0
  0
VISUALSTYLE
  5
583
102
{ACAD_REACTORS
330
575
102
}
330
575
100
AcDbVisualStyle
  2
Linepattern
 70
    14
177
     3
291
     1
 70
    58
 90
        2
176
     1
 90
        2
176
     1
 90
        0
176
     1
 90
        0
176
     1
 40
0.6
176
     1
 40
30.0
176
     1
 62
     7
420
 16777215
176
     1
 90
        1
176
     1
 90
        4
176
     1
 62
     7
176
     1
 62
   257
176
     1
 90
        7
176
     1
 90
        7
176
     1
 40
1.0
176
     1
 90
        8
176
     1
 62
     7
176
     1
 40
1.0
176
     1
 90
        1
176
     1
 90
        6
176
     1
 90
        2
176
     1
 62
     7
176
     1
 90
        5
176
     1
 90
        0
176
     1
 90
        0
176
     1
290
     0
176
     1
 90
        1
176
     1
 40
0.0
176
     1
 90
        0
176
     1
290
     0
176
     1
290
     1
176
     1
290
     1
176
     1
290
     0
176
     1
290
     0
176
     1
290
     0
176
     1
290
     0
176
     1
290
     0
176
     1
290
     0
176
     1
 90
       50
176
     1
 40
0.0
176
     1
 40
1.0
176
     1
 90
        0
176
     1
 62
    18
420
        0
176
     1
 90
       50
176
     1
 90
        3
176
     1
 62
     5
420
      255
176
     1
290
     0
176
     1
 90
       50
176
     1
 90
       50
176
     1
 90
       50
176
     1
290
     0
176
     1
 90
       50
176
     1
 62
   256
176
     0
 40
1.0
176
     0
 90
        2
176
     1
  1
strokes_ogs.tif
176
     1
290
     0
176
     1
 40
1.0
176
     1
 40
1.0
176
     1
  0
VISUALSTYLE
  5
5F4
102
{ACAD_REACTORS
330
575
102
}
330
575
100
AcDbVisualStyle
  2
OverhangOff
 70
    21
177
     3
291
     1
 70
    58
 90
        2
176
     0
 90
        2
176
     0
 90
        0
176
     0
 90
        0
176
     0
 40
0.6
176
     0
 40
30.0
176
     0
 62
     7
420
 16777215
176
     0
 90
        1
176
     0
 90
        4
176
     0
 62
     7
176
     0
 62
   257
176
     0
 90
        1
176
     0
 90
        1
176
     0
 40
1.0
176
     0
 90
        9
176
     2
 62
     7
176
     0
 40
1.0
176
     0
 90
        1
176
     0
 90
        6
176
     0
 90
        2
176
     0
 62
     7
176
     0
 90
        5
176
     0
 90
        0
176
     0
 90
        0
176
     0
290
     0
176
     0
 90
        1
176
     0
 40
0.0
176
     0
 90
        0
176
     0
290
     0
176
     0
290
     1
176
     0
290
     1
176
     0
290
     0
176
     0
290
     0
176
     0
290
     0
176
     0
290
     0
176
     0
290
     0
176
     0
290
     0
176
     0
 90
       50
176
     0
 40
0.0
176
     0
 40
1.0
176
     0
 90
        0
176
     0
 62
    18
420
        0
176
     0
 90
       50
176
     0
 90
        3
176
     0
 62
     5
420
      255
176
     0
290
     0
176
     0
 90
       50
176
     0
 90
       50
176
     0
 90
       50
176
     0
290
     0
176
     0
 90
       50
176
     0
 62
   256
176
     0
 40
1.0
176
     0
 90
        2
176
     0
  1
strokes_ogs.tif
176
     0
290
     0
176
     0
 40
1.0
176
     0
 40
1.0
176
     0
  0
VISUALSTYLE
  5
57F
102
{ACAD_REACTORS
330
575
102
}
330
575
100
AcDbVisualStyle
  2
Realistic
 70
     8
177
     3
291
     0
 70
    58
 90
        2
176
     1
 90
        2
176
     1
 90
        0
176
     1
 90
        0
176
     1
 40
0.6
176
     1
 40
30.0
176
     1
 62
     7
420
 16777215
176
     1
 90
        1
176
     1
 90
        0
176
     1
 62
     7
176
     1
 62
   257
176
     1
 90
        1
176
     1
 90
        1
176
     1
 40
1.0
176
     1
 90
        8
176
     1
 62
     8
420
  7895160
176
     1
 40
1.0
176
     1
 90
        1
176
     1
 90
        6
176
     1
 90
        2
176
     1
 62
     7
176
     1
 90
        5
176
     1
 90
        0
176
     1
 90
        0
176
     1
290
     0
176
     1
 90
       13
176
     1
 40
0.0
176
     1
 90
        0
176
     1
290
     0
176
     1
290
     1
176
     1
290
     1
176
     1
290
     0
176
     1
290
     0
176
     1
290
     0
176
     1
290
     0
176
     1
290
     0
176
     1
290
     0
176
     1
 90
       50
176
     1
 40
0.0
176
     1
 40
1.0
176
     1
 90
        0
176
     1
 62
    18
420
        0
176
     1
 90
       50
176
     1
 90
        3
176
     1
 62
     5
420
      255
176
     1
290
     0
176
     1
 90
       50
176
     1
 90
       50
176
     1
 90
       50
176
     1
290
     0
176
     1
 90
       50
176
     1
 62
   256
176
     0
 40
1.0
176
     0
 90
        2
176
     1
  1
strokes_ogs.tif
176
     1
290
     0
176
     1
 40
1.0
176
     1
 40
1.0
176
     1
  0
VISUALSTYLE
  5
5F2
102
{ACAD_REACTORS
330
575
102
}
330
575
100
AcDbVisualStyle
  2
Shaded
 70
    27
177
     3
291
     0
 70
    58
 90
        2
176
     1
 90
        2
176
     1
 90
        1
176
     1
 90
        2
176
     1
 40
0.6
176
     1
 40
30.0
176
     1
 62
     7
420
 16777215
176
     1
 90
        0
176
     1
 90
        4
176
     1
 62
     7
176
     1
 62
   257
176
     1
 90
        1
176
     1
 90
        1
176
     1
 40
1.0
176
     1
 90
        8
176
     1
 62
   257
176
     1
 40
1.0
176
     1
 90
        1
176
     1
 90
        6
176
     1
 90
        2
176
     1
 62
     8
420
  7895160
176
     1
 90
        3
176
     1
 90
        0
176
     1
 90
        0
176
     1
290
     0
176
     1
 90
        5
176
     1
 40
0.0
176
     1
 90
        0
176
     1
290
     0
176
     1
290
     1
176
     1
290
     1
176
     1
290
     0
176
     1
290
     0
176
     1
290
     0
176
     1
290
     0
176
     1
290
     0
176
     1
290
     0
176
     1
 90
       50
176
     1
 40
0.0
176
     1
 40
1.0
176
     1
 90
        0
176
     1
 62
    18
420
        0
176
     1
 90
       50
176
     1
 90
        3
176
     1
 62
     5
420
      255
176
     1
290
     0
176
     1
 90
       50
176
     1
 90
       50
176
     1
 90
       50
176
     1
290
     0
176
     1
 90
       50
176
     1
 62
   256
176
     0
 40
1.0
176
     0
 90
        2
176
     1
  1
strokes_ogs.tif
176
     1
290
     0
176
     1
 40
1.0
176
     1
 40
1.0
176
     1
  0
VISUALSTYLE
  5
5F1
102
{ACAD_REACTORS
330
575
102
}
330
575
100
AcDbVisualStyle
  2
Shaded with edges
 70
    26
177
     3
291
     0
 70
    58
 90
        2
176
     1
 90
        2
176
     1
 90
        1
176
     1
 90
        2
176
     1
 40
0.6
176
     1
 40
30.0
176
     1
 62
     7
420
 16777215
176
     1
 90
        1
176
     1
 90
       10
176
     1
 62
     7
176
     1
 62
   257
176
     1
 90
        2
176
     1
 90
        1
176
     1
 40
1.0
176
     1
 90
        8
176
     1
 62
   257
176
     1
 40
1.0
176
     1
 90
        1
176
     1
 90
        6
176
     1
 90
        2
176
     1
 62
     7
176
     1
 90
        3
176
     1
 90
        0
176
     1
 90
        0
176
     1
290
     0
176
     1
 90
        5
176
     1
 40
0.0
176
     1
 90
        0
176
     1
290
     0
176
     1
290
     1
176
     1
290
     1
176
     1
290
     0
176
     1
290
     0
176
     1
290
     0
176
     1
290
     0
176
     1
290
     0
176
     1
290
     0
176
     1
 90
       50
176
     1
 40
0.0
176
     1
 40
1.0
176
     1
 90
        0
176
     1
 62
    18
420
        0
176
     1
 90
       50
176
     1
 90
        3
176
     1
 62
     5
420
      255
176
     1
290
     0
176
     1
 90
       50
176
     1
 90
       50
176
     1
 90
       50
176
     1
290
     0
176
     1
 90
       50
176
     1
 62
   256
176
     0
 40
1.0
176
     0
 90
        2
176
     1
  1
strokes_ogs.tif
176
     1
290
     0
176
     1
 40
1.0
176
     1
 40
1.0
176
     1
  0
VISUALSTYLE
  5
5EE
102
{ACAD_REACTORS
330
575
102
}
330
575
100
AcDbVisualStyle
  2
Shades of Gray
 70
    23
177
     3
291
     0
 70
    58
 90
        2
176
     1
 90
        2
176
     1
 90
        3
176
     1
 90
        0
176
     1
 40
0.6
176
     1
 40
30.0
176
     1
 62
     7
420
 16777215
176
     1
 90
        2
176
     1
 90
        2
176
     1
 62
     7
176
     1
 62
     7
176
     1
 90
        1
176
     1
 90
        1
176
     1
 40
40.0
176
     1
 90
        8
176
     1
 62
     7
176
     1
 40
1.0
176
     1
 90
        1
176
     1
 90
        6
176
     1
 90
        2
176
     1
 62
     7
176
     1
 90
        3
176
     1
 90
        0
176
     1
 90
        0
176
     1
290
     0
176
     1
 90
        1
176
     1
 40
0.0
176
     1
 90
        0
176
     1
290
     0
176
     1
290
     1
176
     1
290
     1
176
     1
290
     0
176
     1
290
     0
176
     1
290
     0
176
     1
290
     0
176
     1
290
     0
176
     1
290
     0
176
     1
 90
       50
176
     1
 40
0.0
176
     1
 40
1.0
176
     1
 90
        0
176
     1
 62
    18
420
        0
176
     1
 90
       50
176
     1
 90
        3
176
     1
 62
     5
420
      255
176
     1
290
     0
176
     1
 90
       50
176
     1
 90
       50
176
     1
 90
       50
176
     1
290
     0
176
     1
 90
       50
176
     1
 62
   256
176
     0
 40
1.0
176
     0
 90
        2
176
     1
  1
strokes_ogs.tif
176
     1
290
     0
176
     1
 40
1.0
176
     1
 40
1.0
176
     1
  0
VISUALSTYLE
  5
5EF
102
{ACAD_REACTORS
330
575
102
}
330
575
100
AcDbVisualStyle
  2
Sketchy
 70
    24
177
     3
291
     0
 70
    58
 90
        1
176
     1
 90
        2
176
     1
 90
        2
176
     1
 90
        0
176
     1
 40
0.6
176
     1
 40
30.0
176
     1
 62
     7
420
 16777215
176
     1
 90
        2
176
     1
 90
        2
176
     1
 62
     7
176
     1
 62
     7
176
     1
 90
        1
176
     1
 90
        1
176
     1
 40
40.0
176
     1
 90
       11
176
     1
 62
     7
176
     1
 40
1.0
176
     1
 90
        1
176
     1
 90
        6
176
     1
 90
        2
176
     1
 62
     7
176
     1
 90
        6
176
     1
 90
        0
176
     1
 90
        0
176
     1
290
     0
176
     1
 90
        1
176
     1
 40
0.0
176
     1
 90
        0
176
     1
290
     0
176
     1
290
     1
176
     1
290
     1
176
     1
290
     0
176
     1
290
     0
176
     1
290
     0
176
     1
290
     0
176
     1
290
     0
176
     1
290
     0
176
     1
 90
       50
176
     1
 40
0.0
176
     1
 40
1.0
176
     1
 90
        0
176
     1
 62
    18
420
        0
176
     1
 90
       50
176
     1
 90
        3
176
     1
 62
     5
420
      255
176
     1
290
     0
176
     1
 90
       50
176
     1
 90
       50
176
     1
 90
       50
176
     1
290
     0
176
     1
 90
       50
176
     1
 62
   256
176
     0
 40
1.0
176
     0
 90
        2
176
     1
  1
strokes_ogs.tif
176
     1
290
     0
176
     1
 40
1.0
176
     1
 40
1.0
176
     1
  0
VISUALSTYLE
  5
582
102
{ACAD_REACTORS
330
575
102
}
330
575
100
AcDbVisualStyle
  2
Thicken
 70
    13
177
     3
291
     1
 70
    58
 90
        2
176
     1
 90
        2
176
     1
 90
        0
176
     1
 90
        0
176
     1
 40
0.6
176
     1
 40
30.0
176
     1
 62
     7
420
 16777215
176
     1
 90
        1
176
     1
 90
        4
176
     1
 62
     7
176
     1
 62
   257
176
     1
 90
        1
176
     1
 90
        1
176
     1
 40
1.0
176
     1
 90
       12
176
     1
 62
     7
176
     1
 40
1.0
176
     1
 90
        1
176
     1
 90
        6
176
     1
 90
        2
176
     1
 62
     7
176
     1
 90
        5
176
     1
 90
        0
176
     1
 90
        0
176
     1
290
     0
176
     1
 90
        1
176
     1
 40
0.0
176
     1
 90
        0
176
     1
290
     0
176
     1
290
     1
176
     1
290
     1
176
     1
290
     0
176
     1
290
     0
176
     1
290
     0
176
     1
290
     0
176
     1
290
     0
176
     1
290
     0
176
     1
 90
       50
176
     1
 40
0.0
176
     1
 40
1.0
176
     1
 90
        0
176
     1
 62
    18
420
        0
176
     1
 90
       50
176
     1
 90
        3
176
     1
 62
     5
420
      255
176
     1
290
     0
176
     1
 90
       50
176
     1
 90
       50
176
     1
 90
       50
176
     1
290
     0
176
     1
 90
       50
176
     1
 62
   256
176
     0
 40
1.0
176
     0
 90
        2
176
     1
  1
strokes_ogs.tif
176
     1
290
     0
176
     1
 40
1.0
176
     1
 40
1.0
176
     1
  0
VISUALSTYLE
  5
5EC
102
{ACAD_REACTORS
330
575
102
}
330
575
100
AcDbVisualStyle
  2
Wireframe
 70
     5
177
     3
291
     0
 70
    58
 90
        0
176
     1
 90
        2
176
     1
 90
        0
176
     1
 90
        0
176
     1
 40
0.6
176
     1
 40
30.0
176
     1
 62
     7
420
 16777215
176
     1
 90
        1
176
     1
 90
        4
176
     1
 62
     7
176
     1
 62
   257
176
     1
 90
        1
176
     1
 90
        1
176
     1
 40
1.0
176
     1
 90
        0
176
     1
 62
   257
176
     1
 40
1.0
176
     1
 90
        1
176
     1
 90
        6
176
     1
 90
        2
176
     1
 62
     7
176
     1
 90
        3
176
     1
 90
        0
176
     1
 90
        0
176
     1
290
     0
176
     1
 90
        1
176
     1
 40
0.0
176
     1
 90
        0
176
     1
290
     0
176
     1
290
     1
176
     1
290
     1
176
     1
290
     0
176
     1
290
     0
176
     1
290
     0
176
     1
290
     0
176
     1
290
     0
176
     1
290
     0
176
     1
 90
       50
176
     1
 40
0.0
176
     1
 40
1.0
176
     1
 90
        0
176
     1
 62
    18
420
        0
176
     1
 90
       50
176
     1
 90
        3
176
     1
 62
     5
420
      255
176
     1
290
     0
176
     1
 90
       50
176
     1
 90
       50
176
     1
 90
       50
176
     1
290
     0
176
     1
 90
       50
176
     1
 62
   256
176
     0
 40
1.0
176
     0
 90
        2
176
     1
  1
strokes_ogs.tif
176
     1
290
     0
176
     1
 40
1.0
176
     1
 40
1.0
176
     1
  0
VISUALSTYLE
  5
5F0
102
{ACAD_REACTORS
330
575
102
}
330
575
100
AcDbVisualStyle
  2
X-Ray
 70
    25
177
     3
291
     0
 70
    58
 90
        2
176
     1
 90
        2
176
     1
 90
        1
176
     1
 90
        1
176
     1
 40
0.5
176
     1
 40
30.0
176
     1
 62
     7
420
 16777215
176
     1
 90
        1
176
     1
 90
        0
176
     1
 62
     7
176
     1
 62
   257
176
     1
 90
        1
176
     1
 90
        1
176
     1
 40
1.0
176
     1
 90
        8
176
     1
 62
     7
176
     1
 40
1.0
176
     1
 90
        1
176
     1
 90
        6
176
     1
 90
        2
176
     1
 62
     7
176
     1
 90
        3
176
     1
 90
        0
176
     1
 90
        0
176
     1
290
     0
176
     1
 90
       13
176
     1
 40
0.0
176
     1
 90
        0
176
     1
290
     0
176
     1
290
     1
176
     1
290
     1
176
     1
290
     0
176
     1
290
     0
176
     1
290
     0
176
     1
290
     0
176
     1
290
     0
176
     1
290
     0
176
     1
 90
       50
176
     1
 40
0.0
176
     1
 40
1.0
176
     1
 90
        0
176
     1
 62
    18
420
        0
176
     1
 90
       50
176
     1
 90
        3
176
     1
 62
     5
420
      255
176
     1
290
     0
176
     1
 90
       50
176
     1
 90
       50
176
     1
 90
       50
176
     1
290
     0
176
     1
 90
       50
176
     1
 62
   256
176
     0
 40
1.0
176
     0
 90
        2
176
     1
  1
strokes_ogs.tif
176
     1
290
     0
176
     1
 40
1.0
176
     1
 40
1.0
176
     1
  0
DICTIONARYVAR
  5
5CA
102
{ACAD_REACTORS
330
4FD
102
}
330
4FD
100
DictionaryVariables
280
     0
  1
1:1
  0
DICTIONARYVAR
  5
5C8
102
{ACAD_REACTORS
330
4FD
102
}
330
4FD
100
DictionaryVariables
280
     0
  1
STANDARD
  0
DICTIONARYVAR
  5
4FE
102
{ACAD_REACTORS
330
4FD
102
}
330
4FD
100
DictionaryVariables
280
     0
  1
STANDARD
  0
DICTIONARYVAR
  5
618
102
{ACAD_REACTORS
330
4FD
102
}
330
4FD
100
DictionaryVariables
280
     0
  1
Metric50
  0
DICTIONARYVAR
  5
619
102
{ACAD_REACTORS
330
4FD
102
}
330
4FD
100
DictionaryVariables
280
     0
  1
Metric50
  0
DICTIONARYVAR
  5
61A
102
{ACAD_REACTORS
330
4FD
102
}
330
4FD
100
DictionaryVariables
280
     0
  1
1
  0
DICTIONARYVAR
  5
61B
102
{ACAD_REACTORS
330
4FD
102
}
330
4FD
100
DictionaryVariables
280
     0
  1
15
  0
DICTIONARYVAR
  5
5CB
102
{ACAD_REACTORS
330
4FD
102
}
330
4FD
100
DictionaryVariables
280
     0
  1
0
  0
DICTIONARYVAR
  5
5C9
102
{ACAD_REACTORS
330
4FD
102
}
330
4FD
100
DictionaryVariables
280
     0
  1
0
  0
XRECORD
  5
973
102
{ACAD_REACTORS
330
972
102
}
330
972
100
AcDbXrecord
280
     1
330
851
330
0
330
95C
  0
DICTIONARY
  5
5314
330
968
100
AcDbDictionary
280
     1
281
     1
  3
ACAD_XREC_ROUNDTRIP
360
5315
  0
DICTIONARY
  5
5310
330
5F9
100
AcDbDictionary
280
     1
281
     1
  3
ACAD_XREC_ROUNDTRIP
360
5311
  0
DICTIONARY
  5
997
330
4BE
100
AcDbDictionary
280
     1
281
     1
  0
DICTIONARY
  5
566
330
565
100
AcDbDictionary
280
     1
281
     1
  3
BUMPTILE
360
568
  3
DIFFUSETILE
360
567
  3
OPACITYTILE
360
56B
  3
REFLECTIONTILE
360
56A
  3
REFRACTIONTILE
360
56C
  3
SPECULARTILE
360
569
  0
DICTIONARY
  5
55E
330
55D
100
AcDbDictionary
280
     1
281
     1
  3
BUMPTILE
360
560
  3
DIFFUSETILE
360
55F
  3
OPACITYTILE
360
563
  3
REFLECTIONTILE
360
562
  3
REFRACTIONTILE
360
564
  3
SPECULARTILE
360
561
  0
DICTIONARY
  5
56E
330
56D
100
AcDbDictionary
280
     1
281
     1
  3
BUMPTILE
360
570
  3
DIFFUSETILE
360
56F
  3
OPACITYTILE
360
573
  3
REFLECTIONTILE
360
572
  3
REFRACTIONTILE
360
574
  3
SPECULARTILE
360
571
  0
DICTIONARY
  5
5312
330
967
100
AcDbDictionary
280
     1
281
     1
  3
ACAD_XREC_ROUNDTRIP
360
5313
  0
DICTIONARY
  5
530E
330
5F7
100
AcDbDictionary
280
     1
281
     1
  3
ACAD_XREC_ROUNDTRIP
360
530F
  0
DICTIONARY
  5
5C5
330
4F6
100
AcDbDictionary
280
     1
281
     1
  3
ACAD_ROUNDTRIP_2008_TABLESTYLE_CELLSTYLEMAP
360
530D
  0
XRECORD
  5
5315
102
{ACAD_REACTORS
330
5314
102
}
330
5314
100
AcDbXrecord
280
     1
102
DISPLAYNAME
  1
Imperial24
102
FLAGS
 90
        0
  0
XRECORD
  5
5311
102
{ACAD_REACTORS
330
5310
102
}
330
5310
100
AcDbXrecord
280
     1
102
DISPLAYNAME
  1
Metric50
102
FLAGS
 90
        0
  0
XRECORD
  5
568
102
{ACAD_REACTORS
330
566
102
}
330
566
100
AcDbXrecord
280
     1
270
     1
271
     1
  0
XRECORD
  5
567
102
{ACAD_REACTORS
330
566
102
}
330
566
100
AcDbXrecord
280
     1
270
     1
271
     1
  0
XRECORD
  5
56B
102
{ACAD_REACTORS
330
566
102
}
330
566
100
AcDbXrecord
280
     1
270
     1
271
     1
  0
XRECORD
  5
56A
102
{ACAD_REACTORS
330
566
102
}
330
566
100
AcDbXrecord
280
     1
270
     1
271
     1
  0
XRECORD
  5
56C
102
{ACAD_REACTORS
330
566
102
}
330
566
100
AcDbXrecord
280
     1
270
     1
271
     1
  0
XRECORD
  5
569
102
{ACAD_REACTORS
330
566
102
}
330
566
100
AcDbXrecord
280
     1
270
     1
271
     1
  0
XRECORD
  5
560
102
{ACAD_REACTORS
330
55E
102
}
330
55E
100
AcDbXrecord
280
     1
270
     1
271
     1
  0
XRECORD
  5
55F
102
{ACAD_REACTORS
330
55E
102
}
330
55E
100
AcDbXrecord
280
     1
270
     1
271
     1
  0
XRECORD
  5
563
102
{ACAD_REACTORS
330
55E
102
}
330
55E
100
AcDbXrecord
280
     1
270
     1
271
     1
  0
XRECORD
  5
562
102
{ACAD_REACTORS
330
55E
102
}
330
55E
100
AcDbXrecord
280
     1
270
     1
271
     1
  0
XRECORD
  5
564
102
{ACAD_REACTORS
330
55E
102
}
330
55E
100
AcDbXrecord
280
     1
270
     1
271
     1
  0
XRECORD
  5
561
102
{ACAD_REACTORS
330
55E
102
}
330
55E
100
AcDbXrecord
280
     1
270
     1
271
     1
  0
XRECORD
  5
570
102
{ACAD_REACTORS
330
56E
102
}
330
56E
100
AcDbXrecord
280
     1
270
     1
271
     1
  0
XRECORD
  5
56F
102
{ACAD_REACTORS
330
56E
102
}
330
56E
100
AcDbXrecord
280
     1
270
     1
271
     1
  0
XRECORD
  5
573
102
{ACAD_REACTORS
330
56E
102
}
330
56E
100
AcDbXrecord
280
     1
270
     1
271
     1
  0
XRECORD
  5
572
102
{ACAD_REACTORS
330
56E
102
}
330
56E
100
AcDbXrecord
280
     1
270
     1
271
     1
  0
XRECORD
  5
574
102
{ACAD_REACTORS
330
56E
102
}
330
56E
100
AcDbXrecord
280
     1
270
     1
271
     1
  0
XRECORD
  5
571
102
{ACAD_REACTORS
330
56E
102
}
330
56E
100
AcDbXrecord
280
     1
270
     1
271
     1
  0
XRECORD
  5
5313
102
{ACAD_REACTORS
330
5312
102
}
330
5312
100
AcDbXrecord
280
     1
102
DISPLAYNAME
  1
Imperial24
102
FLAGS
 90
        0
  0
XRECORD
  5
530F
102
{ACAD_REACTORS
330
530E
102
}
330
530E
100
AcDbXrecord
280
     1
102
DISPLAYNAME
  1
Metric50
102
FLAGS
 90
        0
  0
CELLSTYLEMAP
  5
530D
102
{ACAD_REACTORS
330
5C5
102
}
330
5C5
100
AcDbCellStyleMap
 90
        3
300
CELLSTYLE
  1
TABLEFORMAT_BEGIN
 90
        5
170
     1
 91
        0
 92
    32768
 62
   257
 93
        1
300
CONTENTFORMAT
  1
CONTENTFORMAT_BEGIN
 90
        0
 91
        0
 92
        4
 93
        0
300

 40
0.0
140
1.0
 94
        5
 62
     0
340
10
144
6.0
309
CONTENTFORMAT_END
171
     1
301
MARGIN
  1
CELLMARGIN_BEGIN
 40
1.5
 40
1.5
 40
1.5
 40
1.5
 40
0.18
 40
0.18
309
CELLMARGIN_END
 94
        6
 95
        1
302
GRIDFORMAT
  1
GRIDFORMAT_BEGIN
 90
        0
 91
        1
 62
     0
 92
       -2
340
0
 93
        0
 40
0.045
309
GRIDFORMAT_END
 95
        2
302
GRIDFORMAT
  1
GRIDFORMAT_BEGIN
 90
        0
 91
        1
 62
     0
 92
       -2
340
0
 93
        0
 40
0.045
309
GRIDFORMAT_END
 95
        4
302
GRIDFORMAT
  1
GRIDFORMAT_BEGIN
 90
        0
 91
        1
 62
     0
 92
       -2
340
0
 93
        0
 40
0.045
309
GRIDFORMAT_END
 95
        8
302
GRIDFORMAT
  1
GRIDFORMAT_BEGIN
 90
        0
 91
        1
 62
     0
 92
       -2
340
0
 93
        0
 40
0.045
309
GRIDFORMAT_END
 95
       16
302
GRIDFORMAT
  1
GRIDFORMAT_BEGIN
 90
        0
 91
        1
 62
     0
 92
       -2
340
0
 93
        0
 40
0.045
309
GRIDFORMAT_END
 95
       32
302
GRIDFORMAT
  1
GRIDFORMAT_BEGIN
 90
        0
 91
        1
 62
     0
 92
       -2
340
0
 93
        0
 40
0.045
309
GRIDFORMAT_END
309
TABLEFORMAT_END
  1
CELLSTYLE_BEGIN
 90
        1
 91
        1
300
_TITLE
309
CELLSTYLE_END
300
CELLSTYLE
  1
TABLEFORMAT_BEGIN
 90
        5
170
     1
 91
        0
 92
        0
 62
   257
 93
        1
300
CONTENTFORMAT
  1
CONTENTFORMAT_BEGIN
 90
        0
 91
        0
 92
        4
 93
        0
300

 40
0.0
140
1.0
 94
        5
 62
     0
340
10
144
4.5
309
CONTENTFORMAT_END
171
     1
301
MARGIN
  1
CELLMARGIN_BEGIN
 40
1.5
 40
1.5
 40
1.5
 40
1.5
 40
0.18
 40
0.18
309
CELLMARGIN_END
 94
        6
 95
        1
302
GRIDFORMAT
  1
GRIDFORMAT_BEGIN
 90
        0
 91
        1
 62
     0
 92
       -2
340
0
 93
        0
 40
0.045
309
GRIDFORMAT_END
 95
        2
302
GRIDFORMAT
  1
GRIDFORMAT_BEGIN
 90
        0
 91
        1
 62
     0
 92
       -2
340
0
 93
        0
 40
0.045
309
GRIDFORMAT_END
 95
        4
302
GRIDFORMAT
  1
GRIDFORMAT_BEGIN
 90
        0
 91
        1
 62
     0
 92
       -2
340
0
 93
        0
 40
0.045
309
GRIDFORMAT_END
 95
        8
302
GRIDFORMAT
  1
GRIDFORMAT_BEGIN
 90
        0
 91
        1
 62
     0
 92
       -2
340
0
 93
        0
 40
0.045
309
GRIDFORMAT_END
 95
       16
302
GRIDFORMAT
  1
GRIDFORMAT_BEGIN
 90
        0
 91
        1
 62
     0
 92
       -2
340
0
 93
        0
 40
0.045
309
GRIDFORMAT_END
 95
       32
302
GRIDFORMAT
  1
GRIDFORMAT_BEGIN
 90
        0
 91
        1
 62
     0
 92
       -2
340
0
 93
        0
 40
0.045
309
GRIDFORMAT_END
309
TABLEFORMAT_END
  1
CELLSTYLE_BEGIN
 90
        2
 91
        1
300
_HEADER
309
CELLSTYLE_END
300
CELLSTYLE
  1
TABLEFORMAT_BEGIN
 90
        5
170
     1
 91
        0
 92
        0
 62
   257
 93
        1
300
CONTENTFORMAT
  1
CONTENTFORMAT_BEGIN
 90
        0
 91
        0
 92
        4
 93
        0
300

 40
0.0
140
1.0
 94
        2
 62
     0
340
10
144
4.5
309
CONTENTFORMAT_END
171
     1
301
MARGIN
  1
CELLMARGIN_BEGIN
 40
1.5
 40
1.5
 40
1.5
 40
1.5
 40
0.18
 40
0.18
309
CELLMARGIN_END
 94
        6
 95
        1
302
GRIDFORMAT
  1
GRIDFORMAT_BEGIN
 90
        0
 91
        1
 62
     0
 92
       -2
340
0
 93
        0
 40
0.045
309
GRIDFORMAT_END
 95
        2
302
GRIDFORMAT
  1
GRIDFORMAT_BEGIN
 90
        0
 91
        1
 62
     0
 92
       -2
340
0
 93
        0
 40
0.045
309
GRIDFORMAT_END
 95
        4
302
GRIDFORMAT
  1
GRIDFORMAT_BEGIN
 90
        0
 91
        1
 62
     0
 92
       -2
340
0
 93
        0
 40
0.045
309
GRIDFORMAT_END
 95
        8
302
GRIDFORMAT
  1
GRIDFORMAT_BEGIN
 90
        0
 91
        1
 62
     0
 92
       -2
340
0
 93
        0
 40
0.045
309
GRIDFORMAT_END
 95
       16
302
GRIDFORMAT
  1
GRIDFORMAT_BEGIN
 90
        0
 91
        1
 62
     0
 92
       -2
340
0
 93
        0
 40
0.045
309
GRIDFORMAT_END
 95
       32
302
GRIDFORMAT
  1
GRIDFORMAT_BEGIN
 90
        0
 91
        1
 62
     0
 92
       -2
340
0
 93
        0
 40
0.045
309
GRIDFORMAT_END
309
TABLEFORMAT_END
  1
CELLSTYLE_BEGIN
 90
        3
 91
        2
300
_DATA
309
CELLSTYLE_END
  0
ENDSEC
  0
SECTION
  2
ACDSDATA
 70
     2
 71
     6
  0
ACDSSCHEMA
 90
        0
  1
AcDb_Thumbnail_Schema
  2
AcDbDs::ID
280
    10
 91
        8
  2
Thumbnail_Data
280
    15
 91
        0
101
ACDSRECORD
 95
        0
 90
        1
  2
AcDbDs::TreatedAsObjectData
280
     1
291
     1
101
ACDSRECORD
 95
        0
 90
        2
  2
AcDbDs::Legacy
280
     1
291
     1
101
ACDSRECORD
  1
AcDbDs::ID
 90
        3
  2
AcDs:Indexable
280
     1
291
     1
101
ACDSRECORD
  1
AcDbDs::ID
 90
        4
  2
AcDbDs::HandleAttribute
280
     7
282
     1
  0
ACDSSCHEMA
 90
        1
  1
AcDbDs::TreatedAsObjectDataSchema
  2
AcDbDs::TreatedAsObjectData
280
     1
 91
        0
  0
ACDSSCHEMA
 90
        2
  1
AcDbDs::LegacySchema
  2
AcDbDs::Legacy
280
     1
 91
        0
  0
ACDSSCHEMA
 90
        3
  1
AcDbDs::IndexedPropertySchema
  2
AcDs:Indexable
280
     1
 91
        0
  0
ACDSSCHEMA
 90
        4
  1
AcDbDs::HandleAttributeSchema
  2
AcDbDs::HandleAttribute
280
     7
 91
        1
284
     1
  0
ACDSRECORD
 90
        0
  2
AcDbDs::ID
280
    10
320
4BE
  2
Thumbnail_Data
280
    15
 94
     1397
310
89504E470D0A1A0A0000000D4948445200000100000000890803000000F46416F000000300504C5445000000000000FFFFFF0000000000000000000000000000000000000000000000000000330000660000990000CC0000FF0033000033330033660033990033CC0033FF0066000066330066660066990066CC0066FF0099
310
000099330099660099990099CC0099FF00CC0000CC3300CC6600CC9900CCCC00CCFF00FF0000FF3300FF6600FF9900FFCC00FFFF3300003300333300663300993300CC3300FF3333003333333333663333993333CC3333FF3366003366333366663366993366CC3366FF3399003399333399663399993399CC3399FF33CC00
310
33CC3333CC6633CC9933CCCC33CCFF33FF0033FF3333FF6633FF9933FFCC33FFFF6600006600336600666600996600CC6600FF6633006633336633666633996633CC6633FF6666006666336666666666996666CC6666FF6699006699336699666699996699CC6699FF66CC0066CC3366CC6666CC9966CCCC66CCFF66FF0066
310
FF3366FF6666FF9966FFCC66FFFF9900009900339900669900999900CC9900FF9933009933339933669933999933CC9933FF9966009966339966669966999966CC9966FF9999009999339999669999999999CC9999FF99CC0099CC3399CC6699CC9999CCCC99CCFF99FF0099FF3399FF6699FF9999FFCC99FFFFCC0000CC00
310
33CC0066CC0099CC00CCCC00FFCC3300CC3333CC3366CC3399CC33CCCC33FFCC6600CC6633CC6666CC6699CC66CCCC66FFCC9900CC9933CC9966CC9999CC99CCCC99FFCCCC00CCCC33CCCC66CCCC99CCCCCCCCCCFFCCFF00CCFF33CCFF66CCFF99CCFFCCCCFFFFFF0000FF0033FF0066FF0099FF00CCFF00FFFF3300FF3333
310
FF3366FF3399FF33CCFF33FFFF6600FF6633FF6666FF6699FF66CCFF66FFFF9900FF9933FF9966FF9999FF99CCFF99FFFFCC00FFCC33FFCC66FFCC99FFCCCCFFCCFFFFFF00FFFF33FFFF66FFFF99FFFFCCFFFFFF0000000D0D0D1A1A1A2828283535354343435050505D5D5D6B6B6B787878868686939393A1A1A1AEAEAEBB
310
BBBBC9C9C9D6D6D6E4E4E4F1F1F1FFFFFF000000000000000000000000000000000000000000000000000000000000C11FEF66000002304944415478DAED9B4BAE84201000FB149E818D57F2E4DE80B5FB37200AA23C995F3234558913143552361F2123F269A61FBFDF7718122A2FB14FDD5ADAA1CF08400002108080EB07
310
369D0B309E775CB42D602D7D30D09980D961CC6CFCAFDF994F8C01951130E739A708D8CE18955681F946C09EAF55406EC014CAAF4A80B5564A064CA1FCCBF2AF006B1B33202503A690A34A80CD1E772E08488FEB8A80ACCE16041C22E34640E343E1F94AC0B16DD02D20296C4980DE6E308C084F02F201826E017212701A22
310
2A1720DBC0DF641F0009CA2744C643048C7D4D8820E054640420A04B01CB8A7A0197CB78AEA30B026EFABCDA3BB616016369A7932AF053F7430002108000042000010840C077B01F5FC6687B69AC3F0144008D200210800004F42DA092E1D1BF4D6E1B6E4E6C31026C604B49F21B32649035FF91D8E6CC1735552029A74D4A
310
7D12E093DA040CD5041977A73518015B6C2FEED56EDBE0FF26B5BE70B73C9456016DBDC0A172EF0292A36E79ECAA0D486855800FD9F0F99287F25EE54757BEFDBC2840AE04B4B83416DAB9E3834701A3EC02C2698A22E09946B012AD3342D58D606B3342D3C1464E4940D204486C385D4D686E46E825017B1B285140484E8D
310
4D0849B580EDD0D608FAF1C122AB009FF647D57E0DA602621508AFDD953F64B7FB3568E377DFBA5527D6CB5B15102B40ACED614C509B385EAE40C02BDDBE6D5FC0ED38A0731020000000000000000000000000000000000000000000000000000000000000000000F03E7F74B26C83A3AA1CF90000000049454E44AE426082
  0
ENDSEC
  0
EOF
