  0
SECTION
  2
HEADER
  9
$ACADVER
  1
AC1032
  9
$ACADMAINTVER
 90
       55
  9
$DWGCODEPAGE
  3
ANSI_932
  9
$LASTSAVEDBY
  1
K2013025
  9
$REQUIREDVERSIONS
160
                 0
  9
$INSBASE
 10
0.0
 20
0.0
 30
0.0
  9
$EXTMIN
 10
-562.1218281779038
 20
-742.101920117274
 30
-0.0000000000000058
  9
$EXTMAX
 10
487.0802661623993
 20
742.055004581437
 30
0.0000000000000104
  9
$LIMMIN
 10
0.0
 20
0.0
  9
$LIMMAX
 10
2100.0
 20
1485.0
  9
$ORTHOMODE
 70
     0
  9
$REGENMODE
 70
     1
  9
$FILLMODE
 70
     1
  9
$QTEXTMODE
 70
     0
  9
$MIRRTEXT
 70
     0
  9
$LTSCALE
 40
25.0
  9
$ATTMODE
 70
     1
  9
$TEXTSIZE
 40
15.0
  9
$TRACEWID
 40
1.0
  9
$TEXTSTYLE
  7
BIGFONT
  9
$CLAYER
  8
BALN
  9
$CELTYPE
  6
BYLAYER
  9
$CECOLOR
 62
     2
  9
$CELTSCALE
 40
1.0
  9
$DISPSILH
 70
     0
  9
$DIMSCALE
 40
5.0
  9
$DIMASZ
 40
1.5
  9
$DIMEXO
 40
0.0
  9
$DIMDLI
 40
6.0
  9
$DIMRND
 40
0.0
  9
$DIMDLE
 40
0.0
  9
$DIMEXE
 40
2.0
  9
$DIMTP
 40
495.0
  9
$DIMTM
 40
0.0
  9
$DIMTXT
 40
3.0
  9
$DIMCEN
 40
0.0
  9
$DIMTSZ
 40
0.0
  9
$DIMTOL
 70
     0
  9
$DIMLIM
 70
     0
  9
$DIMTIH
 70
     0
  9
$DIMTOH
 70
     0
  9
$DIMSE1
 70
     0
  9
$DIMSE2
 70
     0
  9
$DIMTAD
 70
     3
  9
$DIMZIN
 70
     8
  9
$DIMBLK
  1
OPEN
  9
$DIMASO
 70
     1
  9
$DIMSHO
 70
     1
  9
$DIMPOST
  1

  9
$DIMAPOST
  1

  9
$DIMALT
 70
     0
  9
$DIMALTD
 70
     2
  9
$DIMALTF
 40
25.4
  9
$DIMLFAC
 40
1.0
  9
$DIMTOFL
 70
     1
  9
$DIMTVP
 40
0.0
  9
$DIMTIX
 70
     0
  9
$DIMSOXD
 70
     0
  9
$DIMSAH
 70
     0
  9
$DIMBLK1
  1
OPEN
  9
$DIMBLK2
  1
OPEN
  9
$DIMSTYLE
  2
ITM
  9
$DIMCLRD
 70
     4
  9
$DIMCLRE
 70
     4
  9
$DIMCLRT
 70
   256
  9
$DIMTFAC
 40
1.0
  9
$DIMGAP
 40
0.6
  9
$DIMJUST
 70
     0
  9
$DIMSD1
 70
     0
  9
$DIMSD2
 70
     0
  9
$DIMTOLJ
 70
     0
  9
$DIMTZIN
 70
     8
  9
$DIMALTZ
 70
     0
  9
$DIMALTTZ
 70
     0
  9
$DIMUPT
 70
     1
  9
$DIMDEC
 70
     8
  9
$DIMTDEC
 70
     3
  9
$DIMALTU
 70
     2
  9
$DIMALTTD
 70
     2
  9
$DIMTXSTY
  7
BIGFONT
  9
$DIMAUNIT
 70
     0
  9
$DIMADEC
 70
     8
  9
$DIMALTRND
 40
0.0
  9
$DIMAZIN
 70
     2
  9
$DIMDSEP
 70
    46
  9
$DIMATFIT
 70
     3
  9
$DIMFRAC
 70
     0
  9
$DIMLDRBLK
  1
OPEN
  9
$DIMLUNIT
 70
     2
  9
$DIMLWD
 70
    -2
  9
$DIMLWE
 70
    -2
  9
$DIMTMOVE
 70
     0
  9
$DIMFXL
 40
1.0
  9
$DIMFXLON
 70
     0
  9
$DIMJOGANG
 40
0.7853981633974483
  9
$DIMTFILL
 70
     0
  9
$DIMTFILLCLR
 70
     0
  9
$DIMARCSYM
 70
     0
  9
$DIMLTYPE
  6

  9
$DIMLTEX1
  6

  9
$DIMLTEX2
  6

  9
$DIMTXTDIRECTION
 70
     0
  9
$LUNITS
 70
     2
  9
$LUPREC
 70
     8
  9
$SKETCHINC
 40
1.0
  9
$FILLETRAD
 40
0.0
  9
$AUNITS
 70
     0
  9
$AUPREC
 70
     8
  9
$MENU
  1
.
  9
$ELEVATION
 40
0.0
  9
$PELEVATION
 40
0.0
  9
$THICKNESS
 40
0.0
  9
$LIMCHECK
 70
     0
  9
$CHAMFERA
 40
10.0
  9
$CHAMFERB
 40
10.0
  9
$CHAMFERC
 40
0.0
  9
$CHAMFERD
 40
0.0
  9
$SKPOLY
 70
     0
  9
$TDCREATE
 40
2459268.470023149
  9
$TDUCREATE
 40
2459268.095023148
  9
$TDUPDATE
 40
2459275.558599538
  9
$TDUUPDATE
 40
2459275.183599537
  9
$TDINDWG
 40
0.1585995370
  9
$TDUSRTIMER
 40
0.1585995370
  9
$USRTIMER
 70
     1
  9
$ANGBASE
 50
0.0
  9
$ANGDIR
 70
     0
  9
$PDMODE
 70
     0
  9
$PDSIZE
 40
0.0
  9
$PLINEWID
 40
0.0
  9
$SPLFRAME
 70
     0
  9
$SPLINETYPE
 70
     6
  9
$SPLINESEGS
 70
     8
  9
$HANDSEED
  5
FC2
  9
$SURFTAB1
 70
     6
  9
$SURFTAB2
 70
     6
  9
$SURFTYPE
 70
     6
  9
$SURFU
 70
     6
  9
$SURFV
 70
     6
  9
$UCSBASE
  2

  9
$UCSNAME
  2

  9
$UCSORG
 10
0.0
 20
0.0
 30
0.0
  9
$UCSXDIR
 10
1.0
 20
0.0
 30
0.0
  9
$UCSYDIR
 10
0.0
 20
1.0
 30
0.0
  9
$UCSORTHOREF
  2

  9
$UCSORTHOVIEW
 70
     0
  9
$UCSORGTOP
 10
0.0
 20
0.0
 30
0.0
  9
$UCSORGBOTTOM
 10
0.0
 20
0.0
 30
0.0
  9
$UCSORGLEFT
 10
0.0
 20
0.0
 30
0.0
  9
$UCSORGRIGHT
 10
0.0
 20
0.0
 30
0.0
  9
$UCSORGFRONT
 10
0.0
 20
0.0
 30
0.0
  9
$UCSORGBACK
 10
0.0
 20
0.0
 30
0.0
  9
$PUCSBASE
  2

  9
$PUCSNAME
  2

  9
$PUCSORG
 10
0.0
 20
0.0
 30
0.0
  9
$PUCSXDIR
 10
1.0
 20
0.0
 30
0.0
  9
$PUCSYDIR
 10
0.0
 20
1.0
 30
0.0
  9
$PUCSORTHOREF
  2

  9
$PUCSORTHOVIEW
 70
     0
  9
$PUCSORGTOP
 10
0.0
 20
0.0
 30
0.0
  9
$PUCSORGBOTTOM
 10
0.0
 20
0.0
 30
0.0
  9
$PUCSORGLEFT
 10
0.0
 20
0.0
 30
0.0
  9
$PUCSORGRIGHT
 10
0.0
 20
0.0
 30
0.0
  9
$PUCSORGFRONT
 10
0.0
 20
0.0
 30
0.0
  9
$PUCSORGBACK
 10
0.0
 20
0.0
 30
0.0
  9
$USERI1
 70
     3
  9
$USERI2
 70
     1
  9
$USERI3
 70
     5
  9
$USERI4
 70
     2
  9
$USERI5
 70
     0
  9
$USERR1
 40
5.0
  9
$USERR2
 40
3.0
  9
$USERR3
 40
3.0
  9
$USERR4
 40
1.5
  9
$USERR5
 40
8.0
  9
$WORLDVIEW
 70
     1
  9
$SHADEDGE
 70
     3
  9
$SHADEDIF
 70
    70
  9
$TILEMODE
 70
     1
  9
$MAXACTVP
 70
    16
  9
$PINSBASE
 10
0.0
 20
0.0
 30
0.0
  9
$PLIMCHECK
 70
     0
  9
$PEXTMIN
 10
1.000000000000000E+20
 20
1.000000000000000E+20
 30
1.000000000000000E+20
  9
$PEXTMAX
 10
-1.000000000000000E+20
 20
-1.000000000000000E+20
 30
-1.000000000000000E+20
  9
$PLIMMIN
 10
0.0
 20
0.0
  9
$PLIMMAX
 10
420.0
 20
297.0
  9
$UNITMODE
 70
     0
  9
$VISRETAIN
 70
     0
  9
$PLINEGEN
 70
     0
  9
$PSLTSCALE
 70
     1
  9
$TREEDEPTH
 70
     0
  9
$CMLSTYLE
  2
STANDARD
  9
$CMLJUST
 70
     0
  9
$CMLSCALE
 40
1.0
  9
$PROXYGRAPHICS
 70
     1
  9
$MEASUREMENT
 70
     1
  9
$CELWEIGHT
370
    -1
  9
$ENDCAPS
280
     0
  9
$JOINSTYLE
280
     0
  9
$LWDISPLAY
290
     0
  9
$INSUNITS
 70
     0
  9
$HYPERLINKBASE
  1

  9
$STYLESHEET
  1
monochrome.ctb
  9
$XEDIT
290
     1
  9
$CEPSNTYPE
380
     0
  9
$PSTYLEMODE
290
     1
  9
$FINGERPRINTGUID
  2
{DCE86198-01A2-9A4C-BEBB-8F0390E7AC48}
  9
$VERSIONGUID
  2
{7D2A9C86-3FCF-9040-A50D-D746CAB10207}
  9
$EXTNAMES
290
     1
  9
$PSVPSCALE
 40
0.0
  9
$OLESTARTUP
290
     0
  9
$SORTENTS
280
   127
  9
$INDEXCTL
280
     0
  9
$HIDETEXT
280
     0
  9
$XCLIPFRAME
280
     0
  9
$HALOGAP
280
     0
  9
$OBSCOLOR
 70
   257
  9
$OBSLTYPE
280
     0
  9
$INTERSECTIONDISPLAY
280
     0
  9
$INTERSECTIONCOLOR
 70
   257
  9
$DIMASSOC
280
     1
  9
$PROJECTNAME
  1

  9
$CAMERADISPLAY
290
     0
  9
$LENSLENGTH
 40
50.0
  9
$CAMERAHEIGHT
 40
0.0
  9
$STEPSPERSEC
 40
2.0
  9
$STEPSIZE
 40
6.0
  9
$3DDWFPREC
 40
2.0
  9
$PSOLWIDTH
 40
0.25
  9
$PSOLHEIGHT
 40
4.0
  9
$LOFTANG1
 40
1.570796326794896
  9
$LOFTANG2
 40
1.570796326794896
  9
$LOFTMAG1
 40
0.0
  9
$LOFTMAG2
 40
0.0
  9
$LOFTPARAM
 70
     7
  9
$LOFTNORMALS
280
     1
  9
$LATITUDE
 40
37.795
  9
$LONGITUDE
 40
-122.394
  9
$NORTHDIRECTION
 40
0.0
  9
$TIMEZONE
 70
 -8000
  9
$LIGHTGLYPHDISPLAY
280
     1
  9
$TILEMODELIGHTSYNCH
280
     1
  9
$CMATERIAL
347
55D
  9
$SOLIDHIST
280
     1
  9
$SHOWHIST
280
     1
  9
$DWFFRAME
280
     2
  9
$DGNFRAME
280
     0
  9
$REALWORLDSCALE
290
     1
  9
$INTERFERECOLOR
 62
     1
  9
$INTERFEREOBJVS
345
57F
  9
$INTERFEREVPVS
346
5EC
  9
$CSHADOW
280
     0
  9
$SHADOWPLANELOCATION
 40
0.0
  0
ENDSEC
  0
SECTION
  2
CLASSES
  0
CLASS
  1
ACDBDICTIONARYWDFLT
  2
AcDbDictionaryWithDefault
  3
ObjectDBX Classes
 90
        0
 91
        1
280
     0
281
     0
  0
CLASS
  1
TABLESTYLE
  2
AcDbTableStyle
  3
ObjectDBX Classes
 90
     4095
 91
        1
280
     0
281
     0
  0
CLASS
  1
DICTIONARYVAR
  2
AcDbDictionaryVar
  3
ObjectDBX Classes
 90
        0
 91
        9
280
     0
281
     0
  0
CLASS
  1
MATERIAL
  2
AcDbMaterial
  3
ObjectDBX Classes
 90
     1153
 91
        3
280
     0
281
     0
  0
CLASS
  1
VISUALSTYLE
  2
AcDbVisualStyle
  3
ObjectDBX Classes
 90
     4095
 91
       26
280
     0
281
     0
  0
CLASS
  1
SCALE
  2
AcDbScale
  3
ObjectDBX Classes
 90
     1153
 91
       33
280
     0
281
     0
  0
CLASS
  1
MLEADERSTYLE
  2
AcDbMLeaderStyle
  3
ACDB_MLEADERSTYLE_CLASS
 90
     4095
 91
        1
280
     0
281
     0
  0
CLASS
  1
CELLSTYLEMAP
  2
AcDbCellStyleMap
  3
ObjectDBX Classes
 90
     1152
 91
        3
280
     0
281
     0
  0
CLASS
  1
ACDBSECTIONVIEWSTYLE
  2
AcDbSectionViewStyle
  3
ObjectDBX Classes
 90
     1025
 91
        2
280
     0
281
     0
  0
CLASS
  1
ACDBDETAILVIEWSTYLE
  2
AcDbDetailViewStyle
  3
ObjectDBX Classes
 90
     1025
 91
        2
280
     0
281
     0
  0
CLASS
  1
EXACXREFPANELOBJECT
  2
ExAcXREFPanelObject
  3
EXAC_ESW
 90
     1025
 91
        0
280
     0
281
     0
  0
CLASS
  1
NPOCOLLECTION
  2
AcDbImpNonPersistentObjectsCollection
  3
ObjectDBX Classes
 90
     1153
 91
        0
280
     0
281
     0
  0
CLASS
  1
SORTENTSTABLE
  2
AcDbSortentsTable
  3
ObjectDBX Classes
 90
        0
 91
        2
280
     0
281
     0
  0
ENDSEC
  0
SECTION
  2
TABLES
  0
TABLE
  2
VPORT
  5
8
330
0
100
AcDbSymbolTable
 70
     1
  0
VPORT
  5
55B
330
8
100
AcDbSymbolTableRecord
100
AcDbViewportTableRecord
  2
*Active
 70
     0
 10
0.0
 20
0.0
 11
1.0
 21
1.0
 12
-37.52078100775225
 22
-0.023457767918444
 13
0.0
 23
0.0
 14
10.0
 24
10.0
 15
10.0
 25
10.0
 16
0.0
 26
0.0
 36
1.0
 17
0.0
 27
0.0
 37
0.0
 40
1493.628112323835
 41
1.68769716088328
 42
50.0
 43
0.0
 44
0.0
 50
0.0
 51
0.0
 71
     0
 72
  1000
 73
     1
 74
     1
 75
     0
 76
     0
 77
     0
 78
     0
281
     0
 65
     1
110
0.0
120
0.0
130
0.0
111
1.0
121
0.0
131
0.0
112
0.0
122
1.0
132
0.0
 79
     0
146
0.0
348
57B
 60
     3
 61
     5
292
     1
282
     1
141
0.0
142
0.0
 63
   250
421
  3355443
1001
ACAD_NAV_VCDISPLAY
1070
     3
  0
ENDTAB
  0
TABLE
  2
LTYPE
  5
5
330
0
100
AcDbSymbolTable
 70
    17
  0
LTYPE
  5
14
330
5
100
AcDbSymbolTableRecord
100
AcDbLinetypeTableRecord
  2
BYBLOCK
 70
     0
  3

 72
    65
 73
     0
 40
0.0
  0
LTYPE
  5
15
330
5
100
AcDbSymbolTableRecord
100
AcDbLinetypeTableRecord
  2
BYLAYER
 70
     0
  3

 72
    65
 73
     0
 40
0.0
  0
LTYPE
  5
16
330
5
100
AcDbSymbolTableRecord
100
AcDbLinetypeTableRecord
  2
CONTINUOUS
 70
     0
  3
Solid line
 72
    65
 73
     0
 40
0.0
  0
LTYPE
  5
55
330
5
100
AcDbSymbolTableRecord
100
AcDbLinetypeTableRecord
  2
DASHED
 70
     0
  3
__ __ __ __ __ __ __ __ __ __ __ __ __ __ __
 72
    65
 73
     2
 40
0.75
 49
0.5
 74
     0
 49
-0.25
 74
     0
  0
LTYPE
  5
56
330
5
100
AcDbSymbolTableRecord
100
AcDbLinetypeTableRecord
  2
CENTER
 70
     0
  3
____ _ ____ _ ____ _ ____ _ ____ _ ____ _ ____
 72
    65
 73
     4
 40
2.0
 49
1.25
 74
     0
 49
-0.25
 74
     0
 49
0.25
 74
     0
 49
-0.25
 74
     0
  0
LTYPE
  5
57
330
5
100
AcDbSymbolTableRecord
100
AcDbLinetypeTableRecord
  2
PHANTOM
 70
     0
  3
_____ _ _ _____ _ _ _____ _ _ _____ _ _ ____
 72
    65
 73
     6
 40
2.5
 49
1.25
 74
     0
 49
-0.25
 74
     0
 49
0.25
 74
     0
 49
-0.25
 74
     0
 49
0.25
 74
     0
 49
-0.25
 74
     0
  0
LTYPE
  5
58
330
5
100
AcDbSymbolTableRecord
100
AcDbLinetypeTableRecord
  2
HIDDEN
 70
     0
  3
_ _ _ _ _ _ _ _ _ _ _ _ _ _ _ _ _ _ _ _ _ _ _
 72
    65
 73
     2
 40
0.375
 49
0.25
 74
     0
 49
-0.125
 74
     0
  0
LTYPE
  5
440
330
5
100
AcDbSymbolTableRecord
100
AcDbLinetypeTableRecord
  2
CONTINUOUS-S
 70
     0
  3
Solid line
 72
    65
 73
     0
 40
0.0
  0
LTYPE
  5
441
330
5
100
AcDbSymbolTableRecord
100
AcDbLinetypeTableRecord
  2
CONTINUOUS-F
 70
     0
  3
Solid line
 72
    65
 73
     0
 40
0.0
  0
LTYPE
  5
442
330
5
100
AcDbSymbolTableRecord
100
AcDbLinetypeTableRecord
  2
CENTER-F
 70
     0
  3
____ _ ____ _ ____ _ ____ _ ____ _ ____ _ ____
 72
    65
 73
     4
 40
2.0
 49
1.25
 74
     0
 49
-0.25
 74
     0
 49
0.25
 74
     0
 49
-0.25
 74
     0
  0
LTYPE
  5
443
330
5
100
AcDbSymbolTableRecord
100
AcDbLinetypeTableRecord
  2
PHANTOM-F
 70
     0
  3
_____ _ _ _____ _ _ _____ _ _ _____ _ _ ____
 72
    65
 73
     6
 40
2.5
 49
1.25
 74
     0
 49
-0.25
 74
     0
 49
0.25
 74
     0
 49
-0.25
 74
     0
 49
0.25
 74
     0
 49
-0.25
 74
     0
  0
LTYPE
  5
444
330
5
100
AcDbSymbolTableRecord
100
AcDbLinetypeTableRecord
  2
DASHED-F
 70
     0
  3
__ __ __ __ __ __ __ __ __ __ __ __ __ __ __
 72
    65
 73
     2
 40
0.75
 49
0.5
 74
     0
 49
-0.25
 74
     0
  0
LTYPE
  5
445
330
5
100
AcDbSymbolTableRecord
100
AcDbLinetypeTableRecord
  2
CONTINUOUS-C
 70
     0
  3
Solid line
 72
    65
 73
     0
 40
0.0
  0
LTYPE
  5
446
330
5
100
AcDbSymbolTableRecord
100
AcDbLinetypeTableRecord
  2
CENTER-C
 70
     0
  3
____ _ ____ _ ____ _ ____ _ ____ _ ____ _ ____
 72
    65
 73
     4
 40
2.0
 49
1.25
 74
     0
 49
-0.25
 74
     0
 49
0.25
 74
     0
 49
-0.25
 74
     0
  0
LTYPE
  5
447
330
5
100
AcDbSymbolTableRecord
100
AcDbLinetypeTableRecord
  2
PHANTOM-C
 70
     0
  3
_____ _ _ _____ _ _ _____ _ _ _____ _ _ ____
 72
    65
 73
     6
 40
2.5
 49
1.25
 74
     0
 49
-0.25
 74
     0
 49
0.25
 74
     0
 49
-0.25
 74
     0
 49
0.25
 74
     0
 49
-0.25
 74
     0
  0
LTYPE
  5
448
330
5
100
AcDbSymbolTableRecord
100
AcDbLinetypeTableRecord
  2
DASHED-C
 70
     0
  3
__ __ __ __ __ __ __ __ __ __ __ __ __ __ __
 72
    65
 73
     2
 40
0.75
 49
0.5
 74
     0
 49
-0.25
 74
     0
  0
LTYPE
  5
449
330
5
100
AcDbSymbolTableRecord
100
AcDbLinetypeTableRecord
  2
CENTER-S
 70
     0
  3
____ _ ____ _ ____ _ ____ _ ____ _ ____ _ ____
 72
    65
 73
     4
 40
2.0
 49
1.25
 74
     0
 49
-0.25
 74
     0
 49
0.25
 74
     0
 49
-0.25
 74
     0
  0
LTYPE
  5
44A
330
5
100
AcDbSymbolTableRecord
100
AcDbLinetypeTableRecord
  2
PHANTOM-S
 70
     0
  3
_____ _ _ _____ _ _ _____ _ _ _____ _ _ ____
 72
    65
 73
     6
 40
2.5
 49
1.25
 74
     0
 49
-0.25
 74
     0
 49
0.25
 74
     0
 49
-0.25
 74
     0
 49
0.25
 74
     0
 49
-0.25
 74
     0
  0
LTYPE
  5
44B
330
5
100
AcDbSymbolTableRecord
100
AcDbLinetypeTableRecord
  2
DASHED-S
 70
     0
  3
__ __ __ __ __ __ __ __ __ __ __ __ __ __ __
 72
    65
 73
     2
 40
0.75
 49
0.5
 74
     0
 49
-0.25
 74
     0
  0
ENDTAB
  0
TABLE
  2
LAYER
  5
2
102
{ACAD_XDICTIONARY
360
60C
102
}
330
0
100
AcDbSymbolTable
 70
    10
  0
LAYER
  5
F
102
{ACAD_XDICTIONARY
360
5D5
102
}
330
2
100
AcDbSymbolTableRecord
100
AcDbLayerTableRecord
  2
0
 70
     4
 62
     7
  6
CONTINUOUS
370
    -3
390
4BB
347
56D
348
0
  0
LAYER
  5
42B
330
2
100
AcDbSymbolTableRecord
100
AcDbLayerTableRecord
  2
DEFPOINTS
 70
     4
 62
     7
  6
CONTINUOUS
290
     0
370
    -3
390
4BB
347
56D
348
0
  0
LAYER
  5
44C
102
{ACAD_XDICTIONARY
360
5D7
102
}
330
2
100
AcDbSymbolTableRecord
100
AcDbLayerTableRecord
  2
BALN
 70
     0
 62
     7
  6
CONTINUOUS
370
    -3
390
4BB
347
56D
348
0
1001
LAYTOOL
1070
     1
  0
LAYER
  5
C37
102
{ACAD_XDICTIONARY
360
C38
102
}
330
2
100
AcDbSymbolTableRecord
100
AcDbLayerTableRecord
  2
GAIKEI
 70
     0
 62
     2
  6
CONTINUOUS
370
    -3
390
4BB
347
56D
348
0
  0
LAYER
  5
C39
102
{ACAD_XDICTIONARY
360
C3A
102
}
330
2
100
AcDbSymbolTableRecord
100
AcDbLayerTableRecord
  2
LIST
 70
     0
 62
     7
  6
CONTINUOUS
370
    -3
390
4BB
347
56D
348
0
1001
LAYTOOL
1000
20031112.11165
1070
    16
  0
LAYER
  5
EDB
102
{ACAD_XDICTIONARY
360
EDC
102
}
330
2
100
AcDbSymbolTableRecord
100
AcDbLayerTableRecord
  2
201689
 70
     0
 62
     7
  6
CONTINUOUS
370
    -3
390
4BB
347
56D
348
0
  0
LAYER
  5
EDD
102
{ACAD_XDICTIONARY
360
EDE
102
}
330
2
100
AcDbSymbolTableRecord
100
AcDbLayerTableRecord
  2
601106
 70
     0
 62
     7
  6
CONTINUOUS
370
    -3
390
4BB
347
56D
348
0
1001
AcAecLayerStandard
1000

1000

  0
LAYER
  5
EDF
102
{ACAD_XDICTIONARY
360
EE0
102
}
330
2
100
AcDbSymbolTableRecord
100
AcDbLayerTableRecord
  2
420924
 70
     0
 62
     7
  6
CONTINUOUS
370
    -3
390
4BB
347
56D
348
0
  0
LAYER
  5
EE1
102
{ACAD_XDICTIONARY
360
EE2
102
}
330
2
100
AcDbSymbolTableRecord
100
AcDbLayerTableRecord
  2
420861
 70
     0
 62
     7
  6
CONTINUOUS
370
    -3
390
4BB
347
56D
348
0
  0
LAYER
  5
EE3
330
2
100
AcDbSymbolTableRecord
100
AcDbLayerTableRecord
  2
421851
 70
     0
 62
     7
  6
CONTINUOUS
370
    -3
390
4BB
347
56D
348
0
  0
ENDTAB
  0
TABLE
  2
STYLE
  5
3
330
0
100
AcDbSymbolTable
 70
     4
  0
STYLE
  5
10
330
3
100
AcDbSymbolTableRecord
100
AcDbTextStyleTableRecord
  2
STANDARD
 70
     0
 40
0.0
 41
0.833
 50
0.0
 71
     0
 42
2.5
  3
ROMANS.shx
  4
bigfont.shx
  0
STYLE
  5
2CC
330
3
100
AcDbSymbolTableRecord
100
AcDbTextStyleTableRecord
  2
BIGFONT
 70
     0
 40
0.0
 41
0.833
 50
0.0
 71
     0
 42
15.0
  3
ROMANS.shx
  4
bigfont.shx
  0
STYLE
  5
C3B
330
3
100
AcDbSymbolTableRecord
100
AcDbTextStyleTableRecord
  2
K
 70
     0
 40
0.0
 41
0.833
 50
0.0
 71
     0
 42
3.0
  3
ROMANS.shx
  4
bigfont.shx
  0
ENDTAB
  0
TABLE
  2
VIEW
  5
6
330
0
100
AcDbSymbolTable
 70
     1
  0
ENDTAB
  0
TABLE
  2
UCS
  5
7
330
0
100
AcDbSymbolTable
 70
     0
  0
ENDTAB
  0
TABLE
  2
APPID
  5
9
330
0
100
AcDbSymbolTable
 70
    14
  0
APPID
  5
11
330
9
100
AcDbSymbolTableRecord
100
AcDbRegAppTableRecord
  2
ACAD
 70
     0
  0
APPID
  5
24D
330
9
100
AcDbSymbolTableRecord
100
AcDbRegAppTableRecord
  2
LAYTOOL
 70
     0
  0
APPID
  5
260
330
9
100
AcDbSymbolTableRecord
100
AcDbRegAppTableRecord
  2
EXPFLAG
 70
     0
  0
APPID
  5
508
330
9
100
AcDbSymbolTableRecord
100
AcDbRegAppTableRecord
  2
AcAecLayerStandard
 70
     0
  0
APPID
  5
512
330
9
100
AcDbSymbolTableRecord
100
AcDbRegAppTableRecord
  2
ACAD_DSTYLE_DIMTEXT_FILL
 70
     0
  0
APPID
  5
5AA
330
9
100
AcDbSymbolTableRecord
100
AcDbRegAppTableRecord
  2
ACAD_MLEADERVER
 70
     0
  0
APPID
  5
5C4
330
9
100
AcDbSymbolTableRecord
100
AcDbRegAppTableRecord
  2
ACAD_PSEXT
 70
     0
  0
APPID
  5
605
330
9
100
AcDbSymbolTableRecord
100
AcDbRegAppTableRecord
  2
ACAD_DSTYLE_DIMJAG
 70
     0
  0
APPID
  5
606
330
9
100
AcDbSymbolTableRecord
100
AcDbRegAppTableRecord
  2
ACAD_DSTYLE_DIMBREAK
 70
     0
  0
APPID
  5
607
330
9
100
AcDbSymbolTableRecord
100
AcDbRegAppTableRecord
  2
ACAD_DSTYLE_DIMTALN
 70
     0
  0
APPID
  5
612
330
9
100
AcDbSymbolTableRecord
100
AcDbRegAppTableRecord
  2
ACAD_NAV_VCDISPLAY
 70
     0
  0
APPID
  5
7A2
330
9
100
AcDbSymbolTableRecord
100
AcDbRegAppTableRecord
  2
DCO15
 70
     0
  0
APPID
  5
A0F
330
9
100
AcDbSymbolTableRecord
100
AcDbRegAppTableRecord
  2
ACAD_EXEMPT_FROM_CAD_STANDARDS
 70
     0
  0
APPID
  5
C3C
330
9
100
AcDbSymbolTableRecord
100
AcDbRegAppTableRecord
  2
ACAD_DSTYLE_DIMRADIAL_EXTENSION
 70
     0
  0
ENDTAB
  0
TABLE
  2
DIMSTYLE
  5
A
330
0
100
AcDbSymbolTable
 70
     4
100
AcDbDimStyleTable
 71
     1
340
93
  0
DIMSTYLE
105
1D
330
A
100
AcDbSymbolTableRecord
100
AcDbDimStyleTableRecord
  2
STANDARD
 70
     0
340
10
  0
DIMSTYLE
105
93
102
{ACAD_REACTORS
330
CF3
330
CF4
330
CF5
330
CF6
102
}
330
A
100
AcDbSymbolTableRecord
100
AcDbDimStyleTableRecord
  2
ITM
 70
     0
 40
5.0
 41
1.5
 42
0.0
 43
6.0
 44
2.0
 47
495.0
 73
     0
 74
     0
 77
     3
 78
     8
 79
     2
140
3.0
141
0.0
147
0.6
172
     1
176
     4
177
     4
178
   256
179
     3
271
     3
272
     3
283
     0
284
     8
288
     1
340
2CC
341
4A1
342
4A1
343
4A1
344
4A1
  0
DIMSTYLE
105
B89
330
A
100
AcDbSymbolTableRecord
100
AcDbDimStyleTableRecord
  2
ITM$4
 70
     0
 40
5.0
 41
1.5
 42
0.0
 43
6.0
 44
2.0
 47
495.0
 73
     0
 74
     0
 75
     1
 77
     3
 78
     8
 79
     2
140
3.0
141
0.0
147
0.6
172
     1
176
     4
177
     4
178
   256
179
     8
271
     8
272
     3
283
     0
284
     8
288
     1
340
2CC
341
4A1
342
4A1
343
4A1
344
4A1
  0
ENDTAB
  0
TABLE
  2
BLOCK_RECORD
  5
1
330
0
100
AcDbSymbolTable
 70
    14
  0
BLOCK_RECORD
  5
1A
102
{ACAD_XDICTIONARY
360
768
102
}
330
1
100
AcDbSymbolTableRecord
100
AcDbBlockTableRecord
  2
*MODEL_SPACE
340
4BE
 70
     0
280
     1
281
     0
  0
BLOCK_RECORD
  5
17
330
1
100
AcDbSymbolTableRecord
100
AcDbBlockTableRecord
  2
*PAPER_SPACE
340
4BF
 70
     0
280
     1
281
     0
  0
BLOCK_RECORD
  5
484
330
1
100
AcDbSymbolTableRecord
100
AcDbBlockTableRecord
  2
S36
340
0
102
{BLKREFS
331
CDB
102
}
 70
     0
280
     1
281
     0
  0
BLOCK_RECORD
  5
4A1
330
1
100
AcDbSymbolTableRecord
100
AcDbBlockTableRecord
  2
_OPEN
340
0
102
{BLKREFS
331
DB3
331
DB4
331
DBA
331
DBB
331
DC3
331
DC4
331
ED4
331
ED5
331
DA9
331
DAA
102
}
 70
     0
280
     1
281
     0
  0
BLOCK_RECORD
  5
A17
330
1
100
AcDbSymbolTableRecord
100
AcDbBlockTableRecord
  2
株式会社ＫＶＫ
340
0
310
2800000020000000200000000100080000000000000400000000000000000000000000000000000000000000000080000080000000808000800000008000800080800000C0C0C000C0DCC000F0CAA6000020400000206000002080000020A0000020C0000020E00000400000004020000040400000406000004080000040A0
310
000040C0000040E00000600000006020000060400000606000006080000060A0000060C0000060E00000800000008020000080400000806000008080000080A0000080C0000080E00000A0000000A0200000A0400000A0600000A0800000A0A00000A0C00000A0E00000C0000000C0200000C0400000C0600000C0800000C0
310
A00000C0C00000C0E00000E0000000E0200000E0400000E0600000E0800000E0A00000E0C00000E0E00040000000400020004000400040006000400080004000A0004000C0004000E00040200000402020004020400040206000402080004020A0004020C0004020E000404000004040200040404000404060004040800040
310
40A0004040C0004040E00040600000406020004060400040606000406080004060A0004060C0004060E00040800000408020004080400040806000408080004080A0004080C0004080E00040A0000040A0200040A0400040A0600040A0800040A0A00040A0C00040A0E00040C0000040C0200040C0400040C0600040C08000
310
40C0A00040C0C00040C0E00040E0000040E0200040E0400040E0600040E0800040E0A00040E0C00040E0E00080000000800020008000400080006000800080008000A0008000C0008000E00080200000802020008020400080206000802080008020A0008020C0008020E00080400000804020008040400080406000804080
310
008040A0008040C0008040E00080600000806020008060400080606000806080008060A0008060C0008060E00080800000808020008080400080806000808080008080A0008080C0008080E00080A0000080A0200080A0400080A0600080A0800080A0A00080A0C00080A0E00080C0000080C0200080C0400080C0600080C0
310
800080C0A00080C0C00080C0E00080E0000080E0200080E0400080E0600080E0800080E0A00080E0C00080E0E000C0000000C0002000C0004000C0006000C0008000C000A000C000C000C000E000C0200000C0202000C0204000C0206000C0208000C020A000C020C000C020E000C0400000C0402000C0404000C0406000C0
310
408000C040A000C040C000C040E000C0600000C0602000C0604000C0606000C0608000C060A000C060C000C060E000C0800000C0802000C0804000C0806000C0808000C080A000C080C000C080E000C0A00000C0A02000C0A04000C0A06000C0A08000C0A0A000C0A0C000C0A0E000C0C00000C0C02000C0C04000C0C06000
310
C0C08000C0C0A000F0FBFF00A4A0A000808080000000FF0000FF000000FFFF00FF000000FF00FF00FFFF0000FFFFFF0000000000000000000000000000000000000000000000000000000000000000000000000000000000000000000000000000000000000000000000000000000000000000000000000000000000000000
310
00000000000000000000000000000000000000000000000000000000000000000000000000000000000000000000000000000000000000000000000000000000000000000000000000000000000000000000000000000000000000000000000000000000000000000000000000000000000000000000000000000000000000
310
00000000000000000000000000000000000000000000000000000000000000000000000000000000000000000000000000000000000000000000000000000000000000000000000000000000000000000000000000000000000000000000000000000000000000000000000000000000000000000000000000000000000000
310
000000000000000000000000000000000000000000000000000000000000000000000000000000000000000000000000000000000000000000000000000000000000000000000000000000000000000000000000000000000000000000000000000000000000000000000000000000000000000000FFFFFFFFFFFFFFFFFFFF
310
FFFFFFFFFFFF00FFFFFFFFFFFF00FFFFFFFFFF000000FFFFFFFFFFFFFFFFFFFFFFFFFFFFFFFF00FFFFFF00FFFFFFFFFFFFFF00000000FFFFFFFFFFFFFFFFFFFFFFFFFFFFFFFF00FFFFFFFFFFFFFFFFFFFFFF00000000FFFFFFFFFFFFFFFF00FFFFFFFFFFFFFF00FFFFFFFFFFFFFFFFFFFFFF00000000000000000000000000
310
00000000000000000000000000000000000000000000000000000000000000000000000000000000000000000000000000000000000000000000000000000000000000000000000000000000000000000000000000000000000000000000000000000000000000000000000000000000000000000000000000000000000000
310
00000000000000000000000000000000000000000000000000000000000000000000000000000000000000000000000000000000000000000000000000000000000000000000000000000000000000000000000000000000000000000000000000000000000000000000000000000000000000000000000000000000000000
310
00000000000000000000000000000000000000000000000000000000000000000000000000000000000000000000000000000000000000000000000000000000000000000000000000000000000000000000000000000000000000000000000000000000000000000000000000000000000000000000000000000000000000
310
0000000000000000000000000000000000000000000000000000000000000000000000000000000000000000000000000000000000000000
102
{BLKREFS
331
B35
102
}
 70
     4
280
     1
281
     0
  0
BLOCK_RECORD
  5
BEE
330
1
100
AcDbSymbolTableRecord
100
AcDbBlockTableRecord
  2
S25
340
0
 70
     0
280
     1
281
     0
  0
BLOCK_RECORD
  5
BF6
330
1
100
AcDbSymbolTableRecord
100
AcDbBlockTableRecord
  2
S2
340
0
 70
     0
280
     1
281
     0
  0
BLOCK_RECORD
  5
BFD
330
1
100
AcDbSymbolTableRecord
100
AcDbBlockTableRecord
  2
S1
340
0
 70
     0
280
     1
281
     0
  0
BLOCK_RECORD
  5
C33
330
1
100
AcDbSymbolTableRecord
100
AcDbBlockTableRecord
  2
S60
340
0
 70
     0
280
     1
281
     0
  0
BLOCK_RECORD
  5
D31
330
1
100
AcDbSymbolTableRecord
100
AcDbBlockTableRecord
  2
*D7
340
0
 70
     0
280
     1
281
     0
  0
BLOCK_RECORD
  5
D3D
330
1
100
AcDbSymbolTableRecord
100
AcDbBlockTableRecord
  2
*D8
340
0
 70
     0
280
     1
281
     0
  0
BLOCK_RECORD
  5
D48
330
1
100
AcDbSymbolTableRecord
100
AcDbBlockTableRecord
  2
*D9
340
0
 70
     0
280
     1
281
     0
  0
BLOCK_RECORD
  5
D54
330
1
100
AcDbSymbolTableRecord
100
AcDbBlockTableRecord
  2
*D10
340
0
 70
     0
280
     1
281
     0
  0
BLOCK_RECORD
  5
ECF
330
1
100
AcDbSymbolTableRecord
100
AcDbBlockTableRecord
  2
*D11
340
0
 70
     0
280
     1
281
     0
  0
BLOCK_RECORD
  5
EE4
102
{ACAD_XDICTIONARY
360
F56
102
}
330
1
100
AcDbSymbolTableRecord
100
AcDbBlockTableRecord
  2
A$C5a874807
340
0
 70
     0
280
     1
281
     0
  0
ENDTAB
  0
ENDSEC
  0
SECTION
  2
BLOCKS
  0
BLOCK
  5
1B
330
1A
100
AcDbEntity
  8
0
100
AcDbBlockBegin
  2
*MODEL_SPACE
 70
     0
 10
0.0
 20
0.0
 30
0.0
  3
*MODEL_SPACE
  1

  0
ENDBLK
  5
1C
330
1A
100
AcDbEntity
  8
0
100
AcDbBlockEnd
  0
BLOCK
  5
18
330
17
100
AcDbEntity
 67
     1
  8
0
100
AcDbBlockBegin
  2
*PAPER_SPACE
 70
     0
 10
0.0
 20
0.0
 30
0.0
  3
*PAPER_SPACE
  1

  0
ENDBLK
  5
19
330
17
100
AcDbEntity
 67
     1
  8
0
100
AcDbBlockEnd
  0
BLOCK
  5
488
330
484
100
AcDbEntity
  8
0
 62
     2
100
AcDbBlockBegin
  2
S36
 70
     0
 10
0.0
 20
0.0
 30
0.0
  3
S36
  1

  0
TEXT
  5
485
330
484
100
AcDbEntity
  8
BALN
100
AcDbText
 10
23.75
 20
30.0
 30
0.0
 40
25.0
  1
１
 41
0.833
  7
BIGFONT
100
AcDbText
  0
LINE
  5
486
330
484
100
AcDbEntity
  8
BALN
  6
CONTINUOUS-S
 62
     4
100
AcDbLine
 10
66.25
 20
50.0
 30
0.0
 11
23.75
 21
10.0
 31
0.0
  0
TEXT
  5
487
330
484
100
AcDbEntity
  8
BALN
100
AcDbText
 10
41.25
 20
5.0
 30
0.0
 40
25.0
  1
５
 41
0.833
  7
BIGFONT
100
AcDbText
  0
ENDBLK
  5
489
330
484
100
AcDbEntity
  8
0
 62
     2
100
AcDbBlockEnd
  0
BLOCK
  5
4A5
330
4A1
100
AcDbEntity
  8
0
100
AcDbBlockBegin
  2
_OPEN
 70
     0
 10
0.0
 20
0.0
 30
0.0
  3
_OPEN
  1

  0
LINE
  5
4A2
330
4A1
100
AcDbEntity
  8
0
  6
ByBlock
 62
     0
100
AcDbLine
 10
-1.0
 20
0.1666666666666666
 30
0.0
 11
0.0
 21
0.0
 31
0.0
  0
LINE
  5
4A3
330
4A1
100
AcDbEntity
  8
0
  6
ByBlock
 62
     0
100
AcDbLine
 10
0.0
 20
0.0
 30
0.0
 11
-1.0
 21
-0.1666666666666666
 31
0.0
  0
LINE
  5
4A4
330
4A1
100
AcDbEntity
  8
0
  6
ByBlock
 62
     0
100
AcDbLine
 10
0.0
 20
0.0
 30
0.0
 11
-1.0
 21
0.0
 31
0.0
  0
ENDBLK
  5
4A6
330
4A1
100
AcDbEntity
  8
0
100
AcDbBlockEnd
  0
BLOCK
  5
A18
330
A17
100
AcDbEntity
  8
0
100
AcDbBlockBegin
  2
株式会社ＫＶＫ
 70
     0
 10
0.0
 20
0.0
 30
0.0
  3
株式会社ＫＶＫ
  1

  4
2018/10/22作成
  0
HATCH
  5
A19
330
A17
100
AcDbEntity
  8
0
100
AcDbHatch
 10
0.0
 20
0.0
 30
0.0
210
0.0
220
0.0
230
1.0
  2
SOLID
 70
     1
 71
     0
 91
       11
 92
        1
 93
        1
 72
     4
 94
        3
 73
     0
 74
     0
 95
       62
 96
       58
 40
0.0
 40
0.0
 40
0.0
 40
0.0
 40
1.0
 40
1.0
 40
1.0
 40
2.0
 40
2.0
 40
2.0
 40
3.0
 40
3.0
 40
3.0
 40
4.0
 40
4.0
 40
4.0
 40
5.0
 40
5.0
 40
5.0
 40
6.0
 40
6.0
 40
6.0
 40
7.0
 40
7.0
 40
7.0
 40
8.0
 40
8.0
 40
8.0
 40
9.0
 40
9.0
 40
9.0
 40
10.0
 40
10.0
 40
10.0
 40
11.0
 40
11.0
 40
11.0
 40
12.0
 40
12.0
 40
12.0
 40
13.0
 40
13.0
 40
13.0
 40
14.0
 40
14.0
 40
14.0
 40
15.0
 40
15.0
 40
15.0
 40
16.0
 40
16.0
 40
16.0
 40
17.0
 40
17.0
 40
17.0
 40
18.0
 40
18.0
 40
18.0
 40
19.0
 40
19.0
 40
19.0
 40
19.0
 10
19.90575917734219
 20
-2.711598165988732
 10
19.84705695661761
 20
-2.711598165988732
 10
18.28353177428424
 20
-2.711598165988732
 10
18.26038955265238
 20
-2.711598165988732
 10
18.23723321990984
 20
-2.711598165988732
 10
18.21574398649159
 20
-2.701409943769021
 10
18.20071366528599
 20
-2.683771054884573
 10
18.18596954205444
 20
-2.666682499333205
 10
16.38900226706217
 20
-0.5056363887624116
 10
16.25314049275049
 20
-0.3449531665802965
 10
16.25314049275049
 20
-1.513536610732671
 10
16.25314049275049
 20
-2.618450721567455
 10
16.25314049275049
 20
-2.633323832674932
 10
16.25314049275049
 20
-2.676052277108567
 10
16.21786271587273
 20
-2.711598165988732
 10
16.17527732033491
 20
-2.711598165988732
 10
16.13848771789774
 20
-2.711598165988732
 10
14.89659708291435
 20
-2.711598165988732
 10
14.86213775046016
 20
-2.711598165988732
 10
14.81942341821654
 20
-2.711598165988732
 10
14.78414564133879
 20
-2.676052277108567
 10
14.78414564133879
 20
-2.633323832674932
 10
14.78414564133879
 20
-2.590891721574394
 10
14.78414564133879
 20
2.591018721574528
 10
14.78414564133879
 20
2.633606054897256
 10
14.78414564133879
 20
2.676179277108872
 10
14.81942341821654
 20
2.711598165988789
 10
14.86213775046016
 20
2.711598165988789
 10
14.89659708291435
 20
2.711598165988789
 10
16.13848771789774
 20
2.711598165988789
 10
16.17527732033491
 20
2.711598165988789
 10
16.21786271587273
 20
2.711598165988789
 10
16.25314049275049
 20
2.676179277108872
 10
16.25314049275049
 20
2.633606054897256
 10
16.25314049275049
 20
2.621752721566963
 10
16.25314049275049
 20
1.615362388485152
 10
16.25314049275049
 20
0.4854433887675782
 10
16.37274626747688
 20
0.6565970553915577
 10
17.77283656509093
 20
2.657721943780131
 10
17.78689123139904
 20
2.678112499330495
 10
17.80177845324144
 20
2.699335610436378
 10
17.82520289708829
 20
2.711598165988789
 10
17.85083065324936
 20
2.711598165988789
 10
17.87673667355132
 20
2.711598165988789
 10
19.23038730568349
 20
2.711598165988789
 10
19.29501619292355
 20
2.711598165988789
 10
19.35992730237863
 20
2.711598165988789
 10
19.39409030150709
 20
2.638982388229237
 10
19.35950396905612
 20
2.589085499352734
 10
19.32450841439336
 20
2.539484943809611
 10
17.63227579089916
 20
0.1665746110695636
 10
17.63227579089916
 20
0.1665746110695636
 10
17.63227579089916
 20
0.1665746110695636
 10
19.90907731940159
 20
-2.515919388259817
 10
19.96087717593603
 20
-2.578205832688581
 10
20.01242506350984
 20
-2.640492277117687
 10
19.96653573134723
 20
-2.711598165988732
 10
19.90575917734219
 20
-2.711598165988732
 97
        0
 97
        0
 92
        1
 93
        1
 72
     4
 94
        3
 73
     0
 74
     0
 95
       44
 96
       40
 40
0.0
 40
0.0
 40
0.0
 40
0.0
 40
1.0
 40
1.0
 40
1.0
 40
2.0
 40
2.0
 40
2.0
 40
3.0
 40
3.0
 40
3.0
 40
4.0
 40
4.0
 40
4.0
 40
5.0
 40
5.0
 40
5.0
 40
6.0
 40
6.0
 40
6.0
 40
7.0
 40
7.0
 40
7.0
 40
8.0
 40
8.0
 40
8.0
 40
9.0
 40
9.0
 40
9.0
 40
10.0
 40
10.0
 40
10.0
 40
11.0
 40
11.0
 40
11.0
 40
12.0
 40
12.0
 40
12.0
 40
13.0
 40
13.0
 40
13.0
 40
13.0
 10
14.51777020369012
 20
2.711598165988789
 10
14.45024853874612
 20
2.711598165988789
 10
13.11906279492972
 20
2.711598165988789
 10
13.08887912903307
 20
2.711598165988789
 10
13.05856846313972
 20
2.711598165988789
 10
13.02934621001031
 20
2.693267832660069
 10
13.01750513085395
 20
2.665017388222736
 10
13.00689357556915
 20
2.640083054895626
 10
11.98838182377575
 20
0.2489693888267084
 10
11.74060483009707
 20
-0.3047223888125927
 10
11.49311005863345
 20
0.2489693888267084
 10
10.47461241795079
 20
2.640083054895626
 10
10.46400086266595
 20
2.665017388222736
 10
10.45214752963504
 20
2.693267832660069
 10
10.42292341926951
 20
2.711598165988789
 10
10.39233053116112
 20
2.711598165988789
 10
10.36201986526771
 20
2.711598165988789
 10
9.031116343666312
 20
2.711598165988789
 10
8.963721678719082
 20
2.711598165988789
 10
8.899092791478977
 20
2.711598165988789
 10
8.873467014354986
 20
2.642284388228404
 10
8.893307236071024
 20
2.60012038823902
 10
8.9132885688946
 20
2.557674166027254
 10
11.3944451722617
 20
-2.637740610451658
 10
11.40878206078479
 20
-2.666950610444359
 10
11.42365517151647
 20
-2.696174721548118
 10
11.44943617085877
 20
-2.711598165988732
 10
11.47919650343283
 20
-2.711598165988732
 10
11.50882983601016
 20
-2.711598165988732
 10
11.97253504640227
 20
-2.711598165988732
 10
12.00202726787208
 20
-2.711598165988732
 10
12.03192871155367
 20
-2.711598165988732
 10
12.05783671089271
 20
-2.696174721548118
 10
12.07244171052012
 20
-2.666950610444359
 10
12.08704671014752
 20
-2.637740610451658
 10
14.56793520241032
 20
2.557674166027254
 10
14.58804353523064
 20
2.60012038823902
 10
14.6080248680542
 20
2.642284388228404
 10
14.58239909093018
 20
2.711598165988789
 10
14.51777020369012
 20
2.711598165988789
 97
        0
 97
        0
 92
        1
 93
        1
 72
     4
 94
        3
 73
     0
 74
     0
 95
       62
 96
       58
 40
0.0
 40
0.0
 40
0.0
 40
0.0
 40
1.0
 40
1.0
 40
1.0
 40
2.0
 40
2.0
 40
2.0
 40
3.0
 40
3.0
 40
3.0
 40
4.0
 40
4.0
 40
4.0
 40
5.0
 40
5.0
 40
5.0
 40
6.0
 40
6.0
 40
6.0
 40
7.0
 40
7.0
 40
7.0
 40
8.0
 40
8.0
 40
8.0
 40
9.0
 40
9.0
 40
9.0
 40
10.0
 40
10.0
 40
10.0
 40
11.0
 40
11.0
 40
11.0
 40
12.0
 40
12.0
 40
12.0
 40
13.0
 40
13.0
 40
13.0
 40
14.0
 40
14.0
 40
14.0
 40
15.0
 40
15.0
 40
15.0
 40
16.0
 40
16.0
 40
16.0
 40
17.0
 40
17.0
 40
17.0
 40
18.0
 40
18.0
 40
18.0
 40
19.0
 40
19.0
 40
19.0
 40
19.0
 10
9.28384633721869
 20
-2.578205832688581
 10
9.232030338540582
 20
-2.515919388259817
 10
6.955230841071028
 20
0.1665746110695636
 10
6.955230841071028
 20
0.1665746110695636
 10
6.955230841071028
 20
0.1665746110695636
 10
8.64746346456522
 20
2.539484943809611
 10
8.682190908123715
 20
2.589085499352734
 10
8.716777240574671
 20
2.638982388229237
 10
8.682882352550521
 20
2.711598165988789
 10
8.617971243095425
 20
2.711598165988789
 10
8.553342355855363
 20
2.711598165988789
 10
7.199423612618915
 20
2.711598165988789
 10
7.173799544807621
 20
2.711598165988789
 10
7.147889836155925
 20
2.711598165988789
 10
7.124451281198318
 20
2.699335610436378
 10
7.109578170466633
 20
2.678112499330495
 10
7.095791615262797
 20
2.657721943780131
 10
5.695701317648754
 20
0.6565970553915577
 10
5.576095542922359
 20
0.4854433887675782
 10
5.576095542922359
 20
1.615362388485152
 10
5.576095542922359
 20
2.621752721566963
 10
5.576095542922359
 20
2.633606054897256
 10
5.576095542922359
 20
2.676179277108872
 10
5.540535543829591
 20
2.711598165988789
 10
5.497963989671035
 20
2.711598165988789
 10
5.461160545854596
 20
2.711598165988789
 10
4.219411021978729
 20
2.711598165988789
 10
4.184965800635282
 20
2.711598165988789
 10
4.142519579495953
 20
2.711598165988789
 10
4.106973691513928
 20
2.676179277108872
 10
4.106973691513928
 20
2.633606054897256
 10
4.106973691513928
 20
2.591018721574528
 10
4.106973691513928
 20
-2.590891721574394
 10
4.106973691513928
 20
-2.633323832674932
 10
4.106973691513928
 20
-2.676052277108567
 10
4.142519579495953
 20
-2.711598165988732
 10
4.184965800635282
 20
-2.711598165988732
 10
4.219411021978729
 20
-2.711598165988732
 10
5.461160545854596
 20
-2.711598165988732
 10
5.497963989671035
 20
-2.711598165988732
 10
5.540535543829591
 20
-2.711598165988732
 10
5.576095542922359
 20
-2.676052277108567
 10
5.576095542922359
 20
-2.633323832674932
 10
5.576095542922359
 20
-2.618450721567455
 10
5.576095542922359
 20
-1.513536610732671
 10
5.576095542922359
 20
-0.3449531665802965
 10
5.711689206129761
 20
-0.5056363887624116
 10
7.508938433612755
 20
-2.666682499333205
 10
7.523400604353597
 20
-2.683771054884573
 10
7.538414826192749
 20
-2.701409943769021
 10
7.559920158977433
 20
-2.711598165988732
 10
7.583062380609277
 20
-2.711598165988732
 10
7.606500935566884
 20
-2.711598165988732
 10
9.169743895685201
 20
-2.711598165988732
 10
9.228446116409799
 20
-2.711598165988732
 10
9.28949078151912
 20
-2.711598165988732
 10
9.335239002574184
 20
-2.640492277117687
 10
9.28384633721869
 20
-2.578205832688581
 97
        0
 97
        0
 92
        1
 93
        1
 72
     4
 94
        3
 73
     0
 74
     0
 95
      263
 96
      259
 40
0.0
 40
0.0
 40
0.0
 40
0.0
 40
1.0
 40
1.0
 40
1.0
 40
2.0
 40
2.0
 40
2.0
 40
3.0
 40
3.0
 40
3.0
 40
4.0
 40
4.0
 40
4.0
 40
5.0
 40
5.0
 40
5.0
 40
6.0
 40
6.0
 40
6.0
 40
7.0
 40
7.0
 40
7.0
 40
8.0
 40
8.0
 40
8.0
 40
9.0
 40
9.0
 40
9.0
 40
10.0
 40
10.0
 40
10.0
 40
11.0
 40
11.0
 40
11.0
 40
12.0
 40
12.0
 40
12.0
 40
13.0
 40
13.0
 40
13.0
 40
14.0
 40
14.0
 40
14.0
 40
15.0
 40
15.0
 40
15.0
 40
16.0
 40
16.0
 40
16.0
 40
17.0
 40
17.0
 40
17.0
 40
18.0
 40
18.0
 40
18.0
 40
19.0
 40
19.0
 40
19.0
 40
20.0
 40
20.0
 40
20.0
 40
21.0
 40
21.0
 40
21.0
 40
22.0
 40
22.0
 40
22.0
 40
23.0
 40
23.0
 40
23.0
 40
24.0
 40
24.0
 40
24.0
 40
25.0
 40
25.0
 40
25.0
 40
26.0
 40
26.0
 40
26.0
 40
27.0
 40
27.0
 40
27.0
 40
28.0
 40
28.0
 40
28.0
 40
29.0
 40
29.0
 40
29.0
 40
30.0
 40
30.0
 40
30.0
 40
31.0
 40
31.0
 40
31.0
 40
32.0
 40
32.0
 40
32.0
 40
33.0
 40
33.0
 40
33.0
 40
34.0
 40
34.0
 40
34.0
 40
35.0
 40
35.0
 40
35.0
 40
36.0
 40
36.0
 40
36.0
 40
37.0
 40
37.0
 40
37.0
 40
38.0
 40
38.0
 40
38.0
 40
39.0
 40
39.0
 40
39.0
 40
40.0
 40
40.0
 40
40.0
 40
41.0
 40
41.0
 40
41.0
 40
42.0
 40
42.0
 40
42.0
 40
43.0
 40
43.0
 40
43.0
 40
44.0
 40
44.0
 40
44.0
 40
45.0
 40
45.0
 40
45.0
 40
46.0
 40
46.0
 40
46.0
 40
47.0
 40
47.0
 40
47.0
 40
48.0
 40
48.0
 40
48.0
 40
49.0
 40
49.0
 40
49.0
 40
50.0
 40
50.0
 40
50.0
 40
51.0
 40
51.0
 40
51.0
 40
52.0
 40
52.0
 40
52.0
 40
53.0
 40
53.0
 40
53.0
 40
54.0
 40
54.0
 40
54.0
 40
55.0
 40
55.0
 40
55.0
 40
56.0
 40
56.0
 40
56.0
 40
57.0
 40
57.0
 40
57.0
 40
58.0
 40
58.0
 40
58.0
 40
59.0
 40
59.0
 40
59.0
 40
60.0
 40
60.0
 40
60.0
 40
61.0
 40
61.0
 40
61.0
 40
62.0
 40
62.0
 40
62.0
 40
63.0
 40
63.0
 40
63.0
 40
64.0
 40
64.0
 40
64.0
 40
65.0
 40
65.0
 40
65.0
 40
66.0
 40
66.0
 40
66.0
 40
67.0
 40
67.0
 40
67.0
 40
68.0
 40
68.0
 40
68.0
 40
69.0
 40
69.0
 40
69.0
 40
70.0
 40
70.0
 40
70.0
 40
71.0
 40
71.0
 40
71.0
 40
72.0
 40
72.0
 40
72.0
 40
73.0
 40
73.0
 40
73.0
 40
74.0
 40
74.0
 40
74.0
 40
75.0
 40
75.0
 40
75.0
 40
76.0
 40
76.0
 40
76.0
 40
77.0
 40
77.0
 40
77.0
 40
78.0
 40
78.0
 40
78.0
 40
79.0
 40
79.0
 40
79.0
 40
80.0
 40
80.0
 40
80.0
 40
81.0
 40
81.0
 40
81.0
 40
82.0
 40
82.0
 40
82.0
 40
83.0
 40
83.0
 40
83.0
 40
84.0
 40
84.0
 40
84.0
 40
85.0
 40
85.0
 40
85.0
 40
86.0
 40
86.0
 40
86.0
 40
86.0
 10
-16.04091257224847
 20
-2.711330054877521
 10
-16.04091257224847
 20
-2.711330054877521
 10
-16.57270389201467
 20
-2.711330054877521
 10
-16.57270389201467
 20
-2.711330054877521
 10
-16.59309444705003
 20
-2.711330054877521
 10
-16.60963156035772
 20
-2.695059943770615
 10
-16.60963156035772
 20
-2.674669388220081
 10
-16.60963156035772
 20
-2.674669388220081
 10
-16.60963156035772
 20
-0.9303526108784581
 10
-16.60963156035772
 20
-0.9303526108784581
 10
-16.92740077185448
 20
-1.448498499637821
 10
-17.26888965203129
 20
-1.832687610652783
 10
-17.76359697274357
 20
-2.233697166108072
 10
-17.77159797253945
 20
-2.240315277217746
 10
-17.78206841671677
 20
-2.243066943883491
 10
-17.79227074978981
 20
-2.241698166106232
 10
-17.80245897175213
 20
-2.240033054995478
 10
-17.81168763818335
 20
-2.234247499441266
 10
-17.81734619359453
 20
-2.225710277221196
 10
-17.81734619359453
 20
-2.225710277221196
 10
-18.1665397402414
 20
-1.705631166240323
 10
-18.1665397402414
 20
-1.705631166240323
 10
-18.17770162884555
 20
-1.688824832911222
 10
-18.17356600441111
 20
-1.666501055138837
 10
-18.1573110738102
 20
-1.654915832919471
 10
-17.77559141688199
 20
-1.385647610764578
 10
-17.22285920876116
 20
-0.94137338865346
 10
-16.78587933809142
 20
-0.1724307221790013
 10
-16.78587933809142
 20
-0.1724307221790013
 10
-17.852073637153
 20
-0.1724307221790013
 10
-17.852073637153
 20
-0.1724307221790013
 10
-17.87246419218836
 20
-0.1724307221790013
 10
-17.88886130288115
 20
-0.1558924999609417
 10
-17.88886130288115
 20
-0.1355019444104073
 10
-17.88886130288115
 20
-0.1355019444104073
 10
-17.88886130288115
 20
0.4297750554482605
 10
-17.88886130288115
 20
0.4297750554482605
 10
-17.88886130288115
 20
0.4501656109986243
 10
-17.87246419218836
 20
0.466703833216684
 10
-17.852073637153
 20
0.466703833216684
 10
-17.852073637153
 20
0.466703833216684
 10
-16.60963156035772
 20
0.466703833216684
 10
-16.60963156035772
 20
0.466703833216684
 10
-16.60963156035772
 20
0.466703833216684
 10
-16.60963156035772
 20
1.224343499694043
 10
-16.60963156035772
 20
1.224343499694043
 10
-16.60963156035772
 20
1.224343499694043
 10
-17.13273044911575
 20
1.224343499694043
 10
-17.13273044911575
 20
1.224343499694043
 10
-17.26062054113113
 20
0.882600610890563
 10
-17.42157187035825
 20
0.6218696109557414
 10
-17.48165697993649
 20
0.5292724998677159
 10
-17.49267775743308
 20
0.5121839443165186
 10
-17.51473342353704
 20
0.5066664998734609
 10
-17.53209008976092
 20
0.5171369443153253
 10
-17.53209008976092
 20
0.5171369443153253
 10
-18.06911663161575
 20
0.8451073886777749
 10
-18.06911663161575
 20
0.8451073886777749
 10
-18.07806307583199
 20
0.8506248331208325
 10
-18.08427196456247
 20
0.8594442775630568
 10
-18.08620518673537
 20
0.8696466108938238
 10
-18.08812429779753
 20
0.8798348331134207
 10
-18.08565378221091
 20
0.890587499777439
 10
-18.07930378221253
 20
0.8988566108864119
 10
-18.04361785448852
 20
0.9459877219858299
 10
-18.00379629994892
 20
0.9994547219724267
 10
-17.96699452311004
 20
1.054572721958606
 10
-17.96699452311004
 20
1.054572721958606
 10
-18.51821684238052
 20
1.054572721958606
 10
-18.51821684238052
 20
1.054572721958606
 10
-18.51821684238052
 20
1.054572721958606
 10
-18.51821684238052
 20
0.5918270554076344
 10
-18.51821684238052
 20
0.5918270554076344
 10
-18.34182795799167
 20
0.2622056110457152
 10
-18.05243729870797
 20
-0.0682483888717229
 10
-17.79227074978981
 20
-0.3479870554685362
 10
-17.78054441675563
 20
-0.3606729443542918
 10
-17.77903452790528
 20
-0.3794124999050155
 10
-17.78826319433652
 20
-0.3934671665682572
 10
-17.78826319433652
 20
-0.3934671665682572
 10
-18.12684518569857
 20
-0.9025113886631856
 10
-18.12684518569857
 20
-0.9025113886631856
 10
-18.13319518553656
 20
-0.9121633886608151
 10
-18.14407378219629
 20
-0.918217055325897
 10
-18.15578600441552
 20
-0.918781499770148
 10
-18.16737229577573
 20
-0.9193318331034561
 10
-18.17866118437665
 20
-0.914364721993536
 10
-18.18597073974568
 20
-0.905263055329101
 10
-18.32308840291421
 20
-0.7371432775934182
 10
-18.4145837821286
 20
-0.5913472776298932
 10
-18.51821684238052
 20
-0.3981520554559665
 10
-18.51821684238052
 20
-0.3981520554559665
 10
-18.51821684238052
 20
-2.674669388220081
 10
-18.51821684238052
 20
-2.674669388220081
 10
-18.51821684238052
 20
-2.695059943770615
 10
-18.5347550641808
 20
-2.711330054877521
 10
-18.55500450810864
 20
-2.711330054877521
 10
-18.55500450810864
 20
-2.711330054877521
 10
-19.06543160619768
 20
-2.711330054877521
 10
-19.06543160619768
 20
-2.711330054877521
 10
-19.08569516123624
 20
-2.711330054877521
 10
-19.10223338303656
 20
-2.695059943770615
 10
-19.10223338303656
 20
-2.674669388220081
 10
-19.10223338303656
 20
-2.674669388220081
 10
-19.10223338303656
 20
-0.2939697221486312
 10
-19.10223338303656
 20
-0.2939697221486312
 10
-19.24251193501332
 20
-0.7222701664860552
 10
-19.436257485626
 20
-1.133750166383094
 10
-19.66832881303872
 20
-1.495615499625955
 10
-19.67590647951205
 20
-1.507468832956305
 10
-19.68955192360836
 20
-1.514086944065809
 10
-19.70360658991647
 20
-1.512435944066282
 10
-19.71766125622456
 20
-1.510784944066699
 10
-19.72951458925549
 20
-1.50113294406907
 10
-19.73419947802488
 20
-1.487910832961347
 10
-19.73419947802488
 20
-1.487910832961347
 10
-19.98114391616924
 20
-0.7754549442504413
 10
-19.98114391616924
 20
-0.7754549442504413
 10
-19.98499624940429
 20
-0.7641519442532854
 10
-19.9833452494464
 20
-0.7517623887009109
 10
-19.97645902739988
 20
-0.7421103887032814
 10
-19.64407181365756
 20
-0.268061722155096
 10
-19.37907822633192
 20
0.3625214999093487
 10
-19.18876271416236
 20
1.054572721958606
 10
-19.18876271416236
 20
1.054572721958606
 10
-19.83893214201957
 20
1.054572721958606
 10
-19.83893214201957
 20
1.054572721958606
 10
-19.85932269705493
 20
1.054572721958606
 10
-19.8755786966402
 20
1.07111094417678
 10
-19.8755786966402
 20
1.091501499727201
 10
-19.8755786966402
 20
1.091501499727201
 10
-19.8755786966402
 20
1.651204610698414
 10
-19.8755786966402
 20
1.651204610698414
 10
-19.8755786966402
 20
1.671595166248891
 10
-19.85932269705493
 20
1.688133388466951
 10
-19.83893214201957
 20
1.688133388466951
 10
-19.83893214201957
 20
1.688133388466951
 10
-19.10223338303656
 20
1.688133388466951
 10
-19.10223338303656
 20
1.688133388466951
 10
-19.10223338303656
 20
1.688133388466951
 10
-19.10223338303656
 20
2.674810499331329
 10
-19.10223338303656
 20
2.674810499331329
 10
-19.10223338303656
 20
2.695059943770729
 10
-19.08569516123624
 20
2.711457054877769
 10
-19.06543160619768
 20
2.711457054877769
 10
-19.06543160619768
 20
2.711457054877769
 10
-18.55500450810864
 20
2.711457054877769
 10
-18.55500450810864
 20
2.711457054877769
 10
-18.5347550641808
 20
2.711457054877769
 10
-18.51821684238052
 20
2.695059943770729
 10
-18.51821684238052
 20
2.674810499331329
 10
-18.51821684238052
 20
2.674810499331329
 10
-18.51821684238052
 20
1.688133388466951
 10
-18.51821684238052
 20
1.688133388466951
 10
-18.51821684238052
 20
1.688133388466951
 10
-17.89961396927347
 20
1.688133388466951
 10
-17.89961396927347
 20
1.688133388466951
 10
-17.879349337818
 20
1.688133388466951
 10
-17.86282630354536
 20
1.671595166248891
 10
-17.86282630354536
 20
1.651204610698414
 10
-17.86282630354536
 20
1.651204610698414
 10
-17.86282630354536
 20
1.235928721913296
 10
-17.86282630354536
 20
1.235928721913296
 10
-17.65115964227875
 20
1.628598610703988
 10
-17.53966775623424
 20
2.056616832819202
 10
-17.43590875888135
 20
2.496629499376012
 10
-17.43149198121627
 20
2.515227943815659
 10
-17.41358498167312
 20
2.527490499368184
 10
-17.39456320438064
 20
2.524329610480094
 10
-17.39456320438064
 20
2.524329610480094
 10
-16.83590432974432
 20
2.439705277167945
 10
-16.83590432974432
 20
2.439705277167945
 10
-16.82584310777876
 20
2.438336499390459
 10
-16.81688255245184
 20
2.432677943836324
 10
-16.81109699704387
 20
2.424549943838428
 10
-16.80545255274343
 20
2.416153832729378
 10
-16.80325121946625
 20
2.405810388287534
 10
-16.80531144163593
 20
2.395890277178864
 10
-16.82928621880204
 20
2.278485832763863
 10
-16.86842933807075
 20
2.097680166142254
 10
-16.93733499382328
 20
1.857621943980177
 10
-16.93733499382328
 20
1.857621943980177
 10
-16.60963156035772
 20
1.857621943980177
 10
-16.60963156035772
 20
1.857621943980177
 10
-16.60963156035772
 20
1.857621943980177
 10
-16.60963156035772
 20
2.674810499331329
 10
-16.60963156035772
 20
2.674810499331329
 10
-16.60963156035772
 20
2.695059943770729
 10
-16.59309444705003
 20
2.711457054877769
 10
-16.57270389201467
 20
2.711457054877769
 10
-16.57270389201467
 20
2.711457054877769
 10
-16.04091257224847
 20
2.711457054877769
 10
-16.04091257224847
 20
2.711457054877769
 10
-16.02066312832065
 20
2.711457054877769
 10
-16.00412378273127
 20
2.695059943770729
 10
-16.00412378273127
 20
2.674810499331329
 10
-16.00412378273127
 20
2.674810499331329
 10
-16.00412378273127
 20
1.857621943980177
 10
-16.00412378273127
 20
1.857621943980177
 10
-16.00412378273127
 20
1.857621943980177
 10
-14.90747993449808
 20
1.857621943980177
 10
-14.90747993449808
 20
1.857621943980177
 10
-14.88708822745495
 20
1.857621943980177
 10
-14.87055115766245
 20
1.841224832873081
 10
-14.87055115766245
 20
1.82097538843368
 10
-14.87055115766245
 20
1.82097538843368
 10
-14.87055115766245
 20
1.26128638857358
 10
-14.87055115766245
 20
1.26128638857358
 10
-14.87055115766245
 20
1.240881721912103
 10
-14.88708822745495
 20
1.224343499694043
 10
-14.90747993449808
 20
1.224343499694043
 10
-14.90747993449808
 20
1.224343499694043
 10
-16.00412378273127
 20
1.224343499694043
 10
-16.00412378273127
 20
1.224343499694043
 10
-16.00412378273127
 20
1.224343499694043
 10
-16.00412378273127
 20
0.466703833216684
 10
-16.00412378273127
 20
0.466703833216684
 10
-16.00412378273127
 20
0.466703833216684
 10
-14.79999560390688
 20
0.466703833216684
 10
-14.79999560390688
 20
0.466703833216684
 10
-14.77973204886832
 20
0.466703833216684
 10
-14.76306682707124
 20
0.4501656109986243
 10
-14.76306682707124
 20
0.4297750554482605
 10
-14.76306682707124
 20
0.4297750554482605
 10
-14.76306682707124
 20
-0.1355019444104073
 10
-14.76306682707124
 20
-0.1355019444104073
 10
-14.76306682707124
 20
-0.1558924999609417
 10
-14.77973204886832
 20
-0.1724307221790013
 10
-14.79999560390688
 20
-0.1724307221790013
 10
-14.79999560390688
 20
-0.1724307221790013
 10
-15.80816391151971
 20
-0.1724307221790013
 10
-15.80816391151971
 20
-0.1724307221790013
 10
-15.42947814340301
 20
-0.8901077219995841
 10
-15.14285326182651
 20
-1.206507055253894
 10
-14.69002771782352
 20
-1.594844832934541
 10
-14.67762405147327
 20
-1.605583388487389
 10
-14.67375760712748
 20
-1.622954166260797
 10
-14.68037571806975
 20
-1.637841388479387
 10
-14.68037571806975
 20
-1.637841388479387
 10
-14.95984626649544
 20
-2.259887388323875
 10
-14.95984626649544
 20
-2.259887388323875
 10
-14.96479926636907
 20
-2.27090816609899
 10
-14.97473348833785
 20
-2.278626943874655
 10
-14.98644571026128
 20
-2.281096388318474
 10
-14.99815793218466
 20
-2.283311832762365
 10
-15.01027822742412
 20
-2.279727610541215
 10
-15.01883070943505
 20
-2.271176277209974
 10
-15.01883070943505
 20
-2.271176277209974
 10
-15.02875082029307
 20
-2.261806499434555
 10
-15.02875082029307
 20
-2.261806499434555
 10
-15.22553025971727
 20
-2.071645166148641
 10
-15.66843569286224
 20
-1.643344721811331
 10
-16.00412378273127
 20
-0.9488099442071415
 10
-16.00412378273127
 20
-0.9488099442071415
 10
-16.00412378273127
 20
-2.674669388220081
 10
-16.00412378273127
 20
-2.674669388220081
 10
-16.00412378273127
 20
-2.695059943770615
 10
-16.02066312832065
 20
-2.711330054877521
 10
-16.04091257224847
 20
-2.711330054877521
 97
        0
 97
        0
 92
        1
 93
        1
 72
     4
 94
        3
 73
     0
 74
     0
 95
      122
 96
      118
 40
0.0
 40
0.0
 40
0.0
 40
0.0
 40
1.0
 40
1.0
 40
1.0
 40
2.0
 40
2.0
 40
2.0
 40
3.0
 40
3.0
 40
3.0
 40
4.0
 40
4.0
 40
4.0
 40
5.0
 40
5.0
 40
5.0
 40
6.0
 40
6.0
 40
6.0
 40
7.0
 40
7.0
 40
7.0
 40
8.0
 40
8.0
 40
8.0
 40
9.0
 40
9.0
 40
9.0
 40
10.0
 40
10.0
 40
10.0
 40
11.0
 40
11.0
 40
11.0
 40
12.0
 40
12.0
 40
12.0
 40
13.0
 40
13.0
 40
13.0
 40
14.0
 40
14.0
 40
14.0
 40
15.0
 40
15.0
 40
15.0
 40
16.0
 40
16.0
 40
16.0
 40
17.0
 40
17.0
 40
17.0
 40
18.0
 40
18.0
 40
18.0
 40
19.0
 40
19.0
 40
19.0
 40
20.0
 40
20.0
 40
20.0
 40
21.0
 40
21.0
 40
21.0
 40
22.0
 40
22.0
 40
22.0
 40
23.0
 40
23.0
 40
23.0
 40
24.0
 40
24.0
 40
24.0
 40
25.0
 40
25.0
 40
25.0
 40
26.0
 40
26.0
 40
26.0
 40
27.0
 40
27.0
 40
27.0
 40
28.0
 40
28.0
 40
28.0
 40
29.0
 40
29.0
 40
29.0
 40
30.0
 40
30.0
 40
30.0
 40
31.0
 40
31.0
 40
31.0
 40
32.0
 40
32.0
 40
32.0
 40
33.0
 40
33.0
 40
33.0
 40
34.0
 40
34.0
 40
34.0
 40
35.0
 40
35.0
 40
35.0
 40
36.0
 40
36.0
 40
36.0
 40
37.0
 40
37.0
 40
37.0
 40
38.0
 40
38.0
 40
38.0
 40
39.0
 40
39.0
 40
39.0
 40
39.0
 10
-8.834184867218525
 20
-1.35947149966006
 10
-8.834184867218525
 20
-1.35947149966006
 10
-9.32835596572228
 20
-1.065395944178021
 10
-9.32835596572228
 20
-1.065395944178021
 10
-9.339108632114601
 20
-1.059060055290785
 10
-9.352062631784136
 20
-1.058509721957534
 10
-9.363492631492519
 20
-1.064013055289422
 10
-9.37465452009664
 20
-1.069262388621552
 10
-9.382232186570007
 20
-1.080000944174457
 10
-9.383613784386355
 20
-1.092404610837945
 10
-9.477452673251789
 20
-1.84950805509311
 10
-9.609745625210081
 20
-1.908210277300554
 10
-9.648056006542432
 20
-1.908210277300554
 10
-9.703725622812484
 20
-1.908210277300554
 10
-9.859314729954164
 20
-1.845373499538595
 10
-10.09964105715629
 20
-1.261625055240074
 10
-10.10336639039455
 20
-1.25280561079785
 10
-10.10625916809853
 20
-1.245919388577249
 10
-10.10817827916068
 20
-1.241516721911807
 10
-10.19017794373535
 20
-1.030668499742262
 10
-10.43685427077544
 20
-0.3609410554652186
 10
-10.51704771317399
 20
1.173642277484475
 10
-10.51704771317399
 20
1.173642277484475
 10
-8.944293864409402
 20
1.173642277484475
 10
-8.944293864409402
 20
1.173642277484475
 10
-8.92390330937404
 20
1.173642277484475
 10
-8.907363784505434
 20
1.190180499702535
 10
-8.907363784505434
 20
1.210288833030858
 10
-8.907363784505434
 20
1.210288833030858
 10
-8.907363784505434
 20
1.77577749955617
 10
-8.907363784505434
 20
1.77577749955617
 10
-8.907363784505434
 20
1.79602694399557
 10
-8.92390330937404
 20
1.812706277324764
 10
-8.944293864409402
 20
1.812706277324764
 10
-8.944293864409402
 20
1.812706277324764
 10
-9.313468743879852
 20
1.812706277324764
 10
-9.313468743879852
 20
1.812706277324764
 10
-9.313468743879852
 20
1.812706277324764
 10
-9.088579971839479
 20
2.11572827724899
 10
-9.088579971839479
 20
2.11572827724899
 10
-9.076726638808565
 20
2.131857277244932
 10
-9.079760527620052
 20
2.154731388350285
 10
-9.095606006680554
 20
2.166852832791732
 10
-9.344061631988253
 20
2.357310499410687
 10
-9.677817623473444
 20
2.564701499358932
 10
-9.966657949437845
 20
2.707872832656448
 10
-9.982786949026362
 20
2.715732721543304
 10
-10.00221794853064
 20
2.710906721544517
 10
-10.01268711756248
 20
2.696583943770349
 10
-10.01268711756248
 20
2.696583943770349
 10
-10.33514138448147
 20
2.255611721658397
 10
-10.33514138448147
 20
2.255611721658397
 10
-10.34149138431948
 20
2.246792277216172
 10
-10.34369271759665
 20
2.235898499441134
 10
-10.34120916210447
 20
2.225569166110403
 10
-10.33886671771977
 20
2.215084610557426
 10
-10.33212160678076
 20
2.206265166115201
 10
-10.322469607027
 20
2.201171055005318
 10
-10.05705372490943
 20
2.061583943929122
 10
-9.867442729746798
 20
1.947058166179942
 10
-9.681825178926757
 20
1.812706277324764
 10
-9.681825178926757
 20
1.812706277324764
 10
-10.54212315697871
 20
1.812706277324764
 10
-10.54212315697871
 20
1.812706277324764
 10
-10.54847315681672
 20
1.974066832839866
 10
-10.54749822853992
 20
2.177055166122443
 10
-10.5465399346438
 20
2.409394610508797
 10
-10.54625771242881
 20
2.495387721598433
 10
-10.54584849021701
 20
2.584132499353984
 10
-10.54584849021701
 20
2.674810499331329
 10
-10.54584849021701
 20
2.695201054881863
 10
-10.56238671201733
 20
2.711598165988789
 10
-10.58265026705588
 20
2.711598165988789
 10
-10.58265026705588
 20
2.711598165988789
 10
-11.15218880808132
 20
2.711598165988789
 10
-11.15218880808132
 20
2.711598165988789
 10
-11.16225003004685
 20
2.711598165988789
 10
-11.17176091869306
 20
2.707604721545351
 10
-11.17878825184716
 20
2.70043627710271
 10
-11.18553336278616
 20
2.693267832660069
 10
-11.18925869602448
 20
2.683488832662646
 10
-11.18897647380943
 20
2.673427610442786
 10
-11.18415047393256
 20
2.543619499364183
 10
-11.16996880762772
 20
1.994189277279247
 10
-11.16775336323981
 20
1.812706277324764
 10
-11.16775336323981
 20
1.812706277324764
 10
-13.9509865144558
 20
1.812706277324764
 10
-13.9509865144558
 20
1.812706277324764
 10
-13.97137706949117
 20
1.812706277324764
 10
-13.98777418018396
 20
1.79602694399557
 10
-13.98777418018396
 20
1.77577749955617
 10
-13.98777418018396
 20
1.77577749955617
 10
-13.98777418018396
 20
1.210288833030858
 10
-13.98777418018396
 20
1.210288833030858
 10
-13.98777418018396
 20
1.190180499702535
 10
-13.97137706949117
 20
1.173642277484475
 10
-13.9509865144558
 20
1.173642277484475
 10
-13.9509865144558
 20
1.173642277484475
 10
-11.14998747480412
 20
1.173642277484475
 10
-11.14998747480412
 20
1.173642277484475
 10
-11.1189712533732
 20
0.3895301665693864
 10
-11.03409292220532
 20
-0.3251129443631271
 10
-10.89793481456787
 20
-0.884322166445429
 10
-10.78177215086477
 20
-1.360572166326392
 10
-10.62756593257667
 20
-1.753312610672651
 10
-10.43932371515693
 20
-2.051522721709318
 10
-10.06312150253241
 20
-2.648211054893351
 10
-9.668588957042203
 20
-2.694509610437421
 10
-9.556828959893451
 20
-2.694509610437421
 10
-9.331248743426229
 20
-2.694509610437421
 10
-9.149892748053034
 20
-2.528605277145572
 10
-9.017474084764629
 20
-2.201453277227415
 10
-8.90942530974344
 20
-1.934118277294146
 10
-8.853474755615266
 20
-1.611100832930446
 10
-8.816545978779643
 20
-1.397232832984002
 10
-8.814076534398211
 20
-1.382077499654428
 10
-8.820962756444728
 20
-1.367190277435838
 10
-8.834184867218525
 20
-1.35947149966006
 97
        0
 97
        0
 92
        1
 93
        1
 72
     4
 94
        3
 73
     0
 74
     0
 95
       77
 96
       73
 40
0.0
 40
0.0
 40
0.0
 40
0.0
 40
1.0
 40
1.0
 40
1.0
 40
2.0
 40
2.0
 40
2.0
 40
3.0
 40
3.0
 40
3.0
 40
4.0
 40
4.0
 40
4.0
 40
5.0
 40
5.0
 40
5.0
 40
6.0
 40
6.0
 40
6.0
 40
7.0
 40
7.0
 40
7.0
 40
8.0
 40
8.0
 40
8.0
 40
9.0
 40
9.0
 40
9.0
 40
10.0
 40
10.0
 40
10.0
 40
11.0
 40
11.0
 40
11.0
 40
12.0
 40
12.0
 40
12.0
 40
13.0
 40
13.0
 40
13.0
 40
14.0
 40
14.0
 40
14.0
 40
15.0
 40
15.0
 40
15.0
 40
16.0
 40
16.0
 40
16.0
 40
17.0
 40
17.0
 40
17.0
 40
18.0
 40
18.0
 40
18.0
 40
19.0
 40
19.0
 40
19.0
 40
20.0
 40
20.0
 40
20.0
 40
21.0
 40
21.0
 40
21.0
 40
22.0
 40
22.0
 40
22.0
 40
23.0
 40
23.0
 40
23.0
 40
24.0
 40
24.0
 40
24.0
 40
24.0
 10
-13.8596170723424
 20
-2.496347277153631
 10
-13.87753818299627
 20
-2.496347277153631
 10
-13.89324267214793
 20
-2.483393277156835
 10
-13.89613662696624
 20
-2.465486277161403
 10
-13.89613662696624
 20
-2.465486277161403
 10
-13.98750489434651
 20
-1.888638166194482
 10
-13.98750489434651
 20
-1.888638166194482
 10
-13.98887484682252
 20
-1.878986166196796
 10
-13.98653240243784
 20
-1.868797943977142
 10
-13.98060573592239
 20
-1.86107916620142
 10
-13.97482018051444
 20
-1.85307816620326
 10
-13.96573262519071
 20
-1.847842943982413
 10
-13.95608062543697
 20
-1.84647416620487
 10
-13.7887934074826
 20
-1.823600055099575
 10
-13.47349474885987
 20
-1.781704166221288
 10
-13.21993219977324
 20
-1.74780927734082
 10
-13.060914092719
 20
-1.726586166234937
 10
-12.92035331852725
 20
-1.707832499572873
 10
-12.8489652092374
 20
-1.698194610686584
 10
-12.8489652092374
 20
-1.698194610686584
 10
-12.8489652092374
 20
-0.1272328333014911
 10
-12.8489652092374
 20
-0.1272328333014911
 10
-12.8489652092374
 20
-0.1272328333014911
 10
-13.8596170723424
 20
-0.1272328333014911
 10
-13.8596170723424
 20
-0.1272328333014911
 10
-13.88000762737776
 20
-0.1272328333014911
 10
-13.89654584917804
 20
-0.1106946110833178
 10
-13.89654584917804
 20
-0.090572166643824
 10
-13.89654584917804
 20
-0.090572166643824
 10
-13.89654584917804
 20
0.4694554998826562
 10
-13.89654584917804
 20
0.4694554998826562
 10
-13.89654584917804
 20
0.4898601665441902
 10
-13.88000762737776
 20
0.5063983887623636
 10
-13.8596170723424
 20
0.5063983887623636
 10
-13.8596170723424
 20
0.5063983887623636
 10
-11.32348358148901
 20
0.5063983887623636
 10
-11.32348358148901
 20
0.5063983887623636
 10
-11.3032200264504
 20
0.5063983887623636
 10
-11.28682291575761
 20
0.4898601665441902
 10
-11.28682291575761
 20
0.4694554998826562
 10
-11.28682291575761
 20
0.4694554998826562
 10
-11.28682291575761
 20
-0.090572166643824
 10
-11.28682291575761
 20
-0.090572166643824
 10
-11.28682291575761
 20
-0.1106946110833178
 10
-11.3032200264504
 20
-0.1272328333014911
 10
-11.32348358148901
 20
-0.1272328333014911
 10
-11.32348358148901
 20
-0.1272328333014911
 10
-12.22209322523024
 20
-0.1272328333014911
 10
-12.22209322523024
 20
-0.1272328333014911
 10
-12.22209322523024
 20
-0.1272328333014911
 10
-12.22209322523024
 20
-1.613852499596532
 10
-12.22209322523024
 20
-1.613852499596532
 10
-11.66275701727784
 20
-1.526208388507257
 10
-11.40037378388224
 20
-1.462553166300892
 10
-11.16473358553904
 20
-1.411555610758114
 10
-11.15398091914672
 20
-1.409086166314352
 10
-11.14253680832756
 20
-1.411837832980324
 10
-11.13385847521564
 20
-1.418724055200755
 10
-11.12518014210367
 20
-1.425892499643452
 10
-11.12035414222681
 20
-1.43636294408526
 10
-11.12035414222681
 20
-1.447383721860262
 10
-11.12035414222681
 20
-1.447383721860262
 10
-11.12035414222681
 20
-1.97903394394973
 10
-11.12035414222681
 20
-1.97903394394973
 10
-11.12035414222681
 20
-1.996122499500756
 10
-11.13192525304272
 20
-2.01100972171946
 10
-11.14874569705804
 20
-2.014862055051821
 10
-12.04529511862961
 20
-2.223494832777305
 10
-13.25176686562771
 20
-2.415603499395956
 10
-13.85479107246551
 20
-2.496347277153631
 10
-13.85658318353093
 20
-2.496347277153631
 10
-13.85810600548991
 20
-2.496347277153631
 10
-13.8596170723424
 20
-2.496347277153631
 97
        0
 97
        0
 92
        1
 93
        1
 72
     4
 94
        3
 73
     0
 74
     0
 95
      101
 96
       97
 40
0.0
 40
0.0
 40
0.0
 40
0.0
 40
1.0
 40
1.0
 40
1.0
 40
2.0
 40
2.0
 40
2.0
 40
3.0
 40
3.0
 40
3.0
 40
4.0
 40
4.0
 40
4.0
 40
5.0
 40
5.0
 40
5.0
 40
6.0
 40
6.0
 40
6.0
 40
7.0
 40
7.0
 40
7.0
 40
8.0
 40
8.0
 40
8.0
 40
9.0
 40
9.0
 40
9.0
 40
10.0
 40
10.0
 40
10.0
 40
11.0
 40
11.0
 40
11.0
 40
12.0
 40
12.0
 40
12.0
 40
13.0
 40
13.0
 40
13.0
 40
14.0
 40
14.0
 40
14.0
 40
15.0
 40
15.0
 40
15.0
 40
16.0
 40
16.0
 40
16.0
 40
17.0
 40
17.0
 40
17.0
 40
18.0
 40
18.0
 40
18.0
 40
19.0
 40
19.0
 40
19.0
 40
20.0
 40
20.0
 40
20.0
 40
21.0
 40
21.0
 40
21.0
 40
22.0
 40
22.0
 40
22.0
 40
23.0
 40
23.0
 40
23.0
 40
24.0
 40
24.0
 40
24.0
 40
25.0
 40
25.0
 40
25.0
 40
26.0
 40
26.0
 40
26.0
 40
27.0
 40
27.0
 40
27.0
 40
28.0
 40
28.0
 40
28.0
 40
29.0
 40
29.0
 40
29.0
 40
30.0
 40
30.0
 40
30.0
 40
31.0
 40
31.0
 40
31.0
 40
32.0
 40
32.0
 40
32.0
 40
32.0
 10
-3.947112103009246
 20
-2.705544499323536
 10
-3.950287102928243
 20
-2.705544499323536
 10
-3.953730213951516
 20
-2.705262277101383
 10
-3.956480452409792
 20
-2.704429721545977
 10
-3.966543102513512
 20
-2.701678054879948
 10
-3.97509443562869
 20
-2.695059943770615
 10
-3.980046007959515
 20
-2.685690165995197
 10
-3.980046007959515
 20
-2.685690165995197
 10
-3.980046007959515
 20
-2.685690165995197
 10
-3.980046007959515
 20
-2.685690165995197
 10
-4.041642433930917
 20
-2.566902832691539
 10
-4.052945433642562
 20
-2.544861277141535
 10
-4.165664986322397
 20
-2.368740499407692
 10
-5.151382516730208
 20
-2.47375538827049
 10
-6.428000595272081
 20
-2.543478388253049
 10
-7.960367118075467
 20
-2.575722277133763
 10
-7.978981000147669
 20
-2.576004499355974
 10
-7.994968888628719
 20
-2.56221794380383
 10
-7.997579444117647
 20
-2.544028721586187
 10
-7.997579444117647
 20
-2.544028721586187
 10
-8.078194895823813
 20
-1.955891721733223
 10
-8.078194895823813
 20
-1.955891721733223
 10
-8.079579108692328
 20
-1.945139055069262
 10
-8.076545219880856
 20
-1.93466861062734
 10
-8.069376775619275
 20
-1.926667610629408
 10
-8.062490553572772
 20
-1.918680721742532
 10
-8.0524293316072
 20
-1.91399583285488
 10
-8.041535554107369
 20
-1.91399583285488
 10
-7.586932010149681
 20
-1.91399583285488
 10
-7.385326570848647
 20
-1.911512277299777
 10
-7.296567684224157
 20
-1.909028721744959
 10
-7.151604243478047
 20
-1.617987055151047
 10
-6.9138871183372
 20
-1.06484561084477
 10
-6.800618585765803
 20
-0.6643863887227326
 10
-6.800618585765803
 20
-0.6643863887227326
 10
-8.133046107328269
 20
-0.6643863887227326
 10
-8.133046107328269
 20
-0.6643863887227326
 10
-8.153168551259355
 20
-0.6643863887227326
 10
-8.169692661948928
 20
-0.647848166504673
 10
-8.169692661948928
 20
-0.6274576109541954
 10
-8.169692661948928
 20
-0.6274576109541954
 10
-8.169692661948928
 20
-0.0790010555357412
 10
-8.169692661948928
 20
-0.0790010555357412
 10
-8.169692661948928
 20
-0.0585963888740935
 10
-8.153168551259355
 20
-0.0423403888782446
 10
-8.133046107328269
 20
-0.0423403888782446
 10
-8.133046107328269
 20
-0.0423403888782446
 10
-3.292681119705164
 20
-0.0423403888782446
 10
-3.292681119705164
 20
-0.0423403888782446
 10
-3.272290564669845
 20
-0.0423403888782446
 10
-3.255893453977037
 20
-0.0585963888740935
 10
-3.255893453977037
 20
-0.0790010555357412
 10
-3.255893453977037
 20
-0.0790010555357412
 10
-3.255893453977037
 20
-0.6274576109541954
 10
-3.255893453977037
 20
-0.6274576109541954
 10
-3.255893453977037
 20
-0.647848166504673
 10
-3.272290564669845
 20
-0.6643863887227326
 10
-3.292681119705164
 20
-0.6643863887227326
 10
-3.292681119705164
 20
-0.6643863887227326
 10
-6.066812604486713
 20
-0.6643863887227326
 10
-6.066812604486713
 20
-0.6643863887227326
 10
-6.249269266498558
 20
-1.120796166386469
 10
-6.443563785121355
 20
-1.562036499609348
 10
-6.606181590726279
 20
-1.890021055082911
 10
-5.669937614611868
 20
-1.868797943977142
 10
-5.526623785350636
 20
-1.861897610645542
 10
-4.543800421119797
 20
-1.810095721769698
 10
-4.543800421119797
 20
-1.810095721769698
 10
-4.545733643292678
 20
-1.807329943992613
 10
-4.545733643292678
 20
-1.807329943992613
 10
-4.782616859471531
 20
-1.476057499630883
 10
-4.913257522805281
 20
-1.293600833009861
 10
-5.135126517144911
 20
-1.060160721957061
 10
-5.142831183615001
 20
-1.052173833070185
 10
-5.146288405749047
 20
-1.041138944184069
 10
-5.144905516895434
 20
-1.030400388631164
 10
-5.14352262804185
 20
-1.01964772196726
 10
-5.137737072633868
 20
-1.00972761085859
 10
-5.128367295095117
 20
-1.003659833082394
 10
-5.128367295095117
 20
-1.003659833082394
 10
-4.671689417857081
 20
-0.7095842776003565
 10
-4.671689417857081
 20
-0.7095842776003565
 10
-4.657211418226438
 20
-0.7002144998248241
 10
-4.637780418722158
 20
-0.7024158331576018
 10
-4.625658974586954
 20
-0.7148194998212603
 10
-4.396635647096516
 20
-0.948259610874004
 10
-3.836734994714092
 20
-1.535027832949481
 10
-3.394111783784111
 20
-2.311421166088791
 10
-3.384600895137864
 20
-2.328227499417891
 10
-3.38969500611904
 20
-2.349732832745758
 10
-3.405965116815039
 20
-2.360471388298606
 10
-3.405965116815039
 20
-2.360471388298606
 10
-3.926988230194965
 20
-2.699744832658268
 10
-3.926988230194965
 20
-2.699744832658268
 10
-3.933056007971217
 20
-2.703611277101856
 10
-3.940225880962714
 20
-2.705544499323536
 10
-3.947112103009246
 20
-2.705544499323536
 97
        0
 97
        0
 92
        1
 93
        1
 72
     4
 94
        3
 73
     0
 74
     0
 95
       71
 96
       67
 40
0.0
 40
0.0
 40
0.0
 40
0.0
 40
1.0
 40
1.0
 40
1.0
 40
2.0
 40
2.0
 40
2.0
 40
3.0
 40
3.0
 40
3.0
 40
4.0
 40
4.0
 40
4.0
 40
5.0
 40
5.0
 40
5.0
 40
6.0
 40
6.0
 40
6.0
 40
7.0
 40
7.0
 40
7.0
 40
8.0
 40
8.0
 40
8.0
 40
9.0
 40
9.0
 40
9.0
 40
10.0
 40
10.0
 40
10.0
 40
11.0
 40
11.0
 40
11.0
 40
12.0
 40
12.0
 40
12.0
 40
13.0
 40
13.0
 40
13.0
 40
14.0
 40
14.0
 40
14.0
 40
15.0
 40
15.0
 40
15.0
 40
16.0
 40
16.0
 40
16.0
 40
17.0
 40
17.0
 40
17.0
 40
18.0
 40
18.0
 40
18.0
 40
19.0
 40
19.0
 40
19.0
 40
20.0
 40
20.0
 40
20.0
 40
21.0
 40
21.0
 40
21.0
 40
22.0
 40
22.0
 40
22.0
 40
22.0
 10
-8.014667999237246
 20
0.3534339443561976
 10
-8.027480887799242
 20
0.3534339443561976
 10
-8.039743443041956
 20
0.3600379443545876
 10
-8.04678488730677
 20
0.3716231665738405
 10
-8.04678488730677
 20
0.3716231665738405
 10
-8.363452323672376
 20
0.914562277549237
 10
-8.363452323672376
 20
0.914562277549237
 10
-8.368969767976054
 20
0.9239320553245988
 10
-8.369929323507122
 20
0.9355172775440223
 10
-8.366343784640719
 20
0.945705499763676
 10
-8.362619768138031
 20
0.955907833094443
 10
-8.354631562421445
 20
0.9638947219813189
 10
-8.344430546379882
 20
0.967761166424907
 10
-7.911727446307921
 20
1.12622894416296
 10
-7.447613013704042
 20
1.378690832988752
 10
-7.03750045163953
 20
1.678890610691496
 10
-6.59681045174976
 20
2.001075499499847
 10
-6.250920266456418
 20
2.352202277189803
 10
-6.036770049697636
 20
2.694368499326515
 10
-6.030024938758614
 20
2.705121165990476
 10
-6.018312716835154
 20
2.711598165988789
 10
-6.005767939377435
 20
2.711598165988789
 10
-6.005767939377435
 20
2.711598165988789
 10
-5.387997621804757
 20
2.711598165988789
 10
-5.387997621804757
 20
2.711598165988789
 10
-5.375043622135237
 20
2.711598165988789
 10
-5.362908066889289
 20
2.704838943768322
 10
-5.356431067054515
 20
2.69381816599332
 10
-4.97016763246448
 20
2.05910038837419
 10
-4.109303785704994
 20
1.422237721866792
 10
-3.053314348034163
 20
0.9898027219748541
 10
-3.04312612607184
 20
0.9856681664202824
 10
-3.035407348491006
 20
0.9773990553113662
 10
-3.032373459679476
 20
0.9672108330915989
 10
-3.028789237548707
 20
0.9570084997608319
 10
-3.029889904187314
 20
0.945705499763676
 10
-3.035675459595282
 20
0.9366179442102975
 10
-3.035675459595282
 20
0.9366179442102975
 10
-3.379633784153483
 20
0.3710728332407029
 10
-3.379633784153483
 20
0.3710728332407029
 10
-3.38969500611904
 20
0.3545346110224727
 10
-3.410777005581167
 20
0.3487490554683745
 10
-3.4281477829158
 20
0.3578366110216962
 10
-3.64229799967461
 20
0.4705702776602721
 10
-3.931124214528253
 20
0.622419944288879
 10
-4.23912600789481
 20
0.8249990553493375
 10
-4.23912600789481
 20
0.8249990553493375
 10
-4.23912600789481
 20
0.5711542776350598
 10
-4.23912600789481
 20
0.5711542776350598
 10
-4.23912600789481
 20
0.5507637220846391
 10
-4.255651539582217
 20
0.5345077220887334
 10
-4.275915094620756
 20
0.5345077220887334
 10
-4.275915094620756
 20
0.5345077220887334
 10
-7.128447910735488
 20
0.5345077220887334
 10
-7.128447910735488
 20
0.5345077220887334
 10
-7.14857035466656
 20
0.5345077220887334
 10
-7.165249687574416
 20
0.5507637220846391
 10
-7.165249687574416
 20
0.5711542776350598
 10
-7.165249687574416
 20
0.5711542776350598
 10
-7.165249687574416
 20
0.8081786109091808
 10
-7.165249687574416
 20
0.8081786109091808
 10
-7.529048233848683
 20
0.5706039443018654
 10
-7.759454450192734
 20
0.4625692776622828
 10
-7.999921888502356
 20
0.3564678332443236
 10
-8.004888999486738
 20
0.3545346110224727
 10
-8.009714999363595
 20
0.3534339443561976
 10
-8.014667999237246
 20
0.3534339443561976
 97
        0
 97
        0
 92
        1
 93
        1
 72
     4
 94
        3
 73
     0
 74
     0
 95
       14
 96
       10
 40
0.0
 40
0.0
 40
0.0
 40
0.0
 40
1.0
 40
1.0
 40
1.0
 40
2.0
 40
2.0
 40
2.0
 40
3.0
 40
3.0
 40
3.0
 40
3.0
 10
-6.692710921852082
 20
1.145250721936008
 10
-6.692710921852082
 20
1.145250721936008
 10
-4.686294417484489
 20
1.145250721936008
 10
-4.686294417484489
 20
1.145250721936008
 10
-5.185968849181165
 20
1.532135055172659
 10
-5.551432506524079
 20
1.956851277288706
 10
-5.693362058458674
 20
2.124688832802291
 10
-5.903095497552399
 20
1.861897610645655
 10
-6.175397601716483
 20
1.549491721834897
 10
-6.692710921852082
 20
1.145250721936008
 97
        0
 97
        0
 92
        1
 93
        1
 72
     4
 94
        3
 73
     0
 74
     0
 95
      107
 96
      103
 40
0.0
 40
0.0
 40
0.0
 40
0.0
 40
1.0
 40
1.0
 40
1.0
 40
2.0
 40
2.0
 40
2.0
 40
3.0
 40
3.0
 40
3.0
 40
4.0
 40
4.0
 40
4.0
 40
5.0
 40
5.0
 40
5.0
 40
6.0
 40
6.0
 40
6.0
 40
7.0
 40
7.0
 40
7.0
 40
8.0
 40
8.0
 40
8.0
 40
9.0
 40
9.0
 40
9.0
 40
10.0
 40
10.0
 40
10.0
 40
11.0
 40
11.0
 40
11.0
 40
12.0
 40
12.0
 40
12.0
 40
13.0
 40
13.0
 40
13.0
 40
14.0
 40
14.0
 40
14.0
 40
15.0
 40
15.0
 40
15.0
 40
16.0
 40
16.0
 40
16.0
 40
17.0
 40
17.0
 40
17.0
 40
18.0
 40
18.0
 40
18.0
 40
19.0
 40
19.0
 40
19.0
 40
20.0
 40
20.0
 40
20.0
 40
21.0
 40
21.0
 40
21.0
 40
22.0
 40
22.0
 40
22.0
 40
23.0
 40
23.0
 40
23.0
 40
24.0
 40
24.0
 40
24.0
 40
25.0
 40
25.0
 40
25.0
 40
26.0
 40
26.0
 40
26.0
 40
27.0
 40
27.0
 40
27.0
 40
28.0
 40
28.0
 40
28.0
 40
29.0
 40
29.0
 40
29.0
 40
30.0
 40
30.0
 40
30.0
 40
31.0
 40
31.0
 40
31.0
 40
32.0
 40
32.0
 40
32.0
 40
33.0
 40
33.0
 40
33.0
 40
34.0
 40
34.0
 40
34.0
 40
34.0
 10
-1.138676507991718
 20
-2.70581261043452
 10
-1.138676507991718
 20
-2.70581261043452
 10
-1.691817938324376
 20
-2.70581261043452
 10
-1.691817938324376
 20
-2.70581261043452
 10
-1.71220849335971
 20
-2.70581261043452
 10
-1.728746715159999
 20
-2.689274388216574
 10
-1.728746715159999
 20
-2.66888383266604
 10
-1.728746715159999
 20
-2.66888383266604
 10
-1.728746715159999
 20
-0.5731580554122502
 10
-1.728746715159999
 20
-0.5731580554122502
 10
-2.007384708051361
 20
-0.8402249442342508
 10
-2.162282370766277
 20
-0.9399904997649173
 10
-2.312212922496769
 20
-1.036736277518457
 10
-2.312212922496769
 20
-1.036736277518457
 10
-2.321990452818468
 20
-1.04307216640575
 10
-2.321990452818468
 20
-1.04307216640575
 10
-2.330952477574228
 20
-1.048857721959905
 10
-2.342664699497689
 20
-1.050508721959431
 10
-2.35299403256748
 20
-1.047206721960321
 10
-2.363477119474779
 20
-1.043904721961098
 10
-2.371874698752449
 20
-1.036185944185319
 10
-2.376009254202514
 20
-1.025983610854552
 10
-2.376009254202514
 20
-1.025983610854552
 10
-2.612342137062071
 20
-0.4494177221097857
 10
-2.612342137062071
 20
-0.4494177221097857
 10
-2.619101359111837
 20
-0.4325972776695153
 10
-2.612892470381368
 20
-0.4135896110076942
 10
-2.597737137434691
 20
-0.4039376110100648
 10
-1.947299598473179
 20
-0.0029280555547757
 10
-1.4306777227644
 20
0.594310610962566
 10
-1.1720210626966
 20
1.201751610810788
 10
-1.1720210626966
 20
1.201751610810788
 10
-2.502924584297957
 20
1.201751610810788
 10
-2.502924584297957
 20
1.201751610810788
 10
-2.523456250440844
 20
1.201751610810788
 10
-2.539994472241119
 20
1.218289833028848
 10
-2.539994472241119
 20
1.238412277468285
 10
-2.539994472241119
 20
1.238412277468285
 10
-2.539994472241119
 20
1.792724943996404
 10
-2.539994472241119
 20
1.792724943996404
 10
-2.539994472241119
 20
1.812974388435691
 10
-2.523456250440844
 20
1.829512610653864
 10
-2.502924584297957
 20
1.829512610653864
 10
-2.502924584297957
 20
1.829512610653864
 10
-1.728746715159999
 20
1.829512610653864
 10
-1.728746715159999
 20
1.829512610653864
 10
-1.728746715159999
 20
1.829512610653864
 10
-1.728746715159999
 20
2.674810499331329
 10
-1.728746715159999
 20
2.674810499331329
 10
-1.728746715159999
 20
2.695059943770729
 10
-1.71220849335971
 20
2.711598165988789
 10
-1.691817938324376
 20
2.711598165988789
 10
-1.691817938324376
 20
2.711598165988789
 10
-1.138676507991718
 20
2.711598165988789
 10
-1.138676507991718
 20
2.711598165988789
 10
-1.11827184184564
 20
2.711598165988789
 10
-1.101747731156081
 20
2.695059943770729
 10
-1.101747731156081
 20
2.674810499331329
 10
-1.101747731156081
 20
2.674810499331329
 10
-1.101747731156081
 20
1.829512610653864
 10
-1.101747731156081
 20
1.829512610653864
 10
-1.101747731156081
 20
1.829512610653864
 10
-0.5101535240266771
 20
1.829512610653864
 10
-0.5101535240266771
 20
1.829512610653864
 10
-0.4896218578838472
 20
1.829512610653864
 10
-0.4730836360835156
 20
1.812974388435691
 10
-0.4730836360835156
 20
1.792724943996404
 10
-0.4730836360835156
 20
1.792724943996404
 10
-0.4730836360835156
 20
1.238412277468285
 10
-0.4730836360835156
 20
1.238412277468285
 10
-0.4730836360835156
 20
1.233445166358364
 10
-0.4741843027221222
 20
1.228760277470655
 10
-0.4759748977245267
 20
1.224075388582946
 10
-0.5576938561471679
 20
1.032248944186449
 10
-0.6803335196850498
 20
0.7213670553753105
 10
-1.006102622485073
 20
0.2619233888235044
 10
-0.7562654066367572
 20
-0.0346216111023523
 10
-0.6321017431377669
 20
-0.1310851666338522
 10
-0.3125415290682127
 20
-0.3794124999050155
 10
-0.3125415290682127
 20
-0.3794124999050155
 10
-0.277955196617242
 20
-0.4064211665649964
 10
-0.277955196617242
 20
-0.4064211665649964
 10
-0.2641671199996409
 20
-0.4168916110067471
 10
-0.259765974859036
 20
-0.4356311665576414
 10
-0.2673436413324026
 20
-0.4513509443314661
 10
-0.2673436413324026
 20
-0.4513509443314661
 10
-0.5251677458658861
 20
-0.988504499752878
 10
-0.5251677458658861
 20
-0.988504499752878
 10
-0.5301348568502391
 20
-0.9987068330835882
 10
-0.5395046343890045
 20
-1.006143388637326
 10
-0.5508076341006501
 20
-1.008626944192144
 10
-0.561828411597233
 20
-1.010828277525035
 10
-0.573399522413169
 20
-1.008076610859006
 10
-0.5822189666325955
 20
-1.000625944194268
 10
-0.7972017389257218
 20
-0.8176330553511661
 10
-0.937480290902485
 20
-0.6784410553858038
 10
-1.101747731156081
 20
-0.4816616109906704
 10
-1.101747731156081
 20
-0.4816616109906704
 10
-1.101747731156081
 20
-2.66888383266604
 10
-1.101747731156081
 20
-2.66888383266604
 10
-1.101747731156081
 20
-2.689274388216574
 10
-1.11827184184564
 20
-2.70581261043452
 10
-1.138676507991718
 20
-2.70581261043452
 97
        0
 97
        0
 92
        1
 93
        1
 72
     4
 94
        3
 73
     0
 74
     0
 95
       83
 96
       79
 40
0.0
 40
0.0
 40
0.0
 40
0.0
 40
1.0
 40
1.0
 40
1.0
 40
2.0
 40
2.0
 40
2.0
 40
3.0
 40
3.0
 40
3.0
 40
4.0
 40
4.0
 40
4.0
 40
5.0
 40
5.0
 40
5.0
 40
6.0
 40
6.0
 40
6.0
 40
7.0
 40
7.0
 40
7.0
 40
8.0
 40
8.0
 40
8.0
 40
9.0
 40
9.0
 40
9.0
 40
10.0
 40
10.0
 40
10.0
 40
11.0
 40
11.0
 40
11.0
 40
12.0
 40
12.0
 40
12.0
 40
13.0
 40
13.0
 40
13.0
 40
14.0
 40
14.0
 40
14.0
 40
15.0
 40
15.0
 40
15.0
 40
16.0
 40
16.0
 40
16.0
 40
17.0
 40
17.0
 40
17.0
 40
18.0
 40
18.0
 40
18.0
 40
19.0
 40
19.0
 40
19.0
 40
20.0
 40
20.0
 40
20.0
 40
21.0
 40
21.0
 40
21.0
 40
22.0
 40
22.0
 40
22.0
 40
23.0
 40
23.0
 40
23.0
 40
24.0
 40
24.0
 40
24.0
 40
25.0
 40
25.0
 40
25.0
 40
26.0
 40
26.0
 40
26.0
 40
26.0
 10
2.530212287296009
 20
-2.519221388258927
 10
2.530212287296009
 20
-2.519221388258927
 10
-0.6603521868614877
 20
-2.519221388258927
 10
-0.6603521868614877
 20
-2.519221388258927
 10
-0.6808838530043176
 20
-2.519221388258927
 10
-0.697422074804635
 20
-2.502697277152037
 10
-0.697422074804635
 20
-2.482292610490503
 10
-0.697422074804635
 20
-2.482292610490503
 10
-0.697422074804635
 20
-1.877335166197099
 10
-0.697422074804635
 20
-1.877335166197099
 10
-0.697422074804635
 20
-1.856944610646849
 10
-0.6808838530043176
 20
-1.840406388428732
 10
-0.6603521868614877
 20
-1.840406388428732
 10
-0.6603521868614877
 20
-1.840406388428732
 10
0.6563555573242752
 20
-1.840406388428732
 10
0.6563555573242752
 20
-1.840406388428732
 10
0.6563555573242752
 20
-1.840406388428732
 10
0.6563555573242752
 20
0.4328089443363865
 10
0.6563555573242752
 20
0.4328089443363865
 10
0.6563555573242752
 20
0.4328089443363865
 10
-0.398111304662919
 20
0.4328089443363865
 10
-0.398111304662919
 20
0.4328089443363865
 10
-0.418515970808997
 20
0.4328089443363865
 10
-0.4350400814985705
 20
0.4490649443322355
 10
-0.4350400814985705
 20
0.4694554998826562
 10
-0.4350400814985705
 20
0.4694554998826562
 10
-0.4350400814985705
 20
1.0746951663981
 10
-0.4350400814985705
 20
1.0746951663981
 10
-0.4350400814985705
 20
1.09481761083748
 10
-0.418515970808997
 20
1.11135583305554
 10
-0.398111304662919
 20
1.11135583305554
 10
-0.398111304662919
 20
1.11135583305554
 10
0.6563555573242752
 20
1.11135583305554
 10
0.6563555573242752
 20
1.11135583305554
 10
0.6563555573242752
 20
1.11135583305554
 10
0.6563555573242752
 20
2.674810499331329
 10
0.6563555573242752
 20
2.674810499331329
 10
0.6563555573242752
 20
2.695059943770729
 10
0.6726256680203165
 20
2.711598165988789
 10
0.6930162230556931
 20
2.711598165988789
 10
0.6930162230556931
 20
2.711598165988789
 10
1.257178430884906
 20
2.711598165988789
 10
1.257178430884906
 20
2.711598165988789
 10
1.277441985923488
 20
2.711598165988789
 10
1.293981768499875
 20
2.695059943770729
 10
1.293981768499875
 20
2.674810499331329
 10
1.293981768499875
 20
2.674810499331329
 10
1.293981768499875
 20
1.11135583305554
 10
1.293981768499875
 20
1.11135583305554
 10
1.293981768499875
 20
1.11135583305554
 10
2.375328735691837
 20
1.11135583305554
 10
2.375328735691837
 20
1.11135583305554
 10
2.3957192907272
 20
1.11135583305554
 10
2.412257512527489
 20
1.09481761083748
 10
2.412257512527489
 20
1.0746951663981
 10
2.412257512527489
 20
1.0746951663981
 10
2.412257512527489
 20
0.4694554998826562
 10
2.412257512527489
 20
0.4694554998826562
 10
2.412257512527489
 20
0.4490649443322355
 10
2.3957192907272
 20
0.4328089443363865
 10
2.375328735691837
 20
0.4328089443363865
 10
2.375328735691837
 20
0.4328089443363865
 10
1.293981768499875
 20
0.4328089443363865
 10
1.293981768499875
 20
0.4328089443363865
 10
1.293981768499875
 20
0.4328089443363865
 10
1.293981768499875
 20
-1.840406388428732
 10
1.293981768499875
 20
-1.840406388428732
 10
1.293981768499875
 20
-1.840406388428732
 10
2.530212287296009
 20
-1.840406388428732
 10
2.530212287296009
 20
-1.840406388428732
 10
2.550616953442116
 20
-1.840406388428732
 10
2.567141064131632
 20
-1.856944610646849
 10
2.567141064131632
 20
-1.877335166197099
 10
2.567141064131632
 20
-1.877335166197099
 10
2.567141064131632
 20
-2.482292610490503
 10
2.567141064131632
 20
-2.482292610490503
 10
2.567141064131632
 20
-2.502697277152037
 10
2.550616953442116
 20
-2.519221388258927
 10
2.530212287296009
 20
-2.519221388258927
 97
        0
 97
        0
 75
     2
 76
     1
 98
        0
450
        0
451
        0
460
0.0
461
0.0
452
        0
462
0.0
453
        0
470

  0
ENDBLK
  5
A1A
330
A17
100
AcDbEntity
  8
0
100
AcDbBlockEnd
  0
BLOCK
  5
BEF
330
BEE
100
AcDbEntity
  8
0
 62
     4
100
AcDbBlockBegin
  2
S25
 70
     0
 10
0.0
 20
0.0
 30
0.0
  3
S25
  1

  0
LINE
  5
BF0
330
BEE
100
AcDbEntity
  8
BALN
 62
     2
100
AcDbLine
 10
36.0
 20
5.0
 30
0.0
 11
0.0
 21
5.0
 31
0.0
  0
LINE
  5
BF1
330
BEE
100
AcDbEntity
  8
BALN
 62
     3
100
AcDbLine
 10
18.0
 20
5.0
 30
0.0
 11
18.0
 21
0.0
 31
0.0
  0
TEXT
  5
BF2
330
BEE
100
AcDbEntity
  8
BALN
  6
Continuous
 62
     7
100
AcDbText
 10
1.5
 20
1.0
 30
0.0
 40
3.0
  1
重量（ｇ）
 41
0.833
  7
K
100
AcDbText
  0
POINT
  5
BF3
330
BEE
100
AcDbEntity
  8
DEFPOINTS
  6
Continuous
 62
     7
100
AcDbPoint
 10
19.5
 20
1.0
 30
0.0
  0
LINE
  5
BF4
330
BEE
100
AcDbEntity
  8
BALN
 62
     2
100
AcDbLine
 10
36.0
 20
5.0
 30
0.0
 11
36.0
 21
0.0
 31
0.0
  0
ENDBLK
  5
BF5
330
BEE
100
AcDbEntity
  8
0
 62
     4
100
AcDbBlockEnd
  0
BLOCK
  5
BF7
330
BF6
100
AcDbEntity
  8
0
 62
     2
100
AcDbBlockBegin
  2
S2
 70
     0
 10
0.0
 20
0.0
 30
0.0
  3
S2
  1

  0
TEXT
  5
BF8
330
BF6
100
AcDbEntity
  8
BALN
100
AcDbText
 10
1.086999999999989
 20
0.5
 30
0.0
 40
2.0
  1
０２
 41
0.833
  7
BIGFONT
100
AcDbText
  0
LINE
  5
BF9
330
BF6
100
AcDbEntity
  8
BALN
  6
CONTINUOUS-S
 62
     6
100
AcDbLine
 10
2.887
 20
5.0
 30
0.0
 11
5.774
 21
0.0
 31
0.0
  0
LINE
  5
BFA
330
BF6
100
AcDbEntity
  8
BALN
  6
CONTINUOUS-S
 62
     6
100
AcDbLine
 10
2.887
 20
5.0
 30
0.0
 11
0.0
 21
0.0
 31
0.0
  0
LINE
  5
BFB
330
BF6
100
AcDbEntity
  8
BALN
  6
CONTINUOUS-S
 62
     6
100
AcDbLine
 10
5.774
 20
0.0
 30
0.0
 11
0.0
 21
0.0
 31
0.0
  0
ENDBLK
  5
BFC
330
BF6
100
AcDbEntity
  8
0
 62
     2
100
AcDbBlockEnd
  0
BLOCK
  5
BFE
330
BFD
100
AcDbEntity
  8
0
 62
     2
100
AcDbBlockBegin
  2
S1
 70
     0
 10
0.0
 20
0.0
 30
0.0
  3
S1
  1

  0
LINE
  5
BFF
330
BFD
100
AcDbEntity
  8
BALN
  6
CONTINUOUS-S
 62
     6
100
AcDbLine
 10
5.774
 20
0.0
 30
0.0
 11
0.0
 21
0.0
 31
0.0
  0
LINE
  5
C00
330
BFD
100
AcDbEntity
  8
BALN
  6
CONTINUOUS-S
 62
     6
100
AcDbLine
 10
2.887
 20
5.0
 30
0.0
 11
0.0
 21
0.0
 31
0.0
  0
LINE
  5
C01
330
BFD
100
AcDbEntity
  8
BALN
  6
CONTINUOUS-S
 62
     6
100
AcDbLine
 10
2.887
 20
5.0
 30
0.0
 11
5.774
 21
0.0
 31
0.0
  0
TEXT
  5
C02
330
BFD
100
AcDbEntity
  8
BALN
100
AcDbText
 10
1.086999999999989
 20
0.5
 30
0.0
 40
2.0
  1
０１
 41
0.833
  7
BIGFONT
100
AcDbText
  0
ENDBLK
  5
C03
330
BFD
100
AcDbEntity
  8
0
 62
     2
100
AcDbBlockEnd
  0
BLOCK
  5
C34
330
C33
100
AcDbEntity
  8
0
 62
     2
100
AcDbBlockBegin
  2
S60
 70
     0
 10
0.0
 20
0.0
 30
0.0
  3
S60
  1

  0
TEXT
  5
C35
330
C33
100
AcDbEntity
  8
BALN
100
AcDbText
 10
0.0
 20
0.0
 30
0.0
 40
3.0
  1
注　記
 41
0.833
  7
BIGFONT
100
AcDbText
  0
ENDBLK
  5
C36
330
C33
100
AcDbEntity
  8
0
 62
     2
100
AcDbBlockEnd
  0
BLOCK
  5
D32
330
D31
100
AcDbEntity
  8
0
 62
     2
100
AcDbBlockBegin
  2
*D7
 70
     1
 10
0.0
 20
0.0
 30
0.0
  3
*D7
  1

  0
LINE
  5
DA6
330
D31
100
AcDbEntity
  8
BALN
 62
     4
440
 16777216
370
    -2
100
AcDbLine
 10
0.0
 20
335.0000000000001
 30
0.0
 11
263.25488593273
 21
335.0000000000002
 31
0.0
  0
LINE
  5
DA7
330
D31
100
AcDbEntity
  8
BALN
 62
     4
440
 16777216
370
    -2
100
AcDbLine
 10
0.0
 20
15.00000000000001
 30
0.0
 11
263.2548859327301
 21
15.00000000000005
 31
0.0
  0
LINE
  5
DA8
330
D31
100
AcDbEntity
  8
BALN
 62
     4
440
 16777216
370
    -2
100
AcDbLine
 10
253.25488593273
 20
327.5000000000002
 30
0.0
 11
253.2548859327301
 21
22.50000000000005
 31
0.0
  0
INSERT
  5
DA9
330
D31
100
AcDbEntity
  8
BALN
 62
     4
440
 16777216
370
    -2
100
AcDbBlockReference
  2
_OPEN
 10
253.25488593273
 20
335.0000000000002
 30
0.0
 41
7.5
 42
7.5
 43
7.5
 50
90.0
  0
INSERT
  5
DAA
330
D31
100
AcDbEntity
  8
BALN
 62
     4
440
 16777216
370
    -2
100
AcDbBlockReference
  2
_OPEN
 10
253.2548859327301
 20
15.00000000000005
 30
0.0
 41
7.5
 42
7.5
 43
7.5
 50
270.0
  0
MTEXT
  5
DAB
330
D31
100
AcDbEntity
  8
BALN
440
 16777216
100
AcDbMText
 10
242.7548859327301
 20
175.0
 30
0.0
 40
15.0
 41
0.0
 46
0.0
 71
     5
 72
     1
  1
（%%c320）
  7
BIGFONT
 11
0.0000000000000001
 21
1.0
 31
0.0
 73
     1
 44
1.0
  0
POINT
  5
DAC
330
D31
100
AcDbEntity
  8
DEFPOINTS
 62
     0
100
AcDbPoint
 10
0.0
 20
335.0000000000001
 30
0.0
  0
POINT
  5
DAD
330
D31
100
AcDbEntity
  8
DEFPOINTS
 62
     0
100
AcDbPoint
 10
0.0
 20
15.00000000000001
 30
0.0
  0
POINT
  5
DAE
330
D31
100
AcDbEntity
  8
DEFPOINTS
 62
     0
100
AcDbPoint
 10
253.2548859327301
 20
15.00000000000005
 30
0.0
  0
ENDBLK
  5
D33
330
D31
100
AcDbEntity
  8
0
 62
     2
100
AcDbBlockEnd
  0
BLOCK
  5
D3E
330
D3D
100
AcDbEntity
  8
0
 62
     2
100
AcDbBlockBegin
  2
*D8
 70
     1
 10
0.0
 20
0.0
 30
0.0
  3
*D8
  1

  0
LINE
  5
DAF
330
D3D
100
AcDbEntity
  8
BALN
 62
     4
440
 16777216
370
    -2
100
AcDbLine
 10
40.8243691801141
 20
118.7971788426508
 30
0.0
 11
16.45551482103497
 21
152.3457281738214
 31
0.0
  0
LINE
  5
DB0
330
D3D
100
AcDbEntity
  8
BALN
 62
     4
440
 16777216
370
    -2
100
AcDbLine
 10
-16.45551482103504
 20
197.6542718261923
 30
0.0
 11
-20.86324200524083
 21
203.7223803510634
 31
0.0
  0
MTEXT
  5
DB1
330
D3D
100
AcDbEntity
  8
BALN
440
 16777216
100
AcDbMText
 10
39.33915752749696
 20
138.7082173036887
 30
0.0
 40
15.0
 41
0.0
 46
0.0
 71
     5
 72
     1
  1
∅41
  7
BIGFONT
 11
0.5876969578941069
 21
-0.8090811366494786
 31
0.0
 73
     1
 44
1.0
  0
LINE
  5
DB2
330
D3D
100
AcDbEntity
  8
BALN
 62
     4
440
 16777216
370
    -2
100
AcDbLine
 10
-12.04778763682923
 20
191.5861633013212
 30
0.0
 11
12.04778763682917
 21
158.4138366986925
 31
0.0
  0
INSERT
  5
DB3
330
D3D
100
AcDbEntity
  8
BALN
 62
     4
440
 16777216
370
    -2
100
AcDbBlockReference
  2
_OPEN
 10
-12.04778763682923
 20
191.5861633013212
 30
0.0
 41
7.5
 42
7.5
 43
7.5
 50
305.9937471080659
  0
INSERT
  5
DB4
330
D3D
100
AcDbEntity
  8
BALN
 62
     4
440
 16777216
370
    -2
100
AcDbBlockReference
  2
_OPEN
 10
12.04778763682917
 20
158.4138366986925
 30
0.0
 41
7.5
 42
7.5
 43
7.5
 50
125.9937471080659
  0
POINT
  5
DB5
330
D3D
100
AcDbEntity
  8
DEFPOINTS
 62
     0
100
AcDbPoint
 10
12.04778763682917
 20
158.4138366986925
 30
0.0
  0
POINT
  5
DB6
330
D3D
100
AcDbEntity
  8
DEFPOINTS
 62
     0
100
AcDbPoint
 10
-12.04778763682923
 20
191.5861633013212
 30
0.0
  0
ENDBLK
  5
D3F
330
D3D
100
AcDbEntity
  8
0
 62
     2
100
AcDbBlockEnd
  0
BLOCK
  5
D49
330
D48
100
AcDbEntity
  8
0
 62
     2
100
AcDbBlockBegin
  2
*D9
 70
     1
 10
0.0
 20
0.0
 30
0.0
  3
*D9
  1

  0
LINE
  5
DB7
330
D48
100
AcDbEntity
  8
BALN
 62
     4
440
 16777216
370
    -2
100
AcDbLine
 10
156.9999994193537
 20
-92.38348233453805
 30
0.0
 11
247.3418224501894
 21
-92.38348233453804
 31
0.0
  0
LINE
  5
DB8
330
D48
100
AcDbEntity
  8
BALN
 62
     4
440
 16777216
370
    -2
100
AcDbLine
 10
57.49999999999511
 20
-242.3834823345387
 30
0.0
 11
247.3418224501894
 21
-242.3834823345387
 31
0.0
  0
LINE
  5
DB9
330
D48
100
AcDbEntity
  8
BALN
 62
     4
440
 16777216
370
    -2
100
AcDbLine
 10
237.3418224501893
 20
-99.88348233453805
 30
0.0
 11
237.3418224501893
 21
-234.8834823345387
 31
0.0
  0
INSERT
  5
DBA
330
D48
100
AcDbEntity
  8
BALN
 62
     4
440
 16777216
370
    -2
100
AcDbBlockReference
  2
_OPEN
 10
237.3418224501893
 20
-92.38348233453804
 30
0.0
 41
7.5
 42
7.5
 43
7.5
 50
90.0
  0
INSERT
  5
DBB
330
D48
100
AcDbEntity
  8
BALN
 62
     4
440
 16777216
370
    -2
100
AcDbBlockReference
  2
_OPEN
 10
237.3418224501893
 20
-242.3834823345387
 30
0.0
 41
7.5
 42
7.5
 43
7.5
 50
270.0
  0
MTEXT
  5
DBC
330
D48
100
AcDbEntity
  8
BALN
440
 16777216
100
AcDbMText
 10
226.8418224501893
 20
-167.3834823345382
 30
0.0
 40
15.0
 41
0.0
 46
0.0
 71
     5
 72
     1
  1
（150）
  7
BIGFONT
 11
0.0000000000000001
 21
1.0
 31
0.0
 73
     1
 44
1.0
  0
POINT
  5
DBD
330
D48
100
AcDbEntity
  8
DEFPOINTS
 62
     0
100
AcDbPoint
 10
156.9999994193537
 20
-92.38348233453805
 30
0.0
  0
POINT
  5
DBE
330
D48
100
AcDbEntity
  8
DEFPOINTS
 62
     0
100
AcDbPoint
 10
57.49999999999511
 20
-242.3834823345387
 30
0.0
  0
POINT
  5
DBF
330
D48
100
AcDbEntity
  8
DEFPOINTS
 62
     0
100
AcDbPoint
 10
237.3418224501893
 20
-242.3834823345387
 30
0.0
  0
ENDBLK
  5
D4A
330
D48
100
AcDbEntity
  8
0
 62
     2
100
AcDbBlockEnd
  0
BLOCK
  5
D55
330
D54
100
AcDbEntity
  8
0
 62
     2
100
AcDbBlockBegin
  2
*D10
 70
     1
 10
0.0
 20
0.0
 30
0.0
  3
*D10
  1

  0
LINE
  5
DC0
330
D54
100
AcDbEntity
  8
BALN
 62
     4
440
 16777216
370
    -2
100
AcDbLine
 10
-57.50000000000489
 20
-242.3834823345385
 30
0.0
 11
-57.5000000000049
 21
-319.4104811458081
 31
0.0
  0
LINE
  5
DC1
330
D54
100
AcDbEntity
  8
BALN
 62
     4
440
 16777216
370
    -2
100
AcDbLine
 10
57.49999999999508
 20
-242.3834823345386
 30
0.0
 11
57.49999999999507
 21
-319.4104811458081
 31
0.0
  0
LINE
  5
DC2
330
D54
100
AcDbEntity
  8
BALN
 62
     4
440
 16777216
370
    -2
100
AcDbLine
 10
-50.0000000000049
 20
-309.410481145808
 30
0.0
 11
49.99999999999507
 21
-309.410481145808
 31
0.0
  0
INSERT
  5
DC3
330
D54
100
AcDbEntity
  8
BALN
 62
     4
440
 16777216
370
    -2
100
AcDbBlockReference
  2
_OPEN
 10
-57.5000000000049
 20
-309.410481145808
 30
0.0
 41
7.5
 42
7.5
 43
7.5
 50
180.0
  0
INSERT
  5
DC4
330
D54
100
AcDbEntity
  8
BALN
 62
     4
440
 16777216
370
    -2
100
AcDbBlockReference
  2
_OPEN
 10
57.49999999999507
 20
-309.410481145808
 30
0.0
 41
7.5
 42
7.5
 43
7.5
  0
MTEXT
  5
DC5
330
D54
100
AcDbEntity
  8
BALN
440
 16777216
100
AcDbMText
 10
-0.0000000000048879
 20
-298.910481145808
 30
0.0
 40
15.0
 41
0.0
 46
0.0
 71
     5
 72
     1
  1
（%%c115）
  7
BIGFONT
 73
     1
 44
1.0
  0
POINT
  5
DC6
330
D54
100
AcDbEntity
  8
DEFPOINTS
 62
     0
100
AcDbPoint
 10
-57.50000000000489
 20
-242.3834823345385
 30
0.0
  0
POINT
  5
DC7
330
D54
100
AcDbEntity
  8
DEFPOINTS
 62
     0
100
AcDbPoint
 10
57.49999999999508
 20
-242.3834823345386
 30
0.0
  0
POINT
  5
DC8
330
D54
100
AcDbEntity
  8
DEFPOINTS
 62
     0
100
AcDbPoint
 10
57.49999999999507
 20
-309.410481145808
 30
0.0
  0
ENDBLK
  5
D56
330
D54
100
AcDbEntity
  8
0
 62
     2
100
AcDbBlockEnd
  0
BLOCK
  5
ED0
330
ECF
100
AcDbEntity
  8
0
 62
     2
100
AcDbBlockBegin
  2
*D11
 70
     1
 10
0.0
 20
0.0
 30
0.0
  3
*D11
  1

  0
LINE
  5
ED1
330
ECF
100
AcDbEntity
  8
BALN
 62
     4
440
 16777216
370
    -2
100
AcDbLine
 10
-531.5555212649396
 20
637.3758954759225
 30
0.0
 11
-531.5555212649396
 21
673.3165175707508
 31
0.0
  0
LINE
  5
ED2
330
ECF
100
AcDbEntity
  8
BALN
 62
     4
440
 16777216
370
    -2
100
AcDbLine
 10
-636.0
 20
657.3758258008292
 30
0.0
 11
-636.0
 21
673.3165175707508
 31
0.0
  0
LINE
  5
ED3
330
ECF
100
AcDbEntity
  8
BALN
 62
     4
440
 16777216
370
    -2
100
AcDbLine
 10
-539.0555212649396
 20
663.3165175707508
 30
0.0
 11
-628.5
 21
663.3165175707508
 31
0.0
  0
INSERT
  5
ED4
330
ECF
100
AcDbEntity
  8
BALN
 62
     4
440
 16777216
370
    -2
100
AcDbBlockReference
  2
_OPEN
 10
-531.5555212649396
 20
663.3165175707508
 30
0.0
 41
7.5
 42
7.5
 43
7.5
  0
INSERT
  5
ED5
330
ECF
100
AcDbEntity
  8
BALN
 62
     4
440
 16777216
370
    -2
100
AcDbBlockReference
  2
_OPEN
 10
-636.0
 20
663.3165175707508
 30
0.0
 41
7.5
 42
7.5
 43
7.5
 50
180.0
  0
MTEXT
  5
ED6
330
ECF
100
AcDbEntity
  8
BALN
 62
     1
440
 16777216
100
AcDbMText
 10
-583.5025601629049
 20
673.8165175707508
 30
0.0
 40
15.0
 41
0.0
 46
0.0
 71
     5
 72
     1
  1
（104）
  7
BIGFONT
 73
     1
 44
1.0
  0
POINT
  5
ED7
330
ECF
100
AcDbEntity
  8
DEFPOINTS
 62
     0
100
AcDbPoint
 10
-531.5555212649396
 20
637.3758954759225
 30
0.0
  0
POINT
  5
ED8
330
ECF
100
AcDbEntity
  8
DEFPOINTS
 62
     0
100
AcDbPoint
 10
-636.0
 20
657.3758258008292
 30
0.0
  0
POINT
  5
ED9
330
ECF
100
AcDbEntity
  8
DEFPOINTS
 62
     0
100
AcDbPoint
 10
-636.0
 20
663.3165175707508
 30
0.0
  0
ENDBLK
  5
EDA
330
ECF
100
AcDbEntity
  8
0
 62
     2
100
AcDbBlockEnd
  0
BLOCK
  5
F58
330
EE4
100
AcDbEntity
  8
0
 62
     2
100
AcDbBlockBegin
  2
A$C5a874807
 70
     0
 10
0.0
 20
0.0
 30
0.0
  3
A$C5a874807
  1

  0
SPLINE
  5
EE5
330
EE4
100
AcDbEntity
  8
201689
  6
Continuous
 62
     2
370
    15
100
AcDbSpline
210
0.0
220
0.0
230
1.0
 70
     8
 71
     3
 72
    39
 73
    35
 74
     0
 42
0.00000001
 43
0.0000000001
 40
0.0
 40
0.0
 40
0.0
 40
0.0
 40
0.0222473515272478
 40
0.0572449051082215
 40
0.089291056550794
 40
0.1172781252389204
 40
0.1413069148317377
 40
0.1845650577349774
 40
0.2071857919561323
 40
0.2334113784462259
 40
0.264333992445246
 40
0.3000517917648553
 40
0.3406397497485693
 40
0.383494589644142
 40
0.433346204979488
 40
0.4744478490840871
 40
0.5070426713373332
 40
0.5307416023248429
 40
0.5579319241818828
 40
0.5894279718016402
 40
0.6257401346011432
 40
0.6612926569580172
 40
0.6920405366495817
 40
0.7182071282744073
 40
0.740307383104928
 40
0.7618559309050501
 40
0.7861172983848902
 40
0.8134544217567132
 40
0.8441170169133901
 40
0.8782897117716988
 40
0.9147538225383444
 40
0.9517997744093944
 40
0.9894817965770752
 40
1.0
 40
1.0
 40
1.0
 40
1.0
 10
40.90777216093556
 20
297.6901625625594
 30
0.0
 10
40.42636192569171
 20
297.9799868363778
 30
0.0
 10
39.18763995014069
 20
298.7257368656515
 30
0.0
 10
36.95692561095621
 20
299.4722957053473
 30
0.0
 10
34.54328218567844
 20
300.120612839042
 30
0.0
 10
32.3214223386708
 20
300.4811241938621
 30
0.0
 10
29.74897915746624
 20
300.6980404711203
 30
0.0
 10
27.27920736371743
 20
300.6515938095394
 30
0.0
 10
24.80080984637334
 20
300.3542822993088
 30
0.0
 10
22.71403245892816
 20
299.9438403166475
 30
0.0
 10
20.38034483815045
 20
299.2703222812524
 30
0.0
 10
17.82042925098721
 20
298.2440675504633
 30
0.0
 10
15.16497296869875
 20
296.8098182701876
 30
0.0
 10
12.44627443509216
 20
294.8713715162689
 30
0.0
 10
10.04114297744263
 20
292.61227792116
 30
0.0
 10
8.135815455577812
 20
290.2763971325946
 30
0.0
 10
6.937127853636411
 20
288.4762075318081
 30
0.0
 10
5.92946819187091
 20
286.6990157448102
 30
0.0
 10
4.992119711054328
 20
284.711408703123
 30
0.0
 10
4.108060674709122
 20
282.2852929751718
 30
0.0
 10
3.423361314539761
 20
279.542410096371
 30
0.0
 10
3.051408117882147
 20
276.7681398715492
 30
0.0
 10
2.968018586290781
 20
274.2755236100499
 30
0.0
 10
3.077562823120388
 20
272.1797542145318
 30
0.0
 10
3.280893318289145
 20
270.4960337552154
 30
0.0
 10
3.564583226379909
 20
268.900875468463
 30
0.0
 10
4.020891056486107
 20
267.0466855905857
 30
0.0
 10
4.712361326614882
 20
264.9663628420465
 30
0.0
 10
5.712994902104583
 20
262.6763764266493
 30
0.0
 10
7.078352614395953
 20
260.2747458444649
 30
0.0
 10
8.812008797298403
 20
257.8958251101437
 30
0.0
 10
10.8979769358566
 20
255.6946202172558
 30
0.0
 10
12.64685770399592
 20
254.1438273958906
 30
0.0
 10
13.75761867449455
 20
253.4422802174301
 30
0.0
 10
14.0000077857253
 20
253.2891893170579
 30
0.0
  0
SPLINE
  5
EE6
330
EE4
100
AcDbEntity
  8
201689
  6
Continuous
 62
     2
370
    15
100
AcDbSpline
210
0.0
220
0.0
230
1.0
 70
     8
 71
     3
 72
    15
 73
    11
 74
     0
 42
0.00000001
 43
0.0000000001
 40
0.0
 40
0.0
 40
0.0
 40
0.0
 40
0.1876800914405075
 40
0.3741120142923834
 40
0.5292022542603281
 40
0.6467760565989762
 40
0.7421283277515017
 40
0.8306316350230153
 40
0.9346564499873119
 40
1.0
 40
1.0
 40
1.0
 40
1.0
 10
44.38116205470578
 20
297.1324363134609
 30
0.0
 10
44.00042820188992
 20
297.1449338437894
 30
0.0
 10
43.24149257109001
 20
297.169845789479
 30
0.0
 10
42.18566346708849
 20
297.3424140779598
 30
0.0
 10
41.30022655202037
 20
297.5585023377291
 30
0.0
 10
40.64488466215152
 20
297.768089972798
 30
0.0
 10
40.21077534169944
 20
297.930535054358
 30
0.0
 10
39.95179305129477
 20
298.0372136882954
 30
0.0
 10
39.82910652118608
 20
298.0914067011294
 30
0.0
 10
39.82680034495889
 20
298.0925030637688
 30
0.0
 10
39.82591060535879
 20
298.0929260484679
 30
0.0
  0
LINE
  5
EE7
330
EE4
100
AcDbEntity
  8
201689
  6
Continuous
 62
     2
370
    15
100
AcDbLine
 10
44.00000711517259
 20
29.80921616477827
 30
0.0
 11
44.00000711517259
 21
29.96549954337934
 31
0.0
  0
LINE
  5
EE8
330
EE4
100
AcDbEntity
  8
201689
  6
Continuous
 62
     2
370
    15
100
AcDbLine
 10
14.0000077857253
 20
29.96549954337934
 30
0.0
 11
14.0000077857253
 21
29.80921616477827
 31
0.0
  0
ARC
  5
EE9
330
EE4
100
AcDbEntity
  8
201689
  6
Continuous
 62
     2
370
    15
100
AcDbCircle
 10
29.00000745044872
 20
285.159956001472
 30
0.0
 40
15.25000000000002
100
AcDbArc
 50
349.6111421845425
 51
176.2402019426679
  0
LINE
  5
EEA
330
EE4
100
AcDbEntity
  8
201689
  6
Continuous
 62
     2
370
    15
100
AcDbLine
 10
14.0000077857253
 20
282.4099558748112
 30
0.0
 11
13.78282988058254
 21
284.1599556959973
 31
0.0
  0
LINE
  5
EEB
330
EE4
100
AcDbEntity
  8
201689
  6
Continuous
 62
     2
370
    15
100
AcDbLine
 10
13.78282988058254
 20
284.1599556959973
 30
0.0
 11
14.08348967866823
 21
284.1599556959973
 31
0.0
  0
LINE
  5
EEC
330
EE4
100
AcDbEntity
  8
201689
  6
Continuous
 62
     2
370
    15
100
AcDbLine
 10
14.08348967866823
 20
286.1599560238228
 30
0.0
 11
13.78282988058254
 21
286.1599560238228
 31
0.0
  0
SPLINE
  5
EED
330
EE4
100
AcDbEntity
  8
201689
  6
Continuous
 62
     2
370
    15
100
AcDbSpline
210
0.0
220
0.0
230
1.0
 70
     8
 71
     3
 72
    16
 73
    12
 74
     0
 42
0.00000001
 43
0.0000000001
 40
0.0
 40
0.0
 40
0.0
 40
0.0
 40
0.172295375452046
 40
0.2869622968741523
 40
0.4011345286633154
 40
0.5159469486774743
 40
0.6301056614324054
 40
0.7448146666412442
 40
0.8592910392615641
 40
0.9736527874035957
 40
1.0
 40
1.0
 40
1.0
 40
1.0
 10
30.50000746348724
 20
300.5871997557383
 30
0.0
 10
32.01199429444023
 20
300.3132859730833
 30
0.0
 10
34.5302465267805
 20
299.8570756539709
 30
0.0
 10
37.67428712440233
 20
298.1251498371919
 30
0.0
 10
40.04341795947039
 20
296.196401856035
 30
0.0
 10
41.97891823924692
 20
293.8274794873869
 30
0.0
 10
43.41841994821152
 20
291.1290488937782
 30
0.0
 10
44.30889956188366
 20
288.1973504221171
 30
0.0
 10
44.5702972664194
 20
285.1631011590018
 30
0.0
 10
44.45097634689591
 20
282.8722213690846
 30
0.0
 10
44.07113158776974
 20
281.6850130125058
 30
0.0
 10
44.00000711517259
 20
281.4627128064433
 30
0.0
  0
SPLINE
  5
EEE
330
EE4
100
AcDbEntity
  8
201689
  6
Continuous
 62
     2
370
    15
100
AcDbSpline
210
0.0
220
0.0
230
1.0
 70
     8
 71
     3
 72
    17
 73
    13
 74
     0
 42
0.00000001
 43
0.0000000001
 40
0.0
 40
0.0
 40
0.0
 40
0.0
 40
0.0262981918003988
 40
0.1409694560380863
 40
0.2550867808212131
 40
0.3695653972045495
 40
0.4840720960802651
 40
0.598187903865331
 40
0.7128917159743561
 40
0.8269336897121736
 40
0.913812632452884
 40
1.0
 40
1.0
 40
1.0
 40
1.0
 10
14.00000778572575
 20
281.4607388682461
 30
0.0
 10
13.92909369195331
 20
281.682779191075
 30
0.0
 10
13.54896408836248
 20
282.8730094458849
 30
0.0
 10
13.42938301920731
 20
285.1642312969318
 30
0.0
 10
13.69164992644391
 20
288.1976224240787
 30
0.0
 10
14.58130459585027
 20
291.1286831096561
 30
0.0
 10
16.01916991391317
 20
293.8250840500696
 30
0.0
 10
17.95659725994028
 20
296.193299951017
 30
0.0
 10
20.31952033054858
 20
298.1319106873839
 30
0.0
 10
22.80053628861515
 20
299.4525329503051
 30
0.0
 10
25.2225964568197
 20
300.2682041306309
 30
0.0
 10
26.74289548868546
 20
300.4811515275451
 30
0.0
 10
27.50000743741066
 20
300.5871997557383
 30
0.0
  0
SPLINE
  5
EEF
330
EE4
100
AcDbEntity
  8
201689
  6
Continuous
 62
     2
370
    15
100
AcDbSpline
210
0.0
220
0.0
230
1.0
 70
     8
 71
     3
 72
     9
 73
     5
 74
     0
 42
0.00000001
 43
0.0000000001
 40
0.0
 40
0.0
 40
0.0
 40
0.0
 40
0.4996279770570978
 40
1.0
 40
1.0
 40
1.0
 40
1.0
 10
14.09716428803176
 20
286.1523638821939
 30
0.0
 10
14.04856535658837
 20
285.8218454628929
 30
0.0
 10
13.9512951201832
 20
285.160316416323
 30
0.0
 10
14.04887590018916
 20
284.498825988504
 30
0.0
 10
14.09770259247943
 20
284.1678346849779
 30
0.0
  0
LINE
  5
EF0
330
EE4
100
AcDbEntity
  8
201689
  6
Continuous
 62
     2
370
    15
100
AcDbLine
 10
29.00000745044872
 20
300.6599565379129
 30
0.0
 11
29.0846984765808
 21
300.6586936645017
 31
0.0
  0
SPLINE
  5
EF1
330
EE4
100
AcDbEntity
  8
201689
  6
Continuous
 62
     2
370
    15
100
AcDbSpline
210
0.0
220
0.0
230
1.0
 70
     8
 71
     3
 72
    17
 73
    13
 74
     0
 42
0.00000001
 43
0.0000000001
 40
0.0
 40
0.0
 40
0.0
 40
0.0
 40
0.0362284126917953
 40
0.1431456228263156
 40
0.2502124614001539
 40
0.3576819346759234
 40
0.4651726998121867
 40
0.5722631696647987
 40
0.679162978386679
 40
0.7863815465267993
 40
0.8939266864285585
 40
1.0
 40
1.0
 40
1.0
 40
1.0
 10
30.48100405918376
 20
300.5927131853803
 30
0.0
 10
30.48621170051047
 20
300.5921965911475
 30
0.0
 10
30.50678812122806
 20
300.5901554251754
 30
0.0
 10
30.36889178372348
 20
300.6026006354129
 30
0.0
 10
30.08151413814267
 20
300.624974691237
 30
0.0
 10
29.66048998462793
 20
300.6486434930573
 30
0.0
 10
29.16757525852882
 20
300.6617912489931
 30
0.0
 10
28.65598527893189
 20
300.6588820797194
 30
0.0
 10
28.1831199188664
 20
300.6411250395688
 30
0.0
 10
27.80467170951852
 20
300.6167713182429
 30
0.0
 10
27.54858531946866
 20
300.5952111410416
 30
0.0
 10
27.51679722254176
 20
300.5924454919307
 30
0.0
 10
27.50101268371464
 20
300.5910721950036
 30
0.0
  0
SPLINE
  5
EF2
330
EE4
100
AcDbEntity
  8
201689
  6
Continuous
 62
     2
370
    15
100
AcDbSpline
210
0.0
220
0.0
230
1.0
 70
     8
 71
     3
 72
     9
 73
     5
 74
     0
 42
0.00000001
 43
0.0000000001
 40
0.0
 40
0.0
 40
0.0
 40
0.0
 40
0.0318203019487107
 40
1.0
 40
1.0
 40
1.0
 40
1.0
 10
28.66328646392413
 20
300.6564100615478
 30
0.0
 10
28.66661480450375
 20
300.6565236697231
 30
0.0
 10
28.77121282451844
 20
300.6600939744435
 30
0.0
 10
28.88745964189638
 20
300.6600241451838
 30
0.0
 10
29.00000745044872
 20
300.6599565379124
 30
0.0
  0
SPLINE
  5
EF3
330
EE4
100
AcDbEntity
  8
201689
  6
Continuous
 62
     2
370
    15
100
AcDbSpline
210
0.0
220
0.0
230
1.0
 70
     8
 71
     3
 72
     9
 73
     5
 74
     0
 42
0.00000001
 43
0.0000000001
 40
0.0
 40
0.0
 40
0.0
 40
0.0
 40
0.2262546303477028
 40
1.0
 40
1.0
 40
1.0
 40
1.0
 10
39.50141267465324
 20
298.2195486657129
 30
0.0
 10
39.51216626215819
 20
298.2160765317092
 30
0.0
 10
39.55969495799491
 20
298.2007303971375
 30
0.0
 10
39.71112899451691
 20
298.1320882457471
 30
0.0
 10
39.82830037908525
 20
298.0789766989453
 30
0.0
  0
SPLINE
  5
EF4
330
EE4
100
AcDbEntity
  8
201689
  6
Continuous
 62
     2
370
    15
100
AcDbSpline
210
0.0
220
0.0
230
1.0
 70
     8
 71
     3
 72
    32
 73
    28
 74
     0
 42
0.00000001
 43
0.0000000001
 40
0.0
 40
0.0
 40
0.0
 40
0.0
 40
0.0625
 40
0.0625
 40
0.125
 40
0.125
 40
0.1875
 40
0.1875
 40
0.25
 40
0.25
 40
0.375
 40
0.375
 40
0.5
 40
0.5
 40
0.5625
 40
0.5625
 40
0.625
 40
0.625
 40
0.6875
 40
0.6875
 40
0.75
 40
0.75
 40
0.8125
 40
0.8125
 40
0.875
 40
0.875
 40
1.0
 40
1.0
 40
1.0
 40
1.0
 10
27.50000745044736
 20
300.5874772635584
 30
0.0
 10
27.5000074504469
 20
300.5875682897663
 30
0.0
 10
27.50974101366683
 20
300.5886068111663
 30
0.0
 10
27.54786733806668
 20
300.5923767945264
 30
0.0
 10
27.57672656514069
 20
300.5951512711545
 30
0.0
 10
27.65201921785319
 20
300.6019670687697
 30
0.0
 10
27.69808555173768
 20
300.6059762353984
 30
0.0
 10
27.80691093371388
 20
300.614734753467
 30
0.0
 10
27.87021792278301
 20
300.619514699961
 30
0.0
 10
28.07764237160291
 20
300.6335927522075
 30
0.0
 10
28.2448727796982
 20
300.642930508149
 30
0.0
 10
28.605754429017
 20
300.6560758190048
 30
0.0
 10
28.80319914217398
 20
300.6599428513421
 30
0.0
 10
29.09682283867551
 20
300.6599625233125
 30
0.0
 10
29.19624698140978
 20
300.6590312136154
 30
0.0
 10
29.3886606776241
 20
300.6554716587768
 30
0.0
 10
29.48218701323549
 20
300.6528632187151
 30
0.0
 10
29.66385298075329
 20
300.6462654144787
 30
0.0
 10
29.75163116025169
 20
300.6422707746594
 30
0.0
 10
29.91413162322078
 20
300.6336598011389
 30
0.0
 10
29.98989264637885
 20
300.6290068210465
 30
0.0
 10
30.13000539690438
 20
300.6195038173435
 30
0.0
 10
30.19207750264286
 20
300.6148131899506
 30
0.0
 10
30.30075904228852
 20
300.6060745230432
 30
0.0
 10
30.34777279946957
 20
300.6019866971712
 30
0.0
 10
30.46082425861778
 20
300.5917544675829
 30
0.0
 10
30.5000074504469
 20
300.5876593175403
 30
0.0
 10
30.50000745044781
 20
300.5874772649308
 30
0.0
  0
LINE
  5
EF5
330
EE4
100
AcDbEntity
  8
201689
  6
Continuous
 62
     2
370
    15
100
AcDbLine
 10
27.50000743741066
 20
300.5871997557388
 30
0.0
 11
27.50000743741066
 21
300.587477289866
 31
0.0
  0
LINE
  5
EF6
330
EE4
100
AcDbEntity
  8
201689
  6
Continuous
 62
     2
370
    15
100
AcDbLine
 10
30.50000746348724
 20
300.587477289866
 30
0.0
 11
30.50000746348724
 21
300.5871997557388
 31
0.0
  0
LINE
  5
EF7
330
EE4
100
AcDbEntity
  8
201689
  6
Continuous
 62
     2
370
    15
100
AcDbLine
 10
34.50000742064685
 20
26.47947719020704
 30
0.0
 11
34.48286829130621
 21
26.48761322421888
 31
0.0
  0
LINE
  5
EF8
330
EE4
100
AcDbEntity
  8
201689
  6
Continuous
 62
     2
370
    15
100
AcDbLine
 10
24.00000756220789
 20
23.39866211337903
 30
0.0
 11
24.00000756220789
 21
28.11633184521133
 31
0.0
  0
LINE
  5
EF9
330
EE4
100
AcDbEntity
  8
201689
  6
Continuous
 62
     2
370
    15
100
AcDbLine
 10
34.00000733869001
 20
23.39866211337903
 30
0.0
 11
34.00000733869001
 21
28.10024669093946
 31
0.0
  0
SPLINE
  5
EFA
330
EE4
100
AcDbEntity
  8
201689
  6
Continuous
 62
     3
370
    15
100
AcDbSpline
210
0.0
220
0.0
230
1.0
 70
     8
 71
     3
 72
    10
 73
     6
 74
     0
 42
0.00000001
 43
0.0000000001
 40
0.0
 40
0.0
 40
0.0
 40
0.0
 40
0.5
 40
0.5
 40
1.0
 40
1.0
 40
1.0
 40
1.0
 10
24.34498519377758
 20
22.92345598523843
 30
0.0
 10
24.24551229327608
 20
22.9558853550418
 30
0.0
 10
24.15682876279698
 20
23.02045631526516
 30
0.0
 10
24.03392226717187
 20
23.18975967304982
 30
0.0
 10
24.00000859589818
 20
23.2940660142342
 30
0.0
 10
24.00000745047873
 20
23.39866186554514
 30
0.0
  0
SPLINE
  5
EFB
330
EE4
100
AcDbEntity
  8
201689
  6
Continuous
 62
     3
370
    15
100
AcDbSpline
210
0.0
220
0.0
230
1.0
 70
     8
 71
     3
 72
    28
 73
    24
 74
     0
 42
0.00000001
 43
0.0000000001
 40
0.0
 40
0.0
 40
0.0
 40
0.0
 40
0.028167824646247
 40
0.0561725710199303
 40
0.0840632430580927
 40
0.1118894159396965
 40
0.1397009943933849
 40
0.1675479612771524
 40
0.1954801230969161
 40
0.2235468592907316
 40
0.2517968818493459
 40
0.3145912097047087
 40
0.3773895791472388
 40
0.4401274654084098
 40
0.5026921001314582
 40
0.6274808115027547
 40
0.6899969334201606
 40
0.7520044895741047
 40
0.8142892294242038
 40
0.8761323773394742
 40
0.9175309137394052
 40
0.9587498143274594
 40
1.0
 40
1.0
 40
1.0
 40
1.0
 10
29.00000745044872
 20
22.07013576621307
 30
0.0
 10
28.9320750048928
 20
22.07042486420619
 30
0.0
 10
28.79660341024282
 20
22.07100138645365
 30
0.0
 10
28.59425152056701
 20
22.07563462850249
 30
0.0
 10
28.39349871574359
 20
22.08294656553994
 30
0.0
 10
28.19437994579494
 20
22.09314037115837
 30
0.0
 10
27.99692886384128
 20
22.10607688800178
 30
0.0
 10
27.80117740791638
 20
22.12170914355124
 30
0.0
 10
27.60715612019249
 20
22.13996602450902
 30
0.0
 10
27.41489305993037
 20
22.16078484888112
 30
0.0
 10
27.14734241468887
 20
22.19353052514225
 30
0.0
 10
26.81147655233144
 20
22.24233223160559
 30
0.0
 10
26.42123691680899
 20
22.31098332578108
 30
0.0
 10
26.05530966238712
 20
22.38623042505219
 30
0.0
 10
25.6054320665271
 20
22.49168632095621
 30
0.0
 10
25.21516937190881
 20
22.60031180570263
 30
0.0
 10
24.89868515517446
 20
22.70029601550709
 30
0.0
 10
24.70016722302489
 20
22.76837689309218
 30
0.0
 10
24.54308506229882
 20
22.82691966695848
 30
0.0
 10
24.44181745034075
 20
22.86862360626219
 30
0.0
 10
24.38268873762445
 20
22.89624877902975
 30
0.0
 10
24.35085548470124
 20
22.91405067670098
 30
0.0
 10
24.34694245222363
 20
22.92031928312895
 30
0.0
 10
24.34498519377257
 20
22.92345477535969
 30
0.0
  0
SPLINE
  5
EFC
330
EE4
100
AcDbEntity
  8
201689
  6
Continuous
 62
     3
370
    15
100
AcDbSpline
210
0.0
220
0.0
230
1.0
 70
     8
 71
     3
 72
    10
 73
     6
 74
     0
 42
0.00000001
 43
0.0000000001
 40
0.0
 40
0.0
 40
0.0
 40
0.0
 40
0.5
 40
0.5
 40
1.0
 40
1.0
 40
1.0
 40
1.0
 10
33.6550305747669
 20
22.92346072387045
 30
0.0
 10
33.75450413877388
 20
22.95589051094726
 30
0.0
 10
33.84318810756622
 20
23.02046234785962
 30
0.0
 10
33.96609441576857
 20
23.18976772044925
 30
0.0
 10
34.00000745044053
 20
23.29407518398807
 30
0.0
 10
34.00000745044963
 20
23.39867179578232
 30
0.0
  0
SPLINE
  5
EFD
330
EE4
100
AcDbEntity
  8
201689
  6
Continuous
 62
     3
370
    15
100
AcDbSpline
210
0.0
220
0.0
230
1.0
 70
     8
 71
     3
 72
    26
 73
    22
 74
     0
 42
0.00000001
 43
0.0000000001
 40
0.0
 40
0.0
 40
0.0
 40
0.0
 40
0.0247666433580385
 40
0.0494927580580807
 40
0.0742239776943304
 40
0.0990058851971627
 40
0.123883767322905
 40
0.1857198424344358
 40
0.248011589572464
 40
0.3100140426936661
 40
0.3725373963040838
 40
0.4973288028668121
 40
0.5598892137815014
 40
0.6226384529390268
 40
0.6854311413174195
 40
0.7482326699175556
 40
0.7989412828091221
 40
0.8491829488039114
 40
0.899246076116656
 40
0.9494219559926261
 40
0.9999999999999998
 40
0.9999999999999998
 40
0.9999999999999998
 40
0.9999999999999998
 10
33.65502955557076
 20
22.92345467233918
 30
0.0
 10
33.6543247767886
 20
22.92172608948567
 30
0.0
 10
33.65291637253813
 20
22.91827175246749
 30
0.0
 10
33.64148628193016
 20
22.91006641192757
 30
0.0
 10
33.62322336055104
 20
22.89967325385715
 30
0.0
 10
33.59745077408206
 20
22.88690270926304
 30
0.0
 10
33.54802344961172
 20
22.86444110625303
 30
0.0
 10
33.45697444518874
 20
22.82693525753234
 30
0.0
 10
33.29987184986112
 20
22.76838594913488
 30
0.0
 10
33.10136765742664
 20
22.70030856095514
 30
0.0
 10
32.78489250723306
 20
22.60032558788862
 30
0.0
 10
32.39464306853188
 20
22.49170198643424
 30
0.0
 10
31.94476655714243
 20
22.386243887403
 30
0.0
 10
31.57885245227954
 20
22.31099716835843
 30
0.0
 10
31.18859202101794
 20
22.24234188571836
 30
0.0
 10
30.80373674673956
 20
22.18641623111216
 30
0.0
 10
30.43328167948039
 20
22.14310357155068
 30
0.0
 10
30.08272188749425
 20
22.11101986172935
 30
0.0
 10
29.72656801600169
 20
22.08778921343423
 30
0.0
 10
29.36503380979321
 20
22.07292851131843
 30
0.0
 10
29.12200625562036
 20
22.07106915515146
 30
0.0
 10
29.00000745044872
 20
22.07013576621307
 30
0.0
  0
LINE
  5
EFE
330
EE4
100
AcDbEntity
  8
201689
  6
Continuous
 62
     2
370
    15
100
AcDbLine
 10
34.00000733869001
 20
13.45653937563497
 30
0.0
 11
34.00000733869001
 21
23.40015222949842
 31
0.0
  0
LINE
  5
EFF
330
EE4
100
AcDbEntity
  8
201689
  6
Continuous
 62
     2
370
    15
100
AcDbLine
 10
24.00000756220789
 20
13.45652944539779
 30
0.0
 11
24.00000756220789
 21
23.4031026594148
 31
0.0
  0
SPLINE
  5
F00
330
EE4
100
AcDbEntity
  8
201689
  6
Continuous
 62
     2
370
    15
100
AcDbSpline
210
0.0
220
0.0
230
1.0
 70
     8
 71
     3
 72
    28
 73
    24
 74
     0
 42
0.00000001
 43
0.0000000001
 40
0.0
 40
0.0
 40
0.0
 40
0.0
 40
0.0042764514497514
 40
0.0271082528290088
 40
0.0895339978617479
 40
0.1512101604851339
 40
0.2143572579194931
 40
0.2752407650782911
 40
0.3376886444407256
 40
0.3992535451212604
 40
0.4613648620014037
 40
0.5233008414010189
 40
0.5854238095380038
 40
0.647957095257681
 40
0.7093252646232396
 40
0.7719796138872366
 40
0.8323876584044855
 40
0.8959950881197794
 40
0.9200896079663527
 40
0.9452811587308463
 40
0.9695913630601932
 40
0.9938236270073483
 40
1.0
 40
1.0
 40
1.0
 40
1.0
 10
14.00779271112651
 20
47.25592782420995
 30
0.0
 10
14.00485340179421
 20
47.18946249578197
 30
0.0
 10
13.98622123879431
 20
46.76814146629044
 30
0.0
 10
14.06635127920526
 20
45.37508216767764
 30
0.0
 10
14.44929025565352
 20
43.10775155725877
 30
0.0
 10
15.53025151002566
 20
40.37493829255459
 30
0.0
 10
17.11413632787935
 20
37.92158565163709
 30
0.0
 10
19.1626845889732
 20
35.81248624393538
 30
0.0
 10
21.56750374285548
 20
34.14781662859719
 30
0.0
 10
24.27296679948222
 20
32.96934259955515
 30
0.0
 10
27.15195429781989
 20
32.3329308140435
 30
0.0
 10
30.11038433832073
 20
32.26137241221841
 30
0.0
 10
33.03290530582308
 20
32.76044136646238
 30
0.0
 10
35.79141917983998
 20
33.81072490752649
 30
0.0
 10
38.29570476044137
 20
35.37380794928845
 30
0.0
 10
40.41896931298424
 20
37.36578989468126
 30
0.0
 10
42.12999830378339
 20
39.75096628820802
 30
0.0
 10
43.08867989544615
 20
41.87174939288797
 30
0.0
 10
43.58122317596007
 20
43.56043212086592
 30
0.0
 10
43.81671422792488
 20
44.68315513512743
 30
0.0
 10
43.95474137239943
 20
45.82216925211741
 30
0.0
 10
44.01288702809597
 20
46.67354635165724
 30
0.0
 10
43.99373152023327
 20
47.14625121309109
 30
0.0
 10
43.989840797949
 20
47.24226345939519
 30
0.0
  0
ARC
  5
F01
330
EE4
100
AcDbEntity
  8
201689
  6
Continuous
 62
     2
370
    15
100
AcDbCircle
 10
28.72982056894307
 20
29.84799472248506
 30
0.0
 40
14.72986382846853
100
AcDbArc
 50
180.150839836988
 51
241.9738099874829
  0
ARC
  5
F02
330
EE4
100
AcDbEntity
  8
201689
  6
Continuous
 62
     2
370
    15
100
AcDbCircle
 10
29.01361711059053
 20
29.9874426110282
 30
0.0
 40
14.98744975089287
100
AcDbArc
 50
241.2665773725828
 51
250.4566160809153
  0
ARC
  5
F03
330
EE4
100
AcDbEntity
  8
201689
  6
Continuous
 62
     2
370
    15
100
AcDbCircle
 10
29.01361711059053
 20
29.9874426110282
 30
0.0
 40
14.98744975089287
100
AcDbArc
 50
289.4330030006382
 51
359.3186389927237
  0
SPLINE
  5
F04
330
EE4
100
AcDbEntity
  8
201689
  6
Continuous
 62
     2
370
    15
100
AcDbSpline
210
0.0
220
0.0
230
1.0
 70
     8
 71
     3
 72
    20
 73
    16
 74
     0
 42
0.00000001
 43
0.0000000001
 40
0.0
 40
0.0
 40
0.0
 40
0.0
 40
0.0252181553878867
 40
0.0503958540436847
 40
0.0755695631178979
 40
0.1007757670770425
 40
0.1260508096693291
 40
0.1888497797998748
 40
0.2518650477511881
 40
0.3145710884494496
 40
0.3774022046999877
 40
0.5024058010368991
 40
0.627052614034443
 40
0.68968134996544
 40
0.6991080440731146
 40
0.6991080440731146
 40
0.6991080440731146
 40
0.6991080440731146
 10
29.00000745044872
 20
27.69605672780131
 30
0.0
 10
29.08152814913501
 20
27.69628002139711
 30
0.0
 10
29.2444387652904
 20
27.69672625036469
 30
0.0
 10
29.48831007059835
 20
27.70031387880659
 30
0.0
 10
29.73130585221407
 20
27.70599240927504
 30
0.0
 10
29.97336984878621
 20
27.71393535310494
 30
0.0
 10
30.3333061529529
 20
27.72903025082383
 30
0.0
 10
30.8065628675422
 20
27.75643927636656
 30
0.0
 10
31.37820582352925
 20
27.801587982005
 30
0.0
 10
31.92626768720675
 20
27.85540615087143
 30
0.0
 10
32.61616742437855
 20
27.93421422575511
 30
0.0
 10
33.39667856872984
 20
28.03843739603735
 30
0.0
 10
34.04289135409363
 20
28.12460106005074
 30
0.0
 10
34.37529882514582
 20
28.15710815862349
 30
0.0
 10
34.48575269315279
 20
28.16496653784339
 30
0.0
 10
34.50000742064822
 20
28.16592317434288
 30
0.0
  0
SPLINE
  5
F05
330
EE4
100
AcDbEntity
  8
201689
  6
Continuous
 62
     2
370
    15
100
AcDbSpline
210
0.0
220
0.0
230
1.0
 70
     8
 71
     3
 72
    18
 73
    14
 74
     0
 42
0.00000001
 43
0.0000000001
 40
0.3009103314256654
 40
0.3009103314256654
 40
0.3009103314256654
 40
0.3009103314256654
 40
0.310322972503946
 40
0.3729754492695587
 40
0.4976221960408803
 40
0.6226746195409091
 40
0.6855063444440323
 40
0.7482061893044821
 40
0.8111864619249935
 40
0.8739762061142178
 40
0.9160495756234
 40
0.9580013185115859
 40
1.0
 40
1.0
 40
1.0
 40
1.0
 10
23.50000748024922
 20
28.1659259119283
 30
0.0
 10
23.51424142508677
 20
28.16497053629382
 30
0.0
 10
23.62471141961214
 20
28.15711069859344
 30
0.0
 10
23.95714857929442
 20
28.12459638796349
 30
0.0
 10
24.60353288301394
 20
28.038408845802
 30
0.0
 10
25.3841832035032
 20
27.93417878449623
 30
0.0
 10
26.07419741569811
 20
27.85538829541292
 30
0.0
 10
26.6221530686189
 20
27.80159130349716
 30
0.0
 10
27.19368814708287
 20
27.75646190376506
 30
0.0
 10
27.71940337683873
 20
27.72596316106115
 30
0.0
 10
28.18728826949337
 20
27.70783815956065
 30
0.0
 10
28.59280671795114
 20
27.69791820775117
 30
0.0
 10
28.86422328788012
 20
27.69667745236347
 30
0.0
 10
29.00000745044872
 20
27.69605672780131
 30
0.0
  0
LINE
  5
F06
330
EE4
100
AcDbEntity
  8
201689
  6
Continuous
 62
     2
370
    15
100
AcDbLine
 10
23.50000748025104
 20
20.78592231197217
 30
0.0
 11
23.50000748025104
 21
28.16592591194262
 31
0.0
  0
LINE
  5
F07
330
EE4
100
AcDbEntity
  8
201689
  6
Continuous
 62
     2
370
    15
100
AcDbLine
 10
34.50000742064685
 20
28.15211763305524
 30
0.0
 11
34.50000742064685
 21
20.78592231197217
 31
0.0
  0
SPLINE
  5
F08
330
EE4
100
AcDbEntity
  8
201689
  6
Continuous
 62
     3
370
    15
100
AcDbSpline
210
0.0
220
0.0
230
1.0
 70
     8
 71
     3
 72
    25
 73
    21
 74
     0
 42
0.00000001
 43
0.0000000001
 40
0.0
 40
0.0
 40
0.0
 40
0.0
 40
0.0620801941545715
 40
0.1224766377534497
 40
0.1827217964562624
 40
0.2287400453693665
 40
0.2746666613561234
 40
0.3084564555499978
 40
0.342246512231612
 40
0.3628792612506262
 40
0.4065908996890716
 40
0.4503891431846298
 40
0.5200061212229852
 40
0.5898057725122366
 40
0.6908878679252634
 40
0.7919772996238316
 40
0.8582457972186114
 40
0.9074966420971119
 40
0.9567113613776683
 40
1.0
 40
1.0
 40
1.0
 40
1.0
 10
44.00000711517259
 20
263.7634409002765
 30
0.0
 10
44.58751657415905
 20
264.6125918124621
 30
0.0
 10
45.74660095147374
 20
266.2878628080869
 30
0.0
 10
47.24938732975352
 20
269.3264685153426
 30
0.0
 10
48.43280425312468
 20
272.3710059024422
 30
0.0
 10
49.24346152651287
 20
275.416259535112
 30
0.0
 10
49.67513178219633
 20
278.0551061332196
 30
0.0
 10
49.81367222165409
 20
280.4442616136282
 30
0.0
 10
49.75634886396574
 20
282.2519249167253
 30
0.0
 10
49.54751368587858
 20
284.1669847380276
 30
0.0
 10
49.14978427441747
 20
286.1324267681892
 30
0.0
 10
48.32547443253952
 20
288.6415023204559
 30
0.0
 10
47.09099893527581
 20
291.0799919350125
 30
0.0
 10
45.25468370526141
 20
293.619067493519
 30
0.0
 10
43.04920045786912
 20
295.7804278873175
 30
0.0
 10
41.06062506245871
 20
297.206988597444
 30
0.0
 10
39.84292866716259
 20
297.9362012264744
 30
0.0
 10
39.30983721100484
 20
298.2445385991814
 30
0.0
 10
39.16057832133765
 20
298.3478078217613
 30
0.0
 10
39.39275932594092
 20
298.2604359374111
 30
0.0
 10
39.50141267465324
 20
298.2195486657129
 30
0.0
  0
SPLINE
  5
F09
330
EE4
100
AcDbEntity
  8
201689
  6
Continuous
 62
     3
370
    15
100
AcDbSpline
210
0.0
220
0.0
230
1.0
 70
     8
 71
     3
 72
    27
 73
    23
 74
     0
 42
0.00000001
 43
0.0000000001
 40
0.0
 40
0.0
 40
0.0
 40
0.0
 40
0.0013999410544477
 40
0.0409142798965173
 40
0.0634675598711756
 40
0.1104766013658673
 40
0.1918962317570824
 40
0.275337060312765
 40
0.3376632251817071
 40
0.4014862239052654
 40
0.4428550837878177
 40
0.4854742849198781
 40
0.5191495366125417
 40
0.5539441471484837
 40
0.5726509723799042
 40
0.6164219017112332
 40
0.6620929578532664
 40
0.7182965866181621
 40
0.7761508692811705
 40
0.8645905175342296
 40
0.9551638411223491
 40
1.0
 40
1.0
 40
1.0
 40
1.0
 10
44.38253948079363
 20
297.1567885361421
 30
0.0
 10
44.37785909056538
 20
297.1578755770831
 30
0.0
 10
44.24107133430334
 20
297.1896451270852
 30
0.0
 10
44.61205002238739
 20
297.0592550206907
 30
0.0
 10
45.55486045726047
 20
296.7199169806832
 30
0.0
 10
47.45256311322282
 20
295.9991218419568
 30
0.0
 10
50.58578158097771
 20
294.5521714111703
 30
0.0
 10
54.01265817790136
 20
292.4015313235284
 30
0.0
 10
56.9677111635001
 20
289.8345084906307
 30
0.0
 10
59.04187440860368
 20
287.2969041350757
 30
0.0
 10
60.4771536441076
 20
284.6528720130998
 30
0.0
 10
61.27460332211876
 20
282.2889751384846
 30
0.0
 10
61.64778333917912
 20
279.8860718877827
 30
0.0
 10
61.63838928018868
 20
277.9279884731086
 30
0.0
 10
61.36324047632297
 20
275.746969776543
 30
0.0
 10
60.73439192269052
 20
273.3535703109615
 30
0.0
 10
59.38627085439612
 20
270.3392019806911
 30
0.0
 10
57.4445815996105
 20
267.3587256512333
 30
0.0
 10
54.56929749557549
 20
264.038067774637
 30
0.0
 10
50.8152883228895
 20
260.7874581467988
 30
0.0
 10
47.05771905072561
 20
258.2120020496339
 30
0.0
 10
44.76061390223685
 20
257.0309159515514
 30
0.0
 10
44.00000711517259
 20
256.6398402087188
 30
0.0
  0
SPLINE
  5
F0A
330
EE4
100
AcDbEntity
  8
201689
  6
Continuous
 62
     2
370
    15
100
AcDbSpline
210
0.0
220
0.0
230
1.0
 70
     8
 71
     3
 72
    10
 73
     6
 74
     0
 42
0.00000001
 43
0.0000000001
 40
0.0
 40
0.0
 40
0.0
 40
0.0
 40
0.0581160220761226
 40
0.5288666155985739
 40
1.0
 40
1.0
 40
1.0
 40
1.0
 10
24.00632332624809
 20
20.16615321559789
 30
0.0
 10
23.98096709653146
 20
20.18212853518639
 30
0.0
 10
23.75022068762473
 20
20.32750691626029
 30
0.0
 10
23.58547672859822
 20
20.55979495918291
 30
0.0
 10
23.52850494766426
 20
20.71052610817083
 30
0.0
 10
23.50000748025195
 20
20.78592231197263
 30
0.0
  0
SPLINE
  5
F0B
330
EE4
100
AcDbEntity
  8
201689
  6
Continuous
 62
     2
370
    15
100
AcDbSpline
210
0.0
220
0.0
230
1.0
 70
     8
 71
     3
 72
     9
 73
     5
 74
     0
 42
0.00000001
 43
0.0000000001
 40
0.0
 40
0.0
 40
0.0
 40
0.0
 40
0.536277540368086
 40
1.0
 40
1.0
 40
1.0
 40
1.0
 10
34.50000742064731
 20
20.7859223119724
 30
0.0
 10
34.48227775855594
 20
20.71253629736543
 30
0.0
 10
34.44921714953489
 20
20.57569294838618
 30
0.0
 10
34.21836992036288
 20
20.35867149682895
 30
0.0
 10
34.11132087545321
 20
20.25803377551938
 30
0.0
  0
SPLINE
  5
F0C
330
EE4
100
AcDbEntity
  8
201689
  6
Continuous
 62
     2
370
    15
100
AcDbSpline
210
0.0
220
0.0
230
1.0
 70
     8
 71
     3
 72
    26
 73
    22
 74
     0
 42
0.00000001
 43
0.0000000001
 40
0.0
 40
0.0
 40
0.0
 40
0.0
 40
0.0247668936888673
 40
0.049493258089421
 40
0.0742247282671011
 40
0.0990068886168311
 40
0.123885027339622
 40
0.1857210783950821
 40
0.2480125521166414
 40
0.3100147481973561
 40
0.3725382835927875
 40
0.4973307399253019
 40
0.5598909228846745
 40
0.6226401132025377
 40
0.6854328142184336
 40
0.748234531615863
 40
0.798942653725833
 40
0.8491838932692314
 40
0.8992466538471703
 40
0.949422221072044
 40
1.0
 40
1.0
 40
1.0
 40
1.0
 10
24.34487793919743
 20
27.76855430238311
 30
0.0
 10
24.34558273187486
 20
27.75796025346017
 30
0.0
 10
24.34699116388811
 20
27.73678949203191
 30
0.0
 10
24.35842149261862
 20
27.70210942408949
 30
0.0
 10
24.37668479797412
 20
27.66536844648135
 30
0.0
 10
24.40245792241967
 20
27.6263799273786
 30
0.0
 10
24.45188601482323
 20
27.56497297646002
 30
0.0
 10
24.54293555029835
 20
27.47634477472093
 30
0.0
 10
24.70003803747113
 20
27.35636433527384
 30
0.0
 10
24.8985426827744
 20
27.22958564036208
 30
0.0
 10
25.21502000828059
 20
27.05597520346965
 30
0.0
 10
25.60527155084401
 20
26.88126933566082
 30
0.0
 10
26.05515109699536
 20
26.71914848029064
 30
0.0
 10
26.42106529519651
 20
26.60625832497704
 30
0.0
 10
26.81132653824261
 20
26.50513078509857
 30
0.0
 10
27.19618162840288
 20
26.42401236788442
 30
0.0
 10
27.56663534173549
 20
26.36172121699133
 30
0.0
 10
27.91719236827612
 20
26.31588264085599
 30
0.0
 10
28.27334374129987
 20
26.28291437476856
 30
0.0
 10
28.63487573205475
 20
26.26197480020664
 30
0.0
 10
28.87790189699263
 20
26.25937516455429
 30
0.0
 10
28.99990006493226
 20
26.25807015779947
 30
0.0
  0
SPLINE
  5
F0D
330
EE4
100
AcDbEntity
  8
201689
  6
Continuous
 62
     2
370
    15
100
AcDbSpline
210
0.0
220
0.0
230
1.0
 70
     8
 71
     3
 72
     9
 73
     5
 74
     0
 42
0.00000001
 43
0.0000000001
 40
0.0
 40
0.0
 40
0.0
 40
0.0
 40
0.7160370948582571
 40
1.0
 40
1.0
 40
1.0
 40
1.0
 10
28.99990006493226
 20
26.25806002729814
 30
0.0
 10
29.62325507499873
 20
26.28155133950236
 30
0.0
 10
30.49381752845557
 20
26.31435873505643
 30
0.0
 10
31.17791844811973
 20
26.52790014197831
 30
0.0
 10
31.37217773267821
 20
26.58853798025484
 30
0.0
  0
SPLINE
  5
F0E
330
EE4
100
AcDbEntity
  8
201689
  6
Continuous
 62
     2
370
    15
100
AcDbSpline
210
0.0
220
0.0
230
1.0
 70
     8
 71
     3
 72
    10
 73
     6
 74
     0
 42
0.00000001
 43
0.0000000001
 40
0.0
 40
0.0
 40
0.0
 40
0.0
 40
0.5
 40
0.5
 40
0.8000030847371121
 40
0.8000030847371121
 40
0.8000030847371121
 40
0.8000030847371121
 10
33.65492211713217
 20
27.76855455552732
 30
0.0
 10
33.75439593299871
 20
27.80050195476565
 30
0.0
 10
33.84308018467618
 20
27.86411360084935
 30
0.0
 10
33.94140593977318
 20
27.99754452078992
 30
0.0
 10
33.96836365912077
 20
28.05455212292827
 30
0.0
 10
33.98403010073435
 20
28.11440948622339
 30
0.0
  0
SPLINE
  5
F0F
330
EE4
100
AcDbEntity
  8
201689
  6
Continuous
 62
     2
370
    15
100
AcDbSpline
210
0.0
220
0.0
230
1.0
 70
     8
 71
     3
 72
    10
 73
     6
 74
     0
 42
0.00000001
 43
0.0000000001
 40
0.0
 40
0.0
 40
0.0
 40
0.0
 40
0.5
 40
0.5
 40
0.8000455379994388
 40
0.8000455379994388
 40
0.8000455379994388
 40
0.8000455379994388
 10
24.34487806516245
 20
27.76855451190477
 30
0.0
 10
24.24540423697818
 20
27.80050190452812
 30
0.0
 10
24.15671997146546
 20
27.86411355111204
 30
0.0
 10
24.05838898246748
 20
27.99755156023957
 30
0.0
 10
24.03142884693989
 20
28.05456822091628
 30
0.0
 10
24.01576338176665
 20
28.11443486663348
 30
0.0
  0
SPLINE
  5
F10
330
EE4
100
AcDbEntity
  8
201689
  6
Continuous
 62
     2
370
    15
100
AcDbSpline
210
0.0
220
0.0
230
1.0
 70
     8
 71
     3
 72
    11
 73
     7
 74
     0
 42
0.00000001
 43
0.0000000001
 40
0.0
 40
0.0
 40
0.0
 40
0.0
 40
0.2326598694015153
 40
0.6166124790350512
 40
0.8085226103068173
 40
1.0
 40
1.0
 40
1.0
 40
1.0
 10
31.37217773267821
 20
26.58853798025484
 30
0.0
 10
31.68872933931016
 20
26.66851071022506
 30
0.0
 10
32.52767793586736
 20
26.88046038340644
 30
0.0
 10
33.22026986714718
 20
27.28290252046873
 30
0.0
 10
33.60175313894706
 20
27.59486002485687
 30
0.0
 10
33.63721254706479
 20
27.71070421741411
 30
0.0
 10
33.65492223905221
 20
27.76856093519632
 30
0.0
  0
SPLINE
  5
F11
330
EE4
100
AcDbEntity
  8
201689
  6
Continuous
 62
     2
370
    15
100
AcDbSpline
210
0.0
220
0.0
230
1.0
 70
     8
 71
     3
 72
    10
 73
     6
 74
     0
 42
0.00000001
 43
0.0000000001
 40
0.0
 40
0.0
 40
0.0
 40
0.0
 40
0.5
 40
0.5
 40
1.0
 40
1.0
 40
1.0
 40
1.0
 10
24.34498519377758
 20
12.98132356509131
 30
0.0
 10
24.24551229327608
 20
13.01375293489445
 30
0.0
 10
24.15682876279698
 20
13.07832389511782
 30
0.0
 10
24.03392226717187
 20
13.24762725290247
 30
0.0
 10
24.00000859589818
 20
13.35193359408686
 30
0.0
 10
24.00000745047873
 20
13.45652944539779
 30
0.0
  0
SPLINE
  5
F12
330
EE4
100
AcDbEntity
  8
201689
  6
Continuous
 62
     2
370
    15
100
AcDbSpline
210
0.0
220
0.0
230
1.0
 70
     8
 71
     3
 72
    28
 73
    24
 74
     0
 42
0.00000001
 43
0.0000000001
 40
0.0
 40
0.0
 40
0.0
 40
0.0
 40
0.028167824646247
 40
0.0561725710199303
 40
0.0840632430580927
 40
0.1118894159396965
 40
0.1397009943933849
 40
0.1675479612771524
 40
0.1954801230969161
 40
0.2235468592907316
 40
0.2517968818493459
 40
0.3145912097047087
 40
0.3773895791472388
 40
0.4401274654084098
 40
0.5026921001314582
 40
0.6274808115027547
 40
0.6899969334201606
 40
0.7520044895741047
 40
0.8142892294242038
 40
0.8761323773394742
 40
0.9175309137394052
 40
0.9587498143274594
 40
1.0
 40
1.0
 40
1.0
 40
1.0
 10
29.00000745044872
 20
12.12800334606572
 30
0.0
 10
28.9320750048928
 20
12.12829244405884
 30
0.0
 10
28.79660341024282
 20
12.1288689663063
 30
0.0
 10
28.59425152056701
 20
12.13350220835514
 30
0.0
 10
28.39349871574359
 20
12.14081414539259
 30
0.0
 10
28.19437994579494
 20
12.15100795101102
 30
0.0
 10
27.99692886384128
 20
12.16394446785443
 30
0.0
 10
27.80117740791638
 20
12.17957672340389
 30
0.0
 10
27.60715612019249
 20
12.19783360436167
 30
0.0
 10
27.41489305993037
 20
12.21865242873377
 30
0.0
 10
27.14734241468887
 20
12.2513981049949
 30
0.0
 10
26.81147655233144
 20
12.30019981145824
 30
0.0
 10
26.42123691680899
 20
12.36885090563373
 30
0.0
 10
26.05530966238712
 20
12.44409800490484
 30
0.0
 10
25.6054320665271
 20
12.54955390080886
 30
0.0
 10
25.21516937190881
 20
12.65817938555528
 30
0.0
 10
24.89868515517446
 20
12.75816359535975
 30
0.0
 10
24.70016722302489
 20
12.82624447294483
 30
0.0
 10
24.54308506229882
 20
12.88478724681113
 30
0.0
 10
24.44181745034075
 20
12.92649118611484
 30
0.0
 10
24.38268873762445
 20
12.9541163588824
 30
0.0
 10
24.35085548470124
 20
12.97191825655363
 30
0.0
 10
24.34694245222363
 20
12.9781868629816
 30
0.0
 10
24.34498519377257
 20
12.98132235521234
 30
0.0
  0
SPLINE
  5
F13
330
EE4
100
AcDbEntity
  8
201689
  6
Continuous
 62
     2
370
    15
100
AcDbSpline
210
0.0
220
0.0
230
1.0
 70
     8
 71
     3
 72
    10
 73
     6
 74
     0
 42
0.00000001
 43
0.0000000001
 40
0.0
 40
0.0
 40
0.0
 40
0.0
 40
0.5
 40
0.5
 40
1.0
 40
1.0
 40
1.0
 40
1.0
 10
33.6550305747669
 20
12.9813283037231
 30
0.0
 10
33.75450413877388
 20
13.01375809079991
 30
0.0
 10
33.84318810756622
 20
13.07832992771227
 30
0.0
 10
33.96609441576857
 20
13.24763530030191
 30
0.0
 10
34.00000745044053
 20
13.35194276384072
 30
0.0
 10
34.00000745044963
 20
13.45653937563497
 30
0.0
  0
SPLINE
  5
F14
330
EE4
100
AcDbEntity
  8
201689
  6
Continuous
 62
     2
370
    15
100
AcDbSpline
210
0.0
220
0.0
230
1.0
 70
     8
 71
     3
 72
    26
 73
    22
 74
     0
 42
0.00000001
 43
0.0000000001
 40
0.0
 40
0.0
 40
0.0
 40
0.0
 40
0.0247666433580385
 40
0.0494927580580807
 40
0.0742239776943304
 40
0.0990058851971627
 40
0.123883767322905
 40
0.1857198424344358
 40
0.248011589572464
 40
0.3100140426936661
 40
0.3725373963040838
 40
0.4973288028668121
 40
0.5598892137815014
 40
0.6226384529390268
 40
0.6854311413174195
 40
0.7482326699175556
 40
0.7989412828091221
 40
0.8491829488039114
 40
0.899246076116656
 40
0.9494219559926261
 40
0.9999999999999998
 40
0.9999999999999998
 40
0.9999999999999998
 40
0.9999999999999998
 10
33.65502955557076
 20
12.98132225219183
 30
0.0
 10
33.6543247767886
 20
12.97959366933833
 30
0.0
 10
33.65291637253813
 20
12.97613933232014
 30
0.0
 10
33.64148628193016
 20
12.96793399178023
 30
0.0
 10
33.62322336055104
 20
12.9575408337098
 30
0.0
 10
33.59745077408206
 20
12.94477028911569
 30
0.0
 10
33.54802344961172
 20
12.92230868610568
 30
0.0
 10
33.45697444518874
 20
12.88480283738499
 30
0.0
 10
33.29987184986112
 20
12.82625352898731
 30
0.0
 10
33.10136765742664
 20
12.75817614080779
 30
0.0
 10
32.78489250723306
 20
12.65819316774127
 30
0.0
 10
32.39464306853188
 20
12.54956956628689
 30
0.0
 10
31.94476655714243
 20
12.44411146725565
 30
0.0
 10
31.57885245227954
 20
12.36886474821108
 30
0.0
 10
31.18859202101794
 20
12.30020946557101
 30
0.0
 10
30.80373674673956
 20
12.24428381096481
 30
0.0
 10
30.43328167948039
 20
12.20097115140333
 30
0.0
 10
30.08272188749425
 20
12.168887441582
 30
0.0
 10
29.72656801600169
 20
12.14565679328689
 30
0.0
 10
29.36503380979321
 20
12.13079609117108
 30
0.0
 10
29.12200625562036
 20
12.12893673500412
 30
0.0
 10
29.00000745044872
 20
12.12800334606572
 30
0.0
  0
SPLINE
  5
F15
330
EE4
100
AcDbEntity
  8
201689
  6
Continuous
 62
     3
370
    15
100
AcDbSpline
210
0.0
220
0.0
230
1.0
 70
     8
 71
     3
 72
    10
 73
     6
 74
     0
 42
0.00000001
 43
0.0000000001
 40
0.0
 40
0.0
 40
0.0
 40
0.0
 40
0.5
 40
0.5
 40
1.0
 40
1.0
 40
1.0
 40
1.0
 10
24.34498519377758
 20
22.23774333410552
 30
0.0
 10
24.24551229327608
 20
22.27017270390866
 30
0.0
 10
24.15682876279698
 20
22.33474366413202
 30
0.0
 10
24.03392226717187
 20
22.50404702191667
 30
0.0
 10
24.00000859589818
 20
22.60835336310106
 30
0.0
 10
24.00000745047873
 20
22.71294921441199
 30
0.0
  0
SPLINE
  5
F16
330
EE4
100
AcDbEntity
  8
201689
  6
Continuous
 62
     3
370
    15
100
AcDbSpline
210
0.0
220
0.0
230
1.0
 70
     8
 71
     3
 72
    28
 73
    24
 74
     0
 42
0.00000001
 43
0.0000000001
 40
0.0
 40
0.0
 40
0.0
 40
0.0
 40
0.028167824646247
 40
0.0561725710199303
 40
0.0840632430580927
 40
0.1118894159396965
 40
0.1397009943933849
 40
0.1675479612771524
 40
0.1954801230969161
 40
0.2235468592907316
 40
0.2517968818493459
 40
0.3145912097047087
 40
0.3773895791472388
 40
0.4401274654084098
 40
0.5026921001314582
 40
0.6274808115027547
 40
0.6899969334201606
 40
0.7520044895741047
 40
0.8142892294242038
 40
0.8761323773394742
 40
0.9175309137394052
 40
0.9587498143274594
 40
1.0
 40
1.0
 40
1.0
 40
1.0
 10
29.00000745044872
 20
21.38442311507993
 30
0.0
 10
28.9320750048928
 20
21.38471221307304
 30
0.0
 10
28.79660341024282
 20
21.3852887353205
 30
0.0
 10
28.59425152056701
 20
21.38992197736934
 30
0.0
 10
28.39349871574359
 20
21.3972339144068
 30
0.0
 10
28.19437994579494
 20
21.40742772002523
 30
0.0
 10
27.99692886384128
 20
21.42036423686864
 30
0.0
 10
27.80117740791638
 20
21.4359964924181
 30
0.0
 10
27.60715612019249
 20
21.45425337337588
 30
0.0
 10
27.41489305993037
 20
21.47507219774798
 30
0.0
 10
27.14734241468887
 20
21.5078178740091
 30
0.0
 10
26.81147655233144
 20
21.55661958047267
 30
0.0
 10
26.42123691680899
 20
21.62527067464794
 30
0.0
 10
26.05530966238712
 20
21.70051777391905
 30
0.0
 10
25.6054320665271
 20
21.80597366982306
 30
0.0
 10
25.21516937190881
 20
21.91459915456949
 30
0.0
 10
24.89868515517446
 20
22.01458336437395
 30
0.0
 10
24.70016722302489
 20
22.08266424195904
 30
0.0
 10
24.54308506229882
 20
22.14120701582533
 30
0.0
 10
24.44181745034075
 20
22.18291095512904
 30
0.0
 10
24.38268873762445
 20
22.2105361278966
 30
0.0
 10
24.35085548470124
 20
22.22833802556784
 30
0.0
 10
24.34694245222363
 20
22.2346066319958
 30
0.0
 10
24.34498519377257
 20
22.23774212422654
 30
0.0
  0
SPLINE
  5
F17
330
EE4
100
AcDbEntity
  8
201689
  6
Continuous
 62
     3
370
    15
100
AcDbSpline
210
0.0
220
0.0
230
1.0
 70
     8
 71
     3
 72
    10
 73
     6
 74
     0
 42
0.00000001
 43
0.0000000001
 40
0.0
 40
0.0
 40
0.0
 40
0.0
 40
0.5
 40
0.5
 40
1.0
 40
1.0
 40
1.0
 40
1.0
 10
33.6550305747669
 20
22.23774807273731
 30
0.0
 10
33.75450413877388
 20
22.27017785981411
 30
0.0
 10
33.84318810756622
 20
22.33474969672648
 30
0.0
 10
33.96609441576857
 20
22.50405506931611
 30
0.0
 10
34.00000745044053
 20
22.60836253285493
 30
0.0
 10
34.00000745044963
 20
22.71295914464918
 30
0.0
  0
SPLINE
  5
F18
330
EE4
100
AcDbEntity
  8
201689
  6
Continuous
 62
     3
370
    15
100
AcDbSpline
210
0.0
220
0.0
230
1.0
 70
     8
 71
     3
 72
    26
 73
    22
 74
     0
 42
0.00000001
 43
0.0000000001
 40
0.0
 40
0.0
 40
0.0
 40
0.0
 40
0.0247666433580385
 40
0.0494927580580807
 40
0.0742239776943304
 40
0.0990058851971627
 40
0.123883767322905
 40
0.1857198424344358
 40
0.248011589572464
 40
0.3100140426936661
 40
0.3725373963040838
 40
0.4973288028668121
 40
0.5598892137815014
 40
0.6226384529390268
 40
0.6854311413174195
 40
0.7482326699175556
 40
0.7989412828091221
 40
0.8491829488039114
 40
0.899246076116656
 40
0.9494219559926261
 40
0.9999999999999998
 40
0.9999999999999998
 40
0.9999999999999998
 40
0.9999999999999998
 10
33.65502955557076
 20
22.23774202120603
 30
0.0
 10
33.6543247767886
 20
22.23601343835253
 30
0.0
 10
33.65291637253813
 20
22.23255910133435
 30
0.0
 10
33.64148628193016
 20
22.22435376079443
 30
0.0
 10
33.62322336055104
 20
22.213960602724
 30
0.0
 10
33.59745077408206
 20
22.2011900581299
 30
0.0
 10
33.54802344961172
 20
22.17872845511988
 30
0.0
 10
33.45697444518874
 20
22.1412226063992
 30
0.0
 10
33.29987184986112
 20
22.08267329800151
 30
0.0
 10
33.10136765742664
 20
22.01459590982199
 30
0.0
 10
32.78489250723306
 20
21.91461293675548
 30
0.0
 10
32.39464306853188
 20
21.80598933530109
 30
0.0
 10
31.94476655714243
 20
21.70053123626985
 30
0.0
 10
31.57885245227954
 20
21.62528451722528
 30
0.0
 10
31.18859202101794
 20
21.55662923458522
 30
0.0
 10
30.80373674673956
 20
21.50070357997902
 30
0.0
 10
30.43328167948039
 20
21.45739092041754
 30
0.0
 10
30.08272188749425
 20
21.4253072105962
 30
0.0
 10
29.72656801600169
 20
21.40207656230109
 30
0.0
 10
29.36503380979321
 20
21.38721586018528
 30
0.0
 10
29.12200625562036
 20
21.38535650401832
 30
0.0
 10
29.00000745044872
 20
21.38442311507993
 30
0.0
  0
LINE
  5
F19
330
EE4
100
AcDbEntity
  8
201689
  6
Continuous
 62
     2
370
    15
100
AcDbLine
 10
14.0000077857253
 20
285.1599558599101
 30
0.0
 11
14.0000077857253
 21
47.08824505729535
 31
0.0
  0
LINE
  5
F1A
330
EE4
100
AcDbEntity
  8
201689
  6
Continuous
 62
     2
370
    15
100
AcDbLine
 10
44.00000711517259
 20
47.08808114452222
 30
0.0
 11
44.00000711517259
 21
285.1599558599101
 31
0.0
  0
LINE
  5
F1B
330
EE4
100
AcDbEntity
  8
201689
  6
Continuous
 62
     2
370
    15
100
AcDbLine
 10
14.0000077857253
 20
46.89619889182904
 30
0.0
 11
14.0000077857253
 21
30.06968846244672
 31
0.0
  0
LINE
  5
F1C
330
EE4
100
AcDbEntity
  8
201689
  6
Continuous
 62
     2
370
    15
100
AcDbLine
 10
44.00000711517259
 20
30.06968846244672
 30
0.0
 11
44.00000711517259
 21
46.89619889182904
 31
0.0
  0
ARC
  5
F1D
330
EE4
100
AcDbEntity
  8
201689
  6
Continuous
 62
     2
370
    15
100
AcDbCircle
 10
29.00000745044872
 20
285.159956001472
 30
0.0
 40
15.0
100
AcDbArc
 50
0.0
 51
180.0
  0
ARC
  5
F1E
330
EE4
100
AcDbEntity
  8
201689
  6
Continuous
 62
     2
370
    15
100
AcDbCircle
 10
29.13300593978011
 20
30.16429350962244
 30
0.0
 40
14.86730217840548
100
AcDbArc
 50
289.1087850191638
 51
359.6354075245233
  0
ARC
  5
F1F
330
EE4
100
AcDbEntity
  8
201689
  6
Continuous
 62
     2
370
    15
100
AcDbCircle
 10
28.88977934777313
 20
30.18741518768548
 30
0.0
 40
14.89023696090278
100
AcDbArc
 50
180.4530025133524
 51
250.8290508177057
  0
LINE
  5
F20
330
EE4
100
AcDbEntity
  8
201689
  6
CENTER
 62
     3
100
AcDbLine
 10
29.00512449800317
 20
315.6598840394727
 30
0.0
 11
28.99975215961331
 21
-0.0000009584259715
 31
0.0
  0
DIMENSION
  5
F21
330
EE4
100
AcDbEntity
  8
BALN
 62
     4
100
AcDbDimension
280
     0
  2
*D11
 10
29.00512449800317
 20
321.6005758093943
 30
0.0
 11
81.50256433509822
 21
321.6005758093943
 31
0.0
 12
665.0051244980032
 22
-341.7159417613566
 32
0.0
 70
   128
  1
（104）
 71
     5
 42
104.4444787350603
 73
     0
 74
     0
 75
     0
  3
ITM
100
AcDbAlignedDimension
 13
133.4496032330635
 23
295.659953714566
 33
0.0
 14
29.00512449800317
 24
315.6598840394727
 34
0.0
100
AcDbRotatedDimension
1001
ACAD
1000
DSTYLE
1002
{
1070
   178
1070
     1
1070
   179
1070
     8
1070
   271
1070
     8
1002
}
  0
LINE
  5
F22
330
EE4
100
AcDbEntity
  8
601106
  6
CENTER
 62
     3
100
AcDbLine
 10
136.4496032330635
 20
274.6599566911755
 30
0.0
 11
-0.0000004933194759
 21
274.6599481357287
 31
0.0
  0
LINE
  5
F23
330
EE4
100
AcDbEntity
  8
421851
  6
CENTER
 62
     3
100
AcDbLine
 10
112.4914081498832
 20
274.659953840292
 30
0.0
 11
112.491408149883
 21
176.3918109550352
 31
0.0
  0
ARC
  5
F24
330
EE4
100
AcDbEntity
  8
421851
 62
     2
100
AcDbCircle
 10
109.7414119109737
 20
185.6599557592674
 30
0.0
 40
0.9999999999992333
100
AcDbArc
 50
180.0000024212877
 51
270.0000024212747
  0
ARC
  5
F25
330
EE4
100
AcDbEntity
  8
421851
 62
     2
100
AcDbCircle
 10
115.2414119104753
 20
185.6599559916944
 30
0.0
 40
0.9999999999992333
100
AcDbArc
 50
270.0000024212747
 51
0.0000024212877826
  0
LINE
  5
F26
330
EE4
100
AcDbEntity
  8
421851
 62
     2
100
AcDbLine
 10
116.2414092274994
 20
249.1599560756404
 30
0.0
 11
116.2414119109744
 21
185.6599560762133
 31
0.0
  0
LINE
  5
F27
330
EE4
100
AcDbEntity
  8
421851
 62
     2
100
AcDbLine
 10
108.7414119109744
 20
185.6599557592674
 30
0.0
 11
108.7414092274994
 21
249.1599557586944
 31
0.0
  0
LINE
  5
F28
330
EE4
100
AcDbEntity
  8
421851
 62
     2
100
AcDbLine
 10
112.4914119529839
 20
184.6599558752318
 30
0.0
 11
115.2414119527348
 21
184.6599559914452
 31
0.0
  0
LINE
  5
F29
330
EE4
100
AcDbEntity
  8
421851
 62
     2
100
AcDbLine
 10
109.7414119542329
 20
184.6599557590182
 30
0.0
 11
112.4914119529839
 21
184.6599558752318
 31
0.0
  0
LINE
  5
F2A
330
EE4
100
AcDbEntity
  8
601106
 62
     2
100
AcDbLine
 10
78.01048635901612
 20
277.1646491600955
 30
0.0
 11
79.01048635901611
 21
277.1646491600955
 31
0.0
  0
LINE
  5
F2B
330
EE4
100
AcDbEntity
  8
601106
 62
     2
100
AcDbLine
 10
79.01048635901611
 20
277.1646491600955
 30
0.0
 11
79.01048635901611
 21
275.1646491600955
 31
0.0
  0
LINE
  5
F2C
330
EE4
100
AcDbEntity
  8
601106
 62
     2
100
AcDbLine
 10
79.01048635901611
 20
275.1646491600955
 30
0.0
 11
82.01048635901633
 21
275.1646491600959
 31
0.0
  0
LINE
  5
F2D
330
EE4
100
AcDbEntity
  8
601106
 62
     2
100
AcDbLine
 10
82.01048635901633
 20
275.1646491600959
 30
0.0
 11
82.01048635901612
 21
277.1646491600955
 31
0.0
  0
LINE
  5
F2E
330
EE4
100
AcDbEntity
  8
601106
 62
     2
100
AcDbLine
 10
82.01048635901612
 20
277.1646491600955
 30
0.0
 11
83.01048635901612
 21
277.1646491600955
 31
0.0
  0
LINE
  5
F2F
330
EE4
100
AcDbEntity
  8
601106
 62
     2
100
AcDbLine
 10
83.01048635901612
 20
277.1646491600955
 30
0.0
 11
83.01048635901635
 21
272.1646491600954
 31
0.0
  0
LINE
  5
F30
330
EE4
100
AcDbEntity
  8
601106
 62
     2
100
AcDbLine
 10
83.01048635901635
 20
272.1646491600954
 30
0.0
 11
82.01048635901633
 21
272.1646491600954
 31
0.0
  0
LINE
  5
F31
330
EE4
100
AcDbEntity
  8
601106
 62
     2
100
AcDbLine
 10
82.01048635901633
 20
272.1646491600954
 30
0.0
 11
82.01048635901633
 21
274.1646491600954
 31
0.0
  0
LINE
  5
F32
330
EE4
100
AcDbEntity
  8
601106
 62
     2
100
AcDbLine
 10
82.01048635901633
 20
274.1646491600954
 30
0.0
 11
79.01048635901634
 21
274.1646491600954
 31
0.0
  0
LINE
  5
F33
330
EE4
100
AcDbEntity
  8
601106
 62
     2
100
AcDbLine
 10
79.01048635901634
 20
274.1646491600954
 30
0.0
 11
79.01048635901634
 21
272.1646491600954
 31
0.0
  0
LINE
  5
F34
330
EE4
100
AcDbEntity
  8
601106
 62
     2
100
AcDbLine
 10
79.01048635901634
 20
272.1646491600954
 30
0.0
 11
78.01048635901634
 21
272.1646491600954
 31
0.0
  0
LINE
  5
F35
330
EE4
100
AcDbEntity
  8
601106
 62
     2
100
AcDbLine
 10
78.01048635901634
 20
272.1646491600954
 30
0.0
 11
78.01048635901634
 21
277.1646491600955
 31
0.0
  0
LINE
  5
F36
330
EE4
100
AcDbEntity
  8
BALN
 62
     2
100
AcDbLine
 10
89.0104890710163
 20
296.6599536853729
 30
0.0
 11
88.51048907101631
 21
297.1599536853729
 31
0.0
  0
LINE
  5
F37
330
EE4
100
AcDbEntity
  8
BALN
 62
     2
100
AcDbLine
 10
88.51048907101631
 20
252.1599536853729
 30
0.0
 11
89.0104890710163
 21
252.6599536853729
 31
0.0
  0
LINE
  5
F38
330
EE4
100
AcDbEntity
  8
601106
 62
     2
100
AcDbLine
 10
88.51048907101631
 20
297.1599536853729
 30
0.0
 11
44.36876172912639
 21
297.1599536853731
 31
0.0
  0
LINE
  5
F39
330
EE4
100
AcDbEntity
  8
601106
 62
     2
100
AcDbLine
 10
44.00000711517271
 20
252.159953685373
 30
0.0
 11
88.51048907101631
 21
252.1599536853729
 31
0.0
  0
LINE
  5
F3A
330
EE4
100
AcDbEntity
  8
601106
 62
     2
100
AcDbLine
 10
89.0104890710163
 20
296.6599536853729
 30
0.0
 11
89.0104890710163
 21
252.6599536853729
 31
0.0
  0
LINE
  5
F3B
330
EE4
100
AcDbEntity
  8
601106
 62
     2
100
AcDbLine
 10
88.51048907101631
 20
252.1599536853729
 30
0.0
 11
88.51048907101631
 21
297.1599536853729
 31
0.0
  0
LINE
  5
F3C
330
EE4
100
AcDbEntity
  8
BALN
 62
     2
100
AcDbLine
 10
89.01044562778906
 20
274.6601072315836
 30
0.0
 11
89.01044562778906
 21
252.6601036255837
 31
0.0
  0
LINE
  5
F3D
330
EE4
100
AcDbEntity
  8
601106
 62
     2
100
AcDbLine
 10
89.01044562778906
 20
296.6601071123838
 30
0.0
 11
89.01044562778906
 21
274.6601072315836
 31
0.0
  0
LINE
  5
F3E
330
EE4
100
AcDbEntity
  8
601106
 62
     2
100
AcDbLine
 10
88.51048907101631
 20
252.1599546539231
 30
0.0
 11
89.01048635901611
 21
252.6599556672232
 31
0.0
  0
LINE
  5
F3F
330
EE4
100
AcDbEntity
  8
601106
 62
     2
100
AcDbLine
 10
89.01048635901611
 20
296.6599591541232
 30
0.0
 11
88.51048907101631
 21
297.1599527168231
 31
0.0
  0
LINE
  5
F40
330
EE4
100
AcDbEntity
  8
601106
 62
     2
100
AcDbLine
 10
89.01048635901611
 20
296.6599591541232
 30
0.0
 11
89.01048635901611
 21
252.6599556672232
 31
0.0
  0
LINE
  5
F41
330
EE4
100
AcDbEntity
  8
601106
 62
     2
100
AcDbLine
 10
88.51048907101631
 20
252.1599546539231
 30
0.0
 11
88.51048907101631
 21
297.1599527168231
 31
0.0
  0
ARC
  5
F42
330
EE4
100
AcDbEntity
  8
420861
  6
CENTER
 62
     3
370
    15
100
AcDbCircle
 10
91.46053325029312
 20
274.5352934093507
 30
0.0
 40
0.4999999999996052
100
AcDbArc
 50
152.0000000000011
 51
179.9999999999935
  0
LINE
  5
F43
330
EE4
100
AcDbEntity
  8
BALN
 62
     3
100
AcDbLine
 10
90.96053325058802
 20
274.6599574106733
 30
0.0
 11
90.96053325028151
 21
274.7846214120439
 31
0.0
  0
ARC
  5
F44
330
EE4
100
AcDbEntity
  8
420861
 62
     2
370
    15
100
AcDbCircle
 10
132.4605332503388
 20
296.1599574115874
 30
0.0
 40
0.9999999999992217
100
AcDbArc
 50
0.0
 51
90.0
  0
ARC
  5
F45
330
EE4
100
AcDbEntity
  8
421851
 62
     2
370
    15
100
AcDbCircle
 10
132.4605332503388
 20
253.1599574110308
 30
0.0
 40
0.9999999999992105
100
AcDbArc
 50
270.0
 51
0.0
  0
LINE
  5
F46
330
EE4
100
AcDbEntity
  8
421851
 62
     2
370
    15
100
AcDbLine
 10
91.52681827646119
 20
252.1599574107816
 30
0.0
 11
132.4605332503388
 21
252.1599574107816
 31
0.0
  0
ARC
  5
F47
330
EE4
100
AcDbEntity
  8
420861
 62
     2
370
    15
100
AcDbCircle
 10
91.46052923708111
 20
252.6603146346017
 30
0.0
 40
0.4999959862984277
100
AcDbArc
 50
180.0004599491997
 51
270.0004599418001
  0
LINE
  5
F48
330
EE4
100
AcDbEntity
  8
421851
 62
     2
370
    15
100
AcDbLine
 10
133.460533250588
 20
274.6599574106733
 30
0.0
 11
133.460533250588
 21
253.1599574110308
 31
0.0
  0
LINE
  5
F49
330
EE4
100
AcDbEntity
  8
421851
 62
     2
370
    15
100
AcDbLine
 10
133.460533250588
 20
296.1599574115874
 30
0.0
 11
133.460533250588
 21
274.6599574106733
 31
0.0
  0
ELLIPSE
  5
F4A
330
EE4
100
AcDbEntity
  8
420861
 62
     2
370
    15
100
AcDbEllipse
 10
91.52681827646119
 20
274.6599574106733
 30
0.0
 11
-0.0000000000000041
 21
-22.49999999998225
 31
0.0
210
0.0
220
0.0
230
1.0
 40
0.5198936665
 41
6.277518731334798
 42
6.283185307179585
  0
ARC
  5
F4B
330
EE4
100
AcDbEntity
  8
421851
 62
     2
370
    15
100
AcDbCircle
 10
105.7105332504345
 20
249.1599499601794
 30
0.0
 40
3.0
100
AcDbArc
 50
0.0
 51
90.0
  0
ARC
  5
F4C
330
EE4
100
AcDbEntity
  8
421851
 62
     2
370
    15
100
AcDbCircle
 10
119.2105332504345
 20
249.1599499601794
 30
0.0
 40
3.0
100
AcDbArc
 50
90.0
 51
180.0
  0
LINE
  5
F4D
330
EE4
100
AcDbEntity
  8
421851
 62
     2
370
    15
100
AcDbLine
 10
91.01905945454133
 20
274.7700291907825
 30
0.0
 11
102.1921822441327
 21
295.7836169222058
 31
0.0
  0
LINE
  5
F4E
330
EE4
100
AcDbEntity
  8
420861
 62
     2
370
    15
100
AcDbLine
 10
102.1921822441327
 20
295.7836169222058
 30
0.0
 11
102.7829519757222
 21
296.8946931925559
 31
0.0
  0
ARC
  5
F4F
330
EE4
100
AcDbEntity
  8
420861
 62
     2
370
    15
100
AcDbCircle
 10
103.2244257727318
 20
296.6599574110762
 30
0.0
 40
0.4999999999996725
100
AcDbArc
 50
90.0
 51
152.0000000000011
  0
LINE
  5
F50
330
EE4
100
AcDbEntity
  8
421851
 62
     2
370
    15
100
AcDbLine
 10
90.96053325079152
 20
252.6603106208201
 30
0.0
 11
90.96053325079152
 21
274.5352934093037
 31
0.0
  0
ARC
  5
F51
330
EE4
100
AcDbEntity
  8
420861
 62
     2
370
    15
100
AcDbCircle
 10
91.46053325028105
 20
274.5352934093037
 30
0.0
 40
0.4999999999996281
100
AcDbArc
 50
152.0000000000011
 51
180.0
  0
LINE
  5
F52
330
EE4
100
AcDbEntity
  8
421851
 62
     2
100
AcDbLine
 10
103.2244257727318
 20
297.1599574110759
 30
0.0
 11
132.4605332503213
 21
297.1599574115866
 31
0.0
  0
ARC
  5
F53
330
EE4
100
AcDbEntity
  8
420924
 62
     2
100
AcDbCircle
 10
90.96059325719261
 20
274.6599388250846
 30
0.0
 40
20.20000000000001
100
AcDbArc
 50
62.00017503012478
 51
81.4591301671218
  0
LINE
  5
F54
330
EE4
100
AcDbEntity
  8
420924
 62
     2
100
AcDbLine
 10
89.0104890710163
 20
295.0690024073499
 30
0.0
 11
93.96059325719262
 21
294.6359244077788
 31
0.0
  0
LINE
  5
F55
330
EE4
100
AcDbEntity
  8
420924
 62
     2
100
AcDbLine
 10
89.0104890710163
 20
254.2509049633963
 30
0.0
 11
90.96053325079129
 21
254.4215117225048
 31
0.0
  0
ENDBLK
  5
F59
330
EE4
100
AcDbEntity
  8
0
 62
     2
100
AcDbBlockEnd
  0
ENDSEC
  0
SECTION
  2
ENTITIES
  0
LINE
  5
AB3
330
1A
100
AcDbEntity
  8
0
 62
     2
100
AcDbLine
 10
-437.4999999999999
 20
692.4999999999998
 30
0.0
 11
-437.4999999999999
 21
-692.4999999999998
 31
0.0
  0
LINE
  5
AB4
330
1A
100
AcDbEntity
  8
0
 62
     2
100
AcDbLine
 10
-437.4999999999999
 20
-692.4999999999998
 30
0.0
 11
437.4999999999999
 21
-692.4999999999998
 31
0.0
  0
LINE
  5
AB5
330
1A
100
AcDbEntity
  8
0
 62
     2
100
AcDbLine
 10
437.4999999999999
 20
-692.4999999999998
 30
0.0
 11
437.4999999999999
 21
692.4999999999998
 31
0.0
  0
LINE
  5
AB6
330
1A
100
AcDbEntity
  8
0
 62
     2
100
AcDbLine
 10
437.4999999999999
 20
692.4999999999998
 30
0.0
 11
-437.4999999999999
 21
692.4999999999998
 31
0.0
  0
LINE
  5
AB7
330
1A
100
AcDbEntity
  8
0
 62
     3
100
AcDbLine
 10
0.0
 20
-692.4999999999998
 30
0.0
 11
0.0
 21
-741.9999999999999
 31
0.0
  0
LINE
  5
AB8
330
1A
100
AcDbEntity
  8
0
 62
     3
100
AcDbLine
 10
0.0
 20
741.9999999999999
 30
0.0
 11
0.0
 21
692.4999999999998
 31
0.0
  0
LINE
  5
AB9
330
1A
100
AcDbEntity
  8
0
 62
     3
100
AcDbLine
 10
-561.9999999999999
 20
0.0
 30
0.0
 11
-437.4999999999999
 21
0.0
 31
0.0
  0
LINE
  5
ABA
330
1A
100
AcDbEntity
  8
0
 62
     3
100
AcDbLine
 10
437.4999999999999
 20
0.0
 30
0.0
 11
486.9999999999999
 21
0.0
 31
0.0
  0
LINE
  5
ABB
330
1A
100
AcDbEntity
  8
0
 62
     3
100
AcDbLine
 10
-250.0
 20
-692.4999999999998
 30
0.0
 11
-250.0
 21
-717.4999999999998
 31
0.0
  0
LINE
  5
ABC
330
1A
100
AcDbEntity
  8
0
 62
     3
100
AcDbLine
 10
-200.0
 20
-692.4999999999998
 30
0.0
 11
-200.0
 21
-717.4999999999998
 31
0.0
  0
LINE
  5
ABD
330
1A
100
AcDbEntity
  8
0
 62
     3
100
AcDbLine
 10
-150.0
 20
-692.4999999999998
 30
0.0
 11
-150.0
 21
-717.4999999999998
 31
0.0
  0
LINE
  5
ABE
330
1A
100
AcDbEntity
  8
0
 62
     3
100
AcDbLine
 10
-100.0
 20
-692.4999999999998
 30
0.0
 11
-100.0
 21
-717.4999999999998
 31
0.0
  0
LINE
  5
ABF
330
1A
100
AcDbEntity
  8
0
 62
     3
100
AcDbLine
 10
250.0
 20
-717.4999999999998
 30
0.0
 11
250.0
 21
-692.4999999999998
 31
0.0
  0
LINE
  5
AC0
330
1A
100
AcDbEntity
  8
0
 62
     3
100
AcDbLine
 10
200.0
 20
-692.4999999999998
 30
0.0
 11
200.0
 21
-717.4999999999998
 31
0.0
  0
LINE
  5
AC1
330
1A
100
AcDbEntity
  8
0
 62
     3
100
AcDbLine
 10
150.0
 20
-717.4999999999998
 30
0.0
 11
150.0
 21
-692.4999999999998
 31
0.0
  0
LINE
  5
AC2
330
1A
100
AcDbEntity
  8
0
 62
     3
100
AcDbLine
 10
100.0
 20
-692.4999999999998
 30
0.0
 11
100.0
 21
-717.4999999999998
 31
0.0
  0
LINE
  5
AC3
330
1A
100
AcDbEntity
  8
0
 62
     3
100
AcDbLine
 10
-50.0
 20
-692.4999999999998
 30
0.0
 11
-50.0
 21
-717.4999999999998
 31
0.0
  0
LINE
  5
AC4
330
1A
100
AcDbEntity
  8
0
 62
     3
100
AcDbLine
 10
50.0
 20
-692.4999999999998
 30
0.0
 11
50.0
 21
-717.4999999999998
 31
0.0
  0
LINE
  5
AC5
330
1A
100
AcDbEntity
  8
0
 62
     3
100
AcDbLine
 10
-250.0
 20
-717.4999999999998
 30
0.0
 11
250.0
 21
-717.4999999999998
 31
0.0
  0
LINE
  5
AC6
330
1A
100
AcDbEntity
  8
0
 62
     3
100
AcDbLine
 10
-462.4999999999999
 20
599.9999999999999
 30
0.0
 11
-437.4999999999999
 21
599.9999999999999
 31
0.0
  0
LINE
  5
AC7
330
1A
100
AcDbEntity
  8
0
 62
     3
100
AcDbLine
 10
-462.4999999999999
 20
-300.0
 30
0.0
 11
-437.4999999999999
 21
-300.0
 31
0.0
  0
LINE
  5
AC8
330
1A
100
AcDbEntity
  8
0
 62
     3
100
AcDbLine
 10
462.4999999999999
 20
599.9999999999999
 30
0.0
 11
437.4999999999999
 21
599.9999999999999
 31
0.0
  0
LINE
  5
AC9
330
1A
100
AcDbEntity
  8
0
 62
     3
100
AcDbLine
 10
437.4999999999999
 20
-300.0
 30
0.0
 11
462.4999999999999
 21
-300.0
 31
0.0
  0
LINE
  5
ACA
330
1A
100
AcDbEntity
  8
0
 62
     3
100
AcDbLine
 10
462.4999999999999
 20
300.0
 30
0.0
 11
437.4999999999999
 21
300.0
 31
0.0
  0
LINE
  5
ACB
330
1A
100
AcDbEntity
  8
0
 62
     3
100
AcDbLine
 10
437.4999999999999
 20
-599.9999999999999
 30
0.0
 11
462.4999999999999
 21
-599.9999999999999
 31
0.0
  0
LINE
  5
ACC
330
1A
100
AcDbEntity
  8
0
 62
     3
100
AcDbLine
 10
-437.4999999999999
 20
-599.9999999999999
 30
0.0
 11
-462.4999999999999
 21
-599.9999999999999
 31
0.0
  0
LINE
  5
ACD
330
1A
100
AcDbEntity
  8
0
 62
     3
100
AcDbLine
 10
-462.4999999999999
 20
300.0
 30
0.0
 11
-437.4999999999999
 21
300.0
 31
0.0
  0
LINE
  5
ACE
330
1A
100
AcDbEntity
  8
0
 62
     3
100
AcDbLine
 10
-250.0
 20
717.4999999999998
 30
0.0
 11
-250.0
 21
692.4999999999998
 31
0.0
  0
LINE
  5
ACF
330
1A
100
AcDbEntity
  8
0
 62
     3
100
AcDbLine
 10
250.0
 20
717.4999999999998
 30
0.0
 11
250.0
 21
692.4999999999998
 31
0.0
  0
TEXT
  5
AD0
330
1A
100
AcDbEntity
  8
0
  6
Continuous
 62
     7
100
AcDbText
 10
-135.9999999999999
 20
695.4999999999999
 30
0.0
 40
22.0
  1
２
  7
BIGFONT
100
AcDbText
  0
TEXT
  5
AD1
330
1A
100
AcDbEntity
  8
0
  6
Continuous
 62
     7
100
AcDbText
 10
114.0
 20
695.4999999999999
 30
0.0
 40
22.0
  1
３
  7
BIGFONT
100
AcDbText
  0
TEXT
  5
AD2
330
1A
100
AcDbEntity
  8
0
  6
Continuous
 62
     7
100
AcDbText
 10
-354.7499999999999
 20
695.4999999999999
 30
0.0
 40
22.0
  1
１
  7
BIGFONT
100
AcDbText
  0
TEXT
  5
AD3
330
1A
100
AcDbEntity
  8
0
  6
Continuous
 62
     7
100
AcDbText
 10
332.75
 20
695.4999999999999
 30
0.0
 40
22.0
  1
４
  7
BIGFONT
100
AcDbText
  0
TEXT
  5
AD4
330
1A
100
AcDbEntity
  8
0
  6
Continuous
 62
     7
100
AcDbText
 10
-354.7499999999999
 20
-717.4999999999999
 30
0.0
 40
22.0
  1
１
  7
BIGFONT
100
AcDbText
  0
TEXT
  5
AD5
330
1A
100
AcDbEntity
  8
0
  6
Continuous
 62
     7
100
AcDbText
 10
332.75
 20
-717.4999999999999
 30
0.0
 40
22.0
  1
４
  7
BIGFONT
100
AcDbText
  0
TEXT
  5
AD6
330
1A
100
AcDbEntity
  8
0
  6
Continuous
 62
     7
100
AcDbText
 10
-462.4999999999999
 20
138.9999999999999
 30
0.0
 40
22.0
  1
Ｃ
  7
BIGFONT
100
AcDbText
  0
TEXT
  5
AD7
330
1A
100
AcDbEntity
  8
0
  6
Continuous
 62
     7
100
AcDbText
 10
-462.4999999999999
 20
438.9999999999998
 30
0.0
 40
22.0
  1
Ｂ
  7
BIGFONT
100
AcDbText
  0
TEXT
  5
AD8
330
1A
100
AcDbEntity
  8
0
  6
Continuous
 62
     7
100
AcDbText
 10
-462.4999999999999
 20
-160.9999999999999
 30
0.0
 40
22.0
  1
Ｄ
  7
BIGFONT
100
AcDbText
  0
TEXT
  5
AD9
330
1A
100
AcDbEntity
  8
0
  6
Continuous
 62
     7
100
AcDbText
 10
-462.4999999999999
 20
-460.9999999999999
 30
0.0
 40
22.0
  1
Ｅ
  7
BIGFONT
100
AcDbText
  0
TEXT
  5
ADA
330
1A
100
AcDbEntity
  8
0
  6
Continuous
 62
     7
100
AcDbText
 10
-462.4999999999999
 20
635.2499999999999
 30
0.0
 40
22.0
  1
Ａ
  7
BIGFONT
100
AcDbText
  0
TEXT
  5
ADB
330
1A
100
AcDbEntity
  8
0
  6
Continuous
 62
     7
100
AcDbText
 10
-462.4999999999999
 20
-657.2499999999998
 30
0.0
 40
22.0
  1
Ｆ
  7
BIGFONT
100
AcDbText
  0
TEXT
  5
ADC
330
1A
100
AcDbEntity
  8
0
  6
Continuous
 62
     7
100
AcDbText
 10
440.4999999999999
 20
635.2499999999999
 30
0.0
 40
22.0
  1
Ａ
  7
BIGFONT
100
AcDbText
  0
TEXT
  5
ADD
330
1A
100
AcDbEntity
  8
0
  6
Continuous
 62
     7
100
AcDbText
 10
440.4999999999999
 20
438.9999999999998
 30
0.0
 40
22.0
  1
Ｂ
  7
BIGFONT
100
AcDbText
  0
TEXT
  5
ADE
330
1A
100
AcDbEntity
  8
0
  6
Continuous
 62
     7
100
AcDbText
 10
440.4999999999999
 20
138.9999999999999
 30
0.0
 40
22.0
  1
Ｃ
  7
BIGFONT
100
AcDbText
  0
TEXT
  5
ADF
330
1A
100
AcDbEntity
  8
0
  6
Continuous
 62
     7
100
AcDbText
 10
440.4999999999999
 20
-160.9999999999999
 30
0.0
 40
22.0
  1
Ｄ
  7
BIGFONT
100
AcDbText
  0
TEXT
  5
AE0
330
1A
100
AcDbEntity
  8
0
  6
Continuous
 62
     7
100
AcDbText
 10
440.4999999999999
 20
-460.9999999999999
 30
0.0
 40
22.0
  1
Ｅ
  7
BIGFONT
100
AcDbText
  0
TEXT
  5
AE1
330
1A
100
AcDbEntity
  8
0
  6
Continuous
 62
     7
100
AcDbText
 10
440.4999999999999
 20
-657.2499999999998
 30
0.0
 40
22.0
  1
Ｆ
  7
BIGFONT
100
AcDbText
  0
POINT
  5
AE2
330
1A
100
AcDbEntity
  8
DEFPOINTS
100
AcDbPoint
 10
0.0
 20
0.0
 30
0.0
  0
LINE
  5
AE3
330
1A
100
AcDbEntity
  8
0
 62
     2
100
AcDbLine
 10
-437.4999999999997
 20
-540.0
 30
0.0
 11
437.5
 21
-540.0
 31
0.0
  0
LINE
  5
AE4
330
1A
100
AcDbEntity
  8
0
 62
     3
100
AcDbLine
 10
437.5
 20
-569.9999999999999
 30
0.0
 11
-437.4999999999997
 21
-569.9999999999999
 31
0.0
  0
LINE
  5
AE5
330
1A
100
AcDbEntity
  8
0
 62
     3
100
AcDbLine
 10
0.0000000000001705
 20
-540.0
 30
0.0
 11
0.0000000000001705
 21
-569.9999999999999
 31
0.0
  0
LINE
  5
AE6
330
1A
100
AcDbEntity
  8
0
 62
     3
100
AcDbLine
 10
0.0000000000002842
 20
-569.9999999999999
 30
0.0
 11
0.0000000000001705
 21
-629.9999999999998
 31
0.0
  0
LINE
  5
AE7
330
1A
100
AcDbEntity
  8
0
 62
     3
100
AcDbLine
 10
0.0000000000001705
 20
-629.9999999999998
 30
0.0
 11
0.0000000000001705
 21
-692.4999999999998
 31
0.0
  0
LINE
  5
AE8
330
1A
100
AcDbEntity
  8
0
 62
     3
100
AcDbLine
 10
-437.4999999999997
 20
-629.9999999999998
 30
0.0
 11
437.5
 21
-629.9999999999998
 31
0.0
  0
LINE
  5
AE9
330
1A
100
AcDbEntity
  8
0
 62
     3
100
AcDbLine
 10
-329.9999999999997
 20
-569.9999999999999
 30
0.0
 11
-329.9999999999998
 21
-629.9999999999998
 31
0.0
  0
LINE
  5
AEA
330
1A
100
AcDbEntity
  8
0
 62
     3
100
AcDbLine
 10
-179.9999999999998
 20
-629.9999999999998
 30
0.0
 11
-179.9999999999998
 21
-569.9999999999999
 31
0.0
  0
LINE
  5
AEB
330
1A
100
AcDbEntity
  8
0
 62
     3
100
AcDbLine
 10
-89.99999999999984
 20
-569.9999999999999
 30
0.0
 11
-89.99999999999984
 21
-629.9999999999998
 31
0.0
  0
LINE
  5
AEC
330
1A
100
AcDbEntity
  8
0
 62
     3
100
AcDbLine
 10
100.0000000000001
 20
-540.0
 30
0.0
 11
100.0
 21
-569.9999999999999
 31
0.0
  0
LINE
  5
AED
330
1A
100
AcDbEntity
  8
0
 62
     3
100
AcDbLine
 10
100.0000000000001
 20
-629.9999999999998
 30
0.0
 11
100.0000000000001
 21
-692.4999999999998
 31
0.0
  0
TEXT
  5
AEE
330
1A
100
AcDbEntity
  8
0
  6
Continuous
 62
     7
100
AcDbText
 10
-164.9999999999998
 20
-596.0
 30
0.0
 40
15.0
  1
尺    度
 41
0.833
  7
BIGFONT
100
AcDbText
  0
TEXT
  5
AEF
330
1A
100
AcDbEntity
  8
0
  6
Continuous
 62
     7
100
AcDbText
 10
-157.7499999999998
 20
-617.4999999999998
 30
0.0
 40
12.5
  1
Ｓ
 41
0.833
  7
BIGFONT
100
AcDbText
  0
TEXT
  5
AF0
330
1A
100
AcDbEntity
  8
0
  6
Continuous
 62
     7
100
AcDbText
 10
-147.9999999999998
 20
-617.4999999999998
 30
0.0
 40
12.5
  1
ｃ
 41
0.833
  7
BIGFONT
100
AcDbText
  0
TEXT
  5
AF1
330
1A
100
AcDbEntity
  8
0
  6
Continuous
 62
     7
100
AcDbText
 10
-138.4999999999998
 20
-617.4999999999998
 30
0.0
 40
12.5
  1
ａ
 41
0.833
  7
BIGFONT
100
AcDbText
  0
TEXT
  5
AF2
330
1A
100
AcDbEntity
  8
0
  6
Continuous
 62
     7
100
AcDbText
 10
-130.7499999999998
 20
-617.4999999999998
 30
0.0
 40
12.5
  1
ｌ
 41
0.833
  7
BIGFONT
100
AcDbText
  0
TEXT
  5
AF3
330
1A
100
AcDbEntity
  8
0
  6
Continuous
 62
     7
100
AcDbText
 10
-123.2499999999998
 20
-617.4999999999998
 30
0.0
 40
12.5
  1
ｅ
 41
0.833
  7
BIGFONT
100
AcDbText
  0
TEXT
  5
AF4
330
1A
100
AcDbEntity
  8
0
  6
Continuous
 62
     7
100
AcDbText
 10
20.00000000000017
 20
-556.0
 30
0.0
 40
15.0
  1
品    番
 41
0.833
  7
BIGFONT
100
AcDbText
  0
TEXT
  5
AF5
330
1A
100
AcDbEntity
  8
0
  6
Continuous
 62
     7
100
AcDbText
 10
14.50000000000017
 20
-568.9999999999998
 30
0.0
 40
12.5
  1
Ｍ
 41
0.833
  7
BIGFONT
100
AcDbText
  0
TEXT
  5
AF6
330
1A
100
AcDbEntity
  8
0
  6
Continuous
 62
     7
100
AcDbText
 10
25.00000000000017
 20
-568.9999999999998
 30
0.0
 40
12.5
  1
ｏ
 41
0.833
  7
BIGFONT
100
AcDbText
  0
TEXT
  5
AF7
330
1A
100
AcDbEntity
  8
0
  6
Continuous
 62
     7
100
AcDbText
 10
32.50000000000017
 20
-568.9999999999998
 30
0.0
 40
12.5
  1
ｄ
 41
0.833
  7
BIGFONT
100
AcDbText
  0
TEXT
  5
AF8
330
1A
100
AcDbEntity
  8
0
  6
Continuous
 62
     7
100
AcDbText
 10
41.00000000000017
 20
-568.9999999999998
 30
0.0
 40
12.5
  1
ｅ
 41
0.833
  7
BIGFONT
100
AcDbText
  0
TEXT
  5
AF9
330
1A
100
AcDbEntity
  8
0
  6
Continuous
 62
     7
100
AcDbText
 10
47.00000000000017
 20
-568.9999999999998
 30
0.0
 40
12.5
  1
ｌ
 41
0.833
  7
BIGFONT
100
AcDbText
  0
TEXT
  5
AFA
330
1A
100
AcDbEntity
  8
0
  6
Continuous
 62
     7
100
AcDbText
 10
62.00000000000017
 20
-568.9999999999998
 30
0.0
 40
12.5
  1
Ｎ
 41
0.833
  7
BIGFONT
100
AcDbText
  0
TEXT
  5
AFB
330
1A
100
AcDbEntity
  8
0
  6
Continuous
 62
     7
100
AcDbText
 10
70.75000000000017
 20
-568.9999999999998
 30
0.0
 40
12.5
  1
ｏ
 41
0.833
  7
BIGFONT
100
AcDbText
  0
TEXT
  5
AFC
330
1A
100
AcDbEntity
  8
0
  6
Continuous
 62
     7
100
AcDbText
 10
79.00000000000017
 20
-568.9999999999998
 30
0.0
 40
12.5
  1
．
 41
0.833
  7
BIGFONT
100
AcDbText
  0
TEXT
  5
AFD
330
1A
100
AcDbEntity
  8
0
  6
Continuous
 62
     7
100
AcDbText
 10
30.50000000000017
 20
-617.5457107056444
 30
0.0
 40
12.5
  1
Ｎ
 41
0.833
  7
BIGFONT
100
AcDbText
  0
TEXT
  5
AFE
330
1A
100
AcDbEntity
  8
0
  6
Continuous
 62
     7
100
AcDbText
 10
39.75000000000017
 20
-617.5457107056444
 30
0.0
 40
12.5
  1
ａ
 41
0.833
  7
BIGFONT
100
AcDbText
  0
TEXT
  5
AFF
330
1A
100
AcDbEntity
  8
0
  6
Continuous
 62
     7
100
AcDbText
 10
49.75000000000017
 20
-617.5457107056444
 30
0.0
 40
12.5
  1
ｍ
 41
0.833
  7
BIGFONT
100
AcDbText
  0
TEXT
  5
B00
330
1A
100
AcDbEntity
  8
0
  6
Continuous
 62
     7
100
AcDbText
 10
59.00000000000017
 20
-617.5457107056444
 30
0.0
 40
12.5
  1
ｅ
 41
0.833
  7
BIGFONT
100
AcDbText
  0
TEXT
  5
B01
330
1A
100
AcDbEntity
  8
0
  6
Continuous
 62
     7
100
AcDbText
 10
20.00000000000017
 20
-655.9999999999997
 30
0.0
 40
15.0
  1
図    番
 41
0.833
  7
BIGFONT
100
AcDbText
  0
TEXT
  5
B02
330
1A
100
AcDbEntity
  8
0
  6
Continuous
 62
     7
100
AcDbText
 10
6.50000000000017
 20
-679.9999999999998
 30
0.0
 40
12.5
  1
Ｄ
 41
0.833
  7
BIGFONT
100
AcDbText
  0
TEXT
  5
B03
330
1A
100
AcDbEntity
  8
0
  6
Continuous
 62
     7
100
AcDbText
 10
15.00000000000017
 20
-679.9999999999998
 30
0.0
 40
12.5
  1
ｒ
 41
0.833
  7
BIGFONT
100
AcDbText
  0
TEXT
  5
B04
330
1A
100
AcDbEntity
  8
0
  6
Continuous
 62
     7
100
AcDbText
 10
21.25000000000017
 20
-679.9999999999998
 30
0.0
 40
12.5
  1
ａ
 41
0.833
  7
BIGFONT
100
AcDbText
  0
TEXT
  5
B05
330
1A
100
AcDbEntity
  8
0
  6
Continuous
 62
     7
100
AcDbText
 10
29.25000000000017
 20
-679.9999999999998
 30
0.0
 40
12.5
  1
ｗ
 41
0.833
  7
BIGFONT
100
AcDbText
  0
TEXT
  5
B06
330
1A
100
AcDbEntity
  8
0
  6
Continuous
 62
     7
100
AcDbText
 10
37.00000000000017
 20
-679.9999999999998
 30
0.0
 40
12.5
  1
ｉ
 41
0.833
  7
BIGFONT
100
AcDbText
  0
TEXT
  5
B07
330
1A
100
AcDbEntity
  8
0
  6
Continuous
 62
     7
100
AcDbText
 10
42.75000000000017
 20
-679.9999999999998
 30
0.0
 40
12.5
  1
ｎ
 41
0.833
  7
BIGFONT
100
AcDbText
  0
TEXT
  5
B08
330
1A
100
AcDbEntity
  8
0
  6
Continuous
 62
     7
100
AcDbText
 10
51.00000000000017
 20
-679.9999999999998
 30
0.0
 40
12.5
  1
ｇ
 41
0.833
  7
BIGFONT
100
AcDbText
  0
TEXT
  5
B09
330
1A
100
AcDbEntity
  8
0
  6
Continuous
 62
     7
100
AcDbText
 10
67.00000000000017
 20
-679.9999999999998
 30
0.0
 40
12.5
  1
Ｎ
 41
0.833
  7
BIGFONT
100
AcDbText
  0
TEXT
  5
B0A
330
1A
100
AcDbEntity
  8
0
  6
Continuous
 62
     7
100
AcDbText
 10
75.75000000000017
 20
-679.9999999999998
 30
0.0
 40
12.5
  1
ｏ
 41
0.833
  7
BIGFONT
100
AcDbText
  0
TEXT
  5
B0B
330
1A
100
AcDbEntity
  8
0
  6
Continuous
 62
     7
100
AcDbText
 10
84.00000000000018
 20
-679.9999999999998
 30
0.0
 40
12.5
  1
．
 41
0.833
  7
BIGFONT
100
AcDbText
  0
TEXT
  5
B0C
330
1A
100
AcDbEntity
  8
0
  6
Continuous
 62
     7
100
AcDbText
 10
-402.4999999999996
 20
-562.5
 30
0.0
 40
15.0
  1
第
  7
BIGFONT
100
AcDbText
  0
TEXT
  5
B0D
330
1A
100
AcDbEntity
  8
0
  6
Continuous
 62
     7
100
AcDbText
 10
-380.4999999999997
 20
-562.5
 30
0.0
 40
15.0
  1
三
  7
BIGFONT
100
AcDbText
  0
TEXT
  5
B0E
330
1A
100
AcDbEntity
  8
0
  6
Continuous
 62
     7
100
AcDbText
 10
-358.4999999999998
 20
-562.5
 30
0.0
 40
15.0
  1
角
  7
BIGFONT
100
AcDbText
  0
TEXT
  5
B0F
330
1A
100
AcDbEntity
  8
0
  6
Continuous
 62
     7
100
AcDbText
 10
-336.4999999999997
 20
-562.5
 30
0.0
 40
15.0
  1
法
  7
BIGFONT
100
AcDbText
  0
TEXT
  5
B10
330
1A
100
AcDbEntity
  8
0
  6
Continuous
 62
     7
100
AcDbText
 10
-285.9999999999999
 20
-562.5
 30
0.0
 40
15.0
  1
Ｔ
  7
BIGFONT
100
AcDbText
  0
TEXT
  5
B11
330
1A
100
AcDbEntity
  8
0
  6
Continuous
 62
     7
100
AcDbText
 10
-271.9999999999998
 20
-562.5
 30
0.0
 40
15.0
  1
ｈ
  7
BIGFONT
100
AcDbText
  0
TEXT
  5
B12
330
1A
100
AcDbEntity
  8
0
  6
Continuous
 62
     7
100
AcDbText
 10
-262.4999999999998
 20
-562.5
 30
0.0
 40
15.0
  1
ｉ
  7
BIGFONT
100
AcDbText
  0
TEXT
  5
B13
330
1A
100
AcDbEntity
  8
0
  6
Continuous
 62
     7
100
AcDbText
 10
-253.7499999999998
 20
-562.5
 30
0.0
 40
15.0
  1
ｒ
  7
BIGFONT
100
AcDbText
  0
TEXT
  5
B14
330
1A
100
AcDbEntity
  8
0
  6
Continuous
 62
     7
100
AcDbText
 10
-244.4999999999998
 20
-562.5
 30
0.0
 40
15.0
  1
ｄ
  7
BIGFONT
100
AcDbText
  0
TEXT
  5
B15
330
1A
100
AcDbEntity
  8
0
  6
Continuous
 62
     7
100
AcDbText
 10
-219.4999999999998
 20
-562.5
 30
0.0
 40
15.0
  1
Ａ
  7
BIGFONT
100
AcDbText
  0
TEXT
  5
B16
330
1A
100
AcDbEntity
  8
0
  6
Continuous
 62
     7
100
AcDbText
 10
-206.2499999999998
 20
-562.5
 30
0.0
 40
15.0
  1
ｎ
  7
BIGFONT
100
AcDbText
  0
TEXT
  5
B17
330
1A
100
AcDbEntity
  8
0
  6
Continuous
 62
     7
100
AcDbText
 10
-194.9999999999998
 20
-562.5
 30
0.0
 40
15.0
  1
ｇ
  7
BIGFONT
100
AcDbText
  0
TEXT
  5
B18
330
1A
100
AcDbEntity
  8
0
  6
Continuous
 62
     7
100
AcDbText
 10
-186.7499999999998
 20
-562.5
 30
0.0
 40
15.0
  1
ｌ
  7
BIGFONT
100
AcDbText
  0
TEXT
  5
B19
330
1A
100
AcDbEntity
  8
0
  6
Continuous
 62
     7
100
AcDbText
 10
-177.9999999999998
 20
-562.5
 30
0.0
 40
15.0
  1
ｅ
  7
BIGFONT
100
AcDbText
  0
TEXT
  5
B1A
330
1A
100
AcDbEntity
  8
0
  6
Continuous
 62
     7
100
AcDbText
 10
-153.4999999999998
 20
-562.5
 30
0.0
 40
15.0
  1
Ｐ
  7
BIGFONT
100
AcDbText
  0
TEXT
  5
B1B
330
1A
100
AcDbEntity
  8
0
  6
Continuous
 62
     7
100
AcDbText
 10
-141.4999999999998
 20
-562.5
 30
0.0
 40
15.0
  1
ｒ
  7
BIGFONT
100
AcDbText
  0
TEXT
  5
B1C
330
1A
100
AcDbEntity
  8
0
  6
Continuous
 62
     7
100
AcDbText
 10
-130.4999999999998
 20
-562.5
 30
0.0
 40
15.0
  1
ｏ
  7
BIGFONT
100
AcDbText
  0
TEXT
  5
B1D
330
1A
100
AcDbEntity
  8
0
  6
Continuous
 62
     7
100
AcDbText
 10
-119.4999999999998
 20
-562.5
 30
0.0
 40
15.0
  1
ｊ
  7
BIGFONT
100
AcDbText
  0
TEXT
  5
B1E
330
1A
100
AcDbEntity
  8
0
  6
Continuous
 62
     7
100
AcDbText
 10
-108.7499999999998
 20
-562.5
 30
0.0
 40
15.0
  1
ｅ
  7
BIGFONT
100
AcDbText
  0
TEXT
  5
B1F
330
1A
100
AcDbEntity
  8
0
  6
Continuous
 62
     7
100
AcDbText
 10
-97.49999999999984
 20
-562.5
 30
0.0
 40
15.0
  1
ｃ
  7
BIGFONT
100
AcDbText
  0
TEXT
  5
B20
330
1A
100
AcDbEntity
  8
0
  6
Continuous
 62
     7
100
AcDbText
 10
-86.49999999999982
 20
-562.5
 30
0.0
 40
15.0
  1
ｔ
  7
BIGFONT
100
AcDbText
  0
TEXT
  5
B21
330
1A
100
AcDbEntity
  8
0
  6
Continuous
 62
     7
100
AcDbText
 10
-77.99999999999982
 20
-562.5
 30
0.0
 40
15.0
  1
ｉ
  7
BIGFONT
100
AcDbText
  0
TEXT
  5
B22
330
1A
100
AcDbEntity
  8
0
  6
Continuous
 62
     7
100
AcDbText
 10
-69.49999999999983
 20
-562.5
 30
0.0
 40
15.0
  1
ｏ
  7
BIGFONT
100
AcDbText
  0
TEXT
  5
B23
330
1A
100
AcDbEntity
  8
0
  6
Continuous
 62
     7
100
AcDbText
 10
-58.49999999999983
 20
-562.5
 30
0.0
 40
15.0
  1
ｎ
  7
BIGFONT
100
AcDbText
  0
TEXT
  5
B24
330
1A
100
AcDbEntity
  8
0
  6
Continuous
 62
     7
100
AcDbText
 10
361.2500000000002
 20
-688.9999999999998
 30
0.0
 40
12.5
  1
Ｒ
 41
0.833
  7
BIGFONT
100
AcDbText
  0
TEXT
  5
B25
330
1A
100
AcDbEntity
  8
0
  6
Continuous
 62
     7
100
AcDbText
 10
371.5000000000002
 20
-688.9999999999998
 30
0.0
 40
12.5
  1
ｅ
 41
0.833
  7
BIGFONT
100
AcDbText
  0
TEXT
  5
B26
330
1A
100
AcDbEntity
  8
0
  6
Continuous
 62
     7
100
AcDbText
 10
379.0000000000002
 20
-688.9999999999998
 30
0.0
 40
12.5
  1
ｖ
 41
0.833
  7
BIGFONT
100
AcDbText
  0
TEXT
  5
B27
330
1A
100
AcDbEntity
  8
0
  6
Continuous
 62
     7
100
AcDbText
 10
388.2500000000002
 20
-688.9999999999998
 30
0.0
 40
12.5
  1
ｉ
 41
0.833
  7
BIGFONT
100
AcDbText
  0
TEXT
  5
B28
330
1A
100
AcDbEntity
  8
0
  6
Continuous
 62
     7
100
AcDbText
 10
396.0000000000001
 20
-688.9999999999998
 30
0.0
 40
12.5
  1
ｓ
 41
0.833
  7
BIGFONT
100
AcDbText
  0
TEXT
  5
B29
330
1A
100
AcDbEntity
  8
0
  6
Continuous
 62
     7
100
AcDbText
 10
402.7500000000001
 20
-688.9999999999998
 30
0.0
 40
12.5
  1
ｉ
 41
0.833
  7
BIGFONT
100
AcDbText
  0
TEXT
  5
B2A
330
1A
100
AcDbEntity
  8
0
  6
Continuous
 62
     7
100
AcDbText
 10
410.2500000000001
 20
-688.9999999999998
 30
0.0
 40
12.5
  1
ｏ
 41
0.833
  7
BIGFONT
100
AcDbText
  0
TEXT
  5
B2B
330
1A
100
AcDbEntity
  8
0
  6
Continuous
 62
     7
100
AcDbText
 10
418.75
 20
-688.9999999999998
 30
0.0
 40
12.5
  1
ｎ
 41
0.833
  7
BIGFONT
100
AcDbText
  0
LINE
  5
B2C
330
1A
100
AcDbEntity
  8
0
 62
     3
100
AcDbLine
 10
-329.9999999999997
 20
-599.9999999999999
 30
0.0
 11
-179.9999999999998
 21
-599.9999999999999
 31
0.0
  0
TEXT
  5
B2D
330
1A
100
AcDbEntity
  8
0
  6
Continuous
 62
     7
100
AcDbText
 10
-413.7499999999998
 20
-595.2843884034495
 30
0.0
 40
15.0
  1
製    図
 41
0.833
  7
BIGFONT
100
AcDbText
  0
TEXT
  5
B2E
330
1A
100
AcDbEntity
  8
0
  6
Continuous
 62
     7
100
AcDbText
 10
-405.9999999999998
 20
-618.0037515529201
 30
0.0
 40
12.5
  1
Ｄ
 41
0.833
  7
BIGFONT
100
AcDbText
  0
TEXT
  5
B2F
330
1A
100
AcDbEntity
  8
0
  6
Continuous
 62
     7
100
AcDbText
 10
-397.2499999999998
 20
-618.0037515529201
 30
0.0
 40
12.5
  1
ｒ
 41
0.833
  7
BIGFONT
100
AcDbText
  0
TEXT
  5
B30
330
1A
100
AcDbEntity
  8
0
  6
Continuous
 62
     7
100
AcDbText
 10
-390.4999999999997
 20
-618.0037515529201
 30
0.0
 40
12.5
  1
ａ
 41
0.833
  7
BIGFONT
100
AcDbText
  0
TEXT
  5
B31
330
1A
100
AcDbEntity
  8
0
  6
Continuous
 62
     7
100
AcDbText
 10
-381.9999999999998
 20
-618.0037515529201
 30
0.0
 40
12.5
  1
ｗ
 41
0.833
  7
BIGFONT
100
AcDbText
  0
TEXT
  5
B32
330
1A
100
AcDbEntity
  8
0
  6
Continuous
 62
     7
100
AcDbText
 10
-372.4999999999998
 20
-618.0037515529201
 30
0.0
 40
12.5
  1
ｎ
 41
0.833
  7
BIGFONT
100
AcDbText
  0
LINE
  5
B33
330
1A
100
AcDbEntity
  8
0
 62
     3
100
AcDbLine
 10
100.0000000000001
 20
-629.9999999999998
 30
0.0
 11
100.0000000000001
 21
-569.9999999999999
 31
0.0
  0
TEXT
  5
B34
330
1A
100
AcDbEntity
  8
0
  6
Continuous
 62
     7
100
AcDbText
 10
20.00000000000017
 20
-593.4999999999997
 30
0.0
 40
15.0
  1
図    名
 41
0.833
  7
BIGFONT
100
AcDbText
  0
INSERT
  5
B35
330
1A
100
AcDbEntity
  8
0
100
AcDbBlockReference
  2
株式会社ＫＶＫ
 10
-218.7499999999999
 20
-661.2499999999998
 30
0.0
 41
5.0
 42
5.0
 43
5.0
  0
POINT
  5
B36
330
1A
100
AcDbEntity
  8
DEFPOINTS
100
AcDbPoint
 10
-322.4999999999997
 20
-592.4999999999999
 30
0.0
  0
POINT
  5
B37
330
1A
100
AcDbEntity
  8
DEFPOINTS
100
AcDbPoint
 10
-322.4999999999997
 20
-622.5
 30
0.0
  0
POINT
  5
B38
330
1A
100
AcDbEntity
  8
DEFPOINTS
100
AcDbPoint
 10
125.0000000000001
 20
-562.5
 30
0.0
  0
POINT
  5
B39
330
1A
100
AcDbEntity
  8
DEFPOINTS
100
AcDbPoint
 10
125.0000000000003
 20
-620.0
 30
0.0
  0
POINT
  5
B3A
330
1A
100
AcDbEntity
  8
DEFPOINTS
100
AcDbPoint
 10
125.0000000000003
 20
-678.75
 30
0.0
  0
POINT
  5
B3B
330
1A
100
AcDbEntity
  8
DEFPOINTS
100
AcDbPoint
 10
365.0000000000003
 20
-671.25
 30
0.0
  0
TEXT
  5
CD7
330
1A
100
AcDbEntity
  8
BALN
100
AcDbText
 10
-322.5
 20
-592.5000000000001
 30
0.0
 40
15.0
  1
’２１．０１．２７
 41
0.833
  7
BIGFONT
100
AcDbText
  0
TEXT
  5
CD9
330
1A
100
AcDbEntity
  8
BALN
100
AcDbText
 10
365.0000000000001
 20
-671.2500000000001
 30
0.0
 40
30.0
  1
ＷＡ
 41
0.833
  7
BIGFONT
100
AcDbText
  0
TEXT
  5
CDA
330
1A
100
AcDbEntity
  8
BALN
100
AcDbText
 10
125.0
 20
-678.7500000000001
 30
0.0
 40
37.5
  1
４２２５７５
 41
0.833
  7
BIGFONT
100
AcDbText
  0
INSERT
  5
CDB
330
1A
100
AcDbEntity
  8
BALN
 62
     2
100
AcDbBlockReference
  2
S36
 10
-89.99999999999984
 20
-629.9999999999998
 30
0.0
  0
CIRCLE
  5
CE2
330
1A
100
AcDbEntity
  8
GAIKEI
100
AcDbCircle
 10
0.0
 20
175.0
 30
0.0
 40
160.0
  0
CIRCLE
  5
CE3
330
1A
100
AcDbEntity
  8
GAIKEI
100
AcDbCircle
 10
0.0
 20
175.000000000007
 30
0.0
 40
20.5
  0
CIRCLE
  5
CE4
330
1A
100
AcDbEntity
  8
GAIKEI
100
AcDbCircle
 10
0.0
 20
175.0
 30
0.0
 40
25.5
  0
LINE
  5
CE5
330
1A
100
AcDbEntity
  8
GAIKEI
100
AcDbLine
 10
156.9999994193536
 20
-92.38348233453804
 30
0.0
 11
-157.0000000000051
 21
-92.38348233453804
 31
0.0
  0
ARC
  5
CE6
330
1A
100
AcDbEntity
  8
GAIKEI
100
AcDbCircle
 10
-4.555583478529229
 20
-128.150805051985
 30
0.0
 40
130.0
100
AcDbArc
 50
298.7391538973161
 51
313.542236005941
  0
ARC
  5
CE7
330
1A
100
AcDbEntity
  8
GAIKEI
100
AcDbCircle
 10
-92.05830888343356
 20
-31.98822174390944
 30
0.0
 40
260.0
100
AcDbArc
 50
312.9213271663766
 51
345.7192066719985
  0
ARC
  5
CE8
330
1A
100
AcDbEntity
  8
GAIKEI
100
AcDbCircle
 10
156.9999994193536
 20
-95.38348233453803
 30
0.0
 40
3.0
100
AcDbArc
 50
345.7192066719985
 51
90.0
  0
LINE
  5
CE9
330
1A
100
AcDbEntity
  8
GAIKEI
100
AcDbLine
 10
56.98973437742276
 20
-242.3834823345385
 30
0.0
 11
-56.98973437743314
 21
-242.3834823345385
 31
0.0
  0
ARC
  5
CEA
330
1A
100
AcDbEntity
  8
GAIKEI
100
AcDbCircle
 10
4.555583478518883
 20
-128.150805051985
 30
0.0
 40
130.0
100
AcDbArc
 50
226.457763994059
 51
241.2608461026839
  0
ARC
  5
CEB
330
1A
100
AcDbEntity
  8
GAIKEI
100
AcDbCircle
 10
-56.98973437743314
 20
-240.3834823345385
 30
0.0
 40
2.0
100
AcDbArc
 50
241.2608461026839
 51
270.0
  0
ARC
  5
CEC
330
1A
100
AcDbEntity
  8
GAIKEI
100
AcDbCircle
 10
-157.0000000000051
 20
-95.38348233453803
 30
0.0
 40
3.0
100
AcDbArc
 50
90.0
 51
194.2454965214593
  0
ARC
  5
CED
330
1A
100
AcDbEntity
  8
GAIKEI
100
AcDbCircle
 10
92.05830888342333
 20
-31.98822174390944
 30
0.0
 40
260.0
100
AcDbArc
 50
194.2803860256182
 51
227.0786728336234
  0
CIRCLE
  5
CEE
330
1A
100
AcDbEntity
  8
GAIKEI
100
AcDbCircle
 10
0.0
 20
175.000000000007
 30
0.0
 40
31.5
  0
CIRCLE
  5
CEF
330
1A
100
AcDbEntity
  8
GAIKEI
100
AcDbCircle
 10
0.0
 20
175.000000000007
 30
0.0
 40
148.0454561170065
  0
LINE
  5
CF0
330
1A
100
AcDbEntity
  8
BALN
  6
CENTER
 62
     3
100
AcDbLine
 10
-175.0
 20
175.0
 30
0.0
 11
175.0
 21
175.0
 31
0.0
  0
LINE
  5
CF1
330
1A
100
AcDbEntity
  8
BALN
  6
CENTER
 62
     3
100
AcDbLine
 10
0.0
 20
350.0
 30
0.0
 11
0.0
 21
0.0
 31
0.0
  0
LINE
  5
CF2
330
1A
100
AcDbEntity
  8
BALN
  6
CENTER
 62
     3
100
AcDbLine
 10
-0.0000000000048885
 20
-77.38348233453803
 30
0.0
 11
-0.0000000000051159
 21
-257.3834823345385
 31
0.0
  0
DIMENSION
  5
CF3
330
1A
100
AcDbEntity
  8
BALN
 62
     4
100
AcDbDimension
280
     0
  2
*D7
 10
253.2548859327301
 20
15.00000000000005
 30
0.0
 11
253.2548859327301
 21
175.0
 31
0.0
 70
   160
  1
（%%c<>）
 71
     5
 42
320.0000000000001
 73
     0
 74
     0
 75
     0
  3
ITM
100
AcDbAlignedDimension
 13
0.0
 23
335.0
 33
0.0
 14
0.0
 24
15.0
 34
0.0
 50
90.0
100
AcDbRotatedDimension
1001
ACAD
1000
DSTYLE
1002
{
1070
   179
1070
     8
1070
   271
1070
     8
1002
}
  0
DIMENSION
  5
CF4
330
1A
100
AcDbEntity
  8
BALN
 62
     4
100
AcDbDimension
280
     0
  2
*D8
 10
-12.04778763682923
 20
191.5861633013212
 30
0.0
 11
39.33915752749696
 21
138.7082173036887
 31
0.0
 70
    35
 71
     5
 42
41.00000000000005
 73
     0
 74
     0
 75
     0
  3
ITM
100
AcDbDiametricDimension
 15
12.04778763682917
 25
158.4138366986925
 35
0.0
 40
0.0
1001
ACAD
1000
DSTYLE
1002
{
1070
   179
1070
     8
1070
   271
1070
     8
1002
}
1001
ACAD_DSTYLE_DIMRADIAL_EXTENSION
1070
   387
1070
     1
1070
   388
1040
0.0
1070
   390
1040
0.0
  0
DIMENSION
  5
CF5
330
1A
100
AcDbEntity
  8
BALN
 62
     4
100
AcDbDimension
280
     0
  2
*D9
 10
237.3418224501893
 20
-242.3834823345387
 30
0.0
 11
237.3418224501893
 21
-167.3834823345382
 31
0.0
 70
   160
  1
（<>）
 71
     5
 42
150.0000000000006
 73
     0
 74
     0
 75
     0
  3
ITM
100
AcDbAlignedDimension
 13
156.9999994193536
 23
-92.38348233453804
 33
0.0
 14
57.49999999999508
 24
-242.3834823345386
 34
0.0
 50
90.0
100
AcDbRotatedDimension
1001
ACAD
1000
DSTYLE
1002
{
1070
   179
1070
     8
1070
   271
1070
     8
1002
}
  0
DIMENSION
  5
CF6
330
1A
100
AcDbEntity
  8
BALN
 62
     4
100
AcDbDimension
280
     0
  2
*D10
 10
57.49999999999507
 20
-309.410481145808
 30
0.0
 11
-0.0000000000048885
 21
-309.410481145808
 31
0.0
 70
   160
  1
（%%c<>）
 71
     5
 42
114.9999999999999
 73
     0
 74
     0
 75
     0
  3
ITM
100
AcDbAlignedDimension
 13
-57.50000000000489
 23
-242.3834823345385
 33
0.0
 14
57.49999999999508
 24
-242.3834823345386
 34
0.0
100
AcDbRotatedDimension
1001
ACAD
1000
DSTYLE
1002
{
1070
   179
1070
     8
1070
   271
1070
     8
1002
}
  0
ARC
  5
CF7
330
1A
100
AcDbEntity
  8
GAIKEI
100
AcDbCircle
 10
56.98973437742276
 20
-240.3834823345381
 30
0.0
 40
2.0
100
AcDbArc
 50
270.0
 51
298.7391538973161
  0
LINE
  5
CF8
330
1A
100
AcDbEntity
  8
BALN
 62
     4
100
AcDbLine
 10
56.98973437742276
 20
-242.3834823345385
 30
0.0
 11
57.49999999999508
 21
-242.3834823345386
 31
0.0
  0
LINE
  5
CF9
330
1A
100
AcDbEntity
  8
BALN
 62
     4
100
AcDbLine
 10
57.49999999999508
 20
-242.3834823345386
 30
0.0
 11
57.95137996892444
 21
-242.1371179170772
 31
0.0
  0
LINE
  5
CFA
330
1A
100
AcDbEntity
  8
BALN
 62
     4
100
AcDbLine
 10
-56.98973437743314
 20
-242.3834823345385
 30
0.0
 11
-57.50000000000489
 21
-242.3834823345385
 31
0.0
  0
LINE
  5
CFB
330
1A
100
AcDbEntity
  8
BALN
 62
     4
100
AcDbLine
 10
-57.50000000000489
 20
-242.3834823345385
 30
0.0
 11
-57.95137996893484
 21
-242.1371179170772
 31
0.0
  0
TEXT
  5
D2E
330
1A
100
AcDbEntity
  8
BALN
 62
     7
100
AcDbText
 10
125.0000000000001
 20
-562.5
 30
0.0
 40
15.0
  1
ＫＶ５２ＨＲ（ＫＶ８２ＨＲ）
 41
0.833
  7
BIGFONT
100
AcDbText
  0
TEXT
  5
E72
330
1A
100
AcDbEntity
  8
BALN
 62
     7
100
AcDbText
 10
125.0000000000003
 20
-620.0
 30
0.0
 40
30.0
  1
美術工芸手洗鉢
 41
0.833
  7
BIGFONT
100
AcDbText
  0
VIEWPORT
  5
22
330
17
100
AcDbEntity
 67
     1
  8
0
100
AcDbViewport
 10
261.5176990000001
 20
148.5
 30
0.0
 40
523.0353980000001
 41
297.0
 68
     1
 69
     1
 12
261.5176990000001
 22
148.5
 13
0.0
 23
0.0
 14
1.0
 24
1.0
 15
10.0
 25
10.0
 16
0.0
 26
0.0
 36
1.0
 17
0.0
 27
0.0
 37
0.0
 42
50.0
 43
0.0
 44
0.0
 45
297.0
 50
0.0
 51
0.0
 72
   100
 90
    32800
  1

281
     0
 71
     1
 74
     0
110
0.0
120
0.0
130
0.0
111
1.0
121
0.0
131
0.0
112
0.0
122
1.0
132
0.0
 79
     0
146
0.0
170
     0
 61
     5
348
57B
292
     1
282
     1
141
0.0
142
0.0
 63
   250
421
  3355443
  0
ENDSEC
  0
SECTION
  2
OBJECTS
  0
DICTIONARY
  5
C
330
0
100
AcDbDictionary
281
     1
  3
ACAD_CIP_PREVIOUS_PRODUCT_INFO
350
602
  3
ACAD_COLOR
350
4F4
  3
ACAD_DETAILVIEWSTYLE
350
5F8
  3
ACAD_GROUP
350
D
  3
ACAD_LAYOUT
350
4BC
  3
ACAD_MATERIAL
350
4F3
  3
ACAD_MLEADERSTYLE
350
5A8
  3
ACAD_MLINESTYLE
350
E
  3
ACAD_PLOTSETTINGS
350
4BD
  3
ACAD_PLOTSTYLENAME
350
4BA
  3
ACAD_SCALELIST
350
586
  3
ACAD_SECTIONVIEWSTYLE
350
5F6
  3
ACAD_TABLESTYLE
350
4F5
  3
ACAD_VISUALSTYLE
350
575
  3
ACDB_RECOMPOSE_DATA
350
FC1
  3
AcDbVariableDictionary
350
4FD
  3
ASE_INDEX_DICTIONARY
350
972
  0
DICTIONARY
  5
60C
330
2
100
AcDbDictionary
280
     1
281
     1
  3
ACAD_LAYERSTATES
360
60D
  0
DICTIONARY
  5
5D5
330
F
100
AcDbDictionary
280
     1
281
     1
  3
ADSK_XREC_LAYER_RECONCILED
360
DC9
  0
DICTIONARY
  5
5D7
330
44C
100
AcDbDictionary
280
     1
281
     1
  3
ADSK_XREC_LAYER_RECONCILED
360
DCA
  0
DICTIONARY
  5
C38
330
C37
100
AcDbDictionary
280
     1
281
     1
  3
ADSK_XREC_LAYER_RECONCILED
360
DCB
  0
DICTIONARY
  5
C3A
330
C39
100
AcDbDictionary
280
     1
281
     1
  3
ADSK_XREC_LAYER_RECONCILED
360
DCC
  0
DICTIONARY
  5
EDC
330
EDB
100
AcDbDictionary
280
     1
281
     1
  0
DICTIONARY
  5
EDE
330
EDD
100
AcDbDictionary
280
     1
281
     1
  0
DICTIONARY
  5
EE0
330
EDF
100
AcDbDictionary
280
     1
281
     1
  0
DICTIONARY
  5
EE2
330
EE1
100
AcDbDictionary
280
     1
281
     1
  0
DICTIONARY
  5
768
330
1A
100
AcDbDictionary
280
     1
281
     1
  3
ACAD_SORTENTS
360
769
  0
DICTIONARY
  5
F56
330
EE4
100
AcDbDictionary
280
     1
281
     1
  3
ACAD_SORTENTS
360
F57
  0
XRECORD
  5
602
102
{ACAD_REACTORS
330
C
102
}
330
C
100
AcDbXrecord
280
     1
300
ACD
300
2019
300
87084ACD_2019_0F
  0
DICTIONARY
  5
4F4
102
{ACAD_REACTORS
330
C
102
}
330
C
100
AcDbDictionary
281
     1
  0
DICTIONARY
  5
5F8
102
{ACAD_REACTORS
330
C
102
}
330
C
100
AcDbDictionary
281
     1
  3
Imperial24
350
968
  3
Metric50
350
5F9
  0
DICTIONARY
  5
D
102
{ACAD_REACTORS
330
C
102
}
330
C
100
AcDbDictionary
281
     1
  0
DICTIONARY
  5
4BC
102
{ACAD_REACTORS
330
C
102
}
330
C
100
AcDbDictionary
281
     1
  3
Model
350
4BE
  3
ﾚｲｱｳﾄ1
350
4BF
  0
DICTIONARY
  5
4F3
102
{ACAD_REACTORS
330
C
102
}
330
C
100
AcDbDictionary
281
     1
  3
ByBlock
350
565
  3
ByLayer
350
55D
  3
Global
350
56D
  0
DICTIONARY
  5
5A8
102
{ACAD_REACTORS
330
C
102
}
330
C
100
AcDbDictionary
281
     1
  3
Standard
350
5A9
  0
DICTIONARY
  5
E
102
{ACAD_REACTORS
330
C
102
}
330
C
100
AcDbDictionary
281
     1
  3
STANDARD
350
13
  0
DICTIONARY
  5
4BD
102
{ACAD_REACTORS
330
C
102
}
330
C
100
AcDbDictionary
281
     1
  0
ACDBDICTIONARYWDFLT
  5
4BA
102
{ACAD_REACTORS
330
C
102
}
330
C
100
AcDbDictionary
281
     1
  3
Normal
350
4BB
100
AcDbDictionaryWithDefault
340
4BB
  0
DICTIONARY
  5
586
102
{ACAD_REACTORS
330
C
102
}
330
C
100
AcDbDictionary
281
     1
  3
A0
350
587
  3
A1
350
588
  3
A2
350
589
  3
A3
350
58A
  3
A4
350
58B
  3
A5
350
58C
  3
A6
350
58D
  3
A7
350
58E
  3
A8
350
58F
  3
A9
350
590
  3
B0
350
591
  3
B1
350
592
  3
B2
350
593
  3
B3
350
594
  3
B4
350
595
  3
B5
350
596
  3
B6
350
597
  3
B7
350
598
  3
B8
350
599
  3
B9
350
59A
  3
C0
350
59B
  3
C1
350
59C
  3
C2
350
59D
  3
C3
350
59E
  3
C4
350
59F
  3
C5
350
5A0
  3
C6
350
5A1
  3
C7
350
5A2
  3
C8
350
5A3
  3
C9
350
5A4
  3
D0
350
5A5
  3
D1
350
5A6
  3
D2
350
5A7
  0
DICTIONARY
  5
5F6
102
{ACAD_REACTORS
330
C
102
}
330
C
100
AcDbDictionary
281
     1
  3
Imperial24
350
967
  3
Metric50
350
5F7
  0
DICTIONARY
  5
4F5
102
{ACAD_REACTORS
330
C
102
}
330
C
100
AcDbDictionary
281
     1
  3
Standard
350
4F6
  0
DICTIONARY
  5
575
102
{ACAD_REACTORS
330
C
102
}
330
C
100
AcDbDictionary
281
     1
  3
2dWireframe
350
57B
  3
3D Hidden
350
57D
  3
3dWireframe
350
57C
  3
Basic
350
57A
  3
Brighten
350
581
  3
ColorChange
350
585
  3
Conceptual
350
57E
  3
Dim
350
580
  3
EdgeColorOff
350
5F5
  3
Facepattern
350
584
  3
Flat
350
576
  3
FlatWithEdges
350
577
  3
Gouraud
350
578
  3
GouraudWithEdges
350
579
  3
Hidden
350
5ED
  3
JitterOff
350
5F3
  3
Linepattern
350
583
  3
OverhangOff
350
5F4
  3
Realistic
350
57F
  3
Shaded
350
5F2
  3
Shaded with edges
350
5F1
  3
Shades of Gray
350
5EE
  3
Sketchy
350
5EF
  3
Thicken
350
582
  3
Wireframe
350
5EC
  3
X-Ray
350
5F0
  0
XRECORD
  5
FC1
102
{ACAD_REACTORS
330
C
102
}
330
C
100
AcDbXrecord
280
     1
 90
        1
330
4F6
  0
DICTIONARY
  5
4FD
102
{ACAD_REACTORS
330
C
102
}
330
C
100
AcDbDictionary
281
     1
  3
CANNOSCALE
350
5CA
  3
CMLEADERSTYLE
350
5C8
  3
CTABLESTYLE
350
4FE
  3
CVIEWDETAILSTYLE
350
618
  3
CVIEWSECTIONSTYLE
350
619
  3
LAYEREVAL
350
61A
  3
LAYERNOTIFY
350
61B
  3
LIGHTINGUNITS
350
5CB
  3
MSLTSCALE
350
5C9
  0
DICTIONARY
  5
972
102
{ACAD_REACTORS
330
C
102
}
330
C
100
AcDbDictionary
281
     1
  3
ASEBlockHierarchyIndexRecord
350
973
1001
DCO15
1040
1844747841.292
  0
DICTIONARY
  5
60D
102
{ACAD_REACTORS
330
60C
102
}
330
60C
100
AcDbDictionary
281
     1
  0
XRECORD
  5
DC9
102
{ACAD_REACTORS
330
5D5
102
}
330
5D5
100
AcDbXrecord
280
     1
290
     1
  0
XRECORD
  5
DCA
102
{ACAD_REACTORS
330
5D7
102
}
330
5D7
100
AcDbXrecord
280
     1
290
     1
  0
XRECORD
  5
DCB
102
{ACAD_REACTORS
330
C38
102
}
330
C38
100
AcDbXrecord
280
     1
290
     1
  0
XRECORD
  5
DCC
102
{ACAD_REACTORS
330
C3A
102
}
330
C3A
100
AcDbXrecord
280
     1
290
     1
  0
SORTENTSTABLE
  5
769
102
{ACAD_REACTORS
330
768
102
}
330
768
100
AcDbSortentsTable
330
1A
  0
SORTENTSTABLE
  5
F57
102
{ACAD_REACTORS
330
F56
102
}
330
F56
100
AcDbSortentsTable
330
EE4
  0
ACDBDETAILVIEWSTYLE
  5
968
102
{ACAD_REACTORS
330
5F8
102
}
330
5F8
100
AcDbModelDocViewStyle
 70
     0
  3
Imperial24
290
     0
300
Imperial24
 90
        0
100
AcDbDetailViewStyle
 70
     0
 71
     0
 90
        3
 71
     1
340
10
 62
   256
 40
0.24
340
0
 62
   256
 40
0.24
300

 40
0.36
280
     3
 71
     2
340
16
 90
       25
 62
   256
 71
     3
340
10
 62
   256
 40
0.24
 90
        1
 40
0.75
 90
        1
300
%<\AcVar ViewType \f "%tc1">% %<\AcVar ViewDetailId>%\PSCALE %<\AcVar ViewScale \f "%sn">%
 71
     4
340
16
 90
       25
 62
   256
340
16
 90
       25
 62
   256
280
     0
  0
ACDBDETAILVIEWSTYLE
  5
5F9
102
{ACAD_REACTORS
330
5F8
102
}
330
5F8
100
AcDbModelDocViewStyle
 70
     0
  3
Metric50
290
     0
300
Metric50
 90
        0
100
AcDbDetailViewStyle
 70
     0
 71
     0
 90
        3
 71
     1
340
10
 62
   256
 40
5.0
340
0
 62
   256
 40
5.0
300

 40
0.0
280
     1
 71
     2
340
16
 90
       25
 62
   256
 71
     3
340
10
 62
   256
 40
5.0
 90
        0
 40
15.0
 90
        1
300
%<\AcVar ViewDetailId>% (%<\AcVar ViewScale \f "%sn">%)
 71
     4
340
16
 90
       25
 62
   256
340
16
 90
       25
 62
   256
280
     0
  0
LAYOUT
  5
4BE
102
{ACAD_XDICTIONARY
360
B48
102
}
102
{ACAD_REACTORS
330
4BC
102
}
330
4BC
100
AcDbPlotSettings
  1

  2
none_device
  4
none_user_media
  6

 40
0.7937499880790711
 41
0.7937499880790711
 42
0.79376220703125
 43
0.7937469482421875
 44
297.0
 45
210.0
 46
0.0
 47
0.0
 48
0.0
 49
0.0
140
0.0
141
0.0
142
1.0
143
5.0
 70
 11936
 72
     1
 73
     1
 74
     1
  7
monochrome.ctb
 75
     0
147
0.2
 76
     0
 77
     2
 78
   300
148
562.0812315951125
149
742.0679574614251
100
AcDbLayout
  1
Model
 70
     1
 71
     0
 10
0.0
 20
0.0
 11
12.0
 21
9.0
 12
0.0
 22
0.0
 32
0.0
 14
0.0
 24
0.0
 34
0.0
 15
0.0
 25
0.0
 35
0.0
146
0.0
 13
0.0
 23
0.0
 33
0.0
 16
1.0
 26
0.0
 36
0.0
 17
0.0
 27
1.0
 37
0.0
 76
     0
330
1A
331
55B
1001
ACAD_PSEXT
1000
なし
1000
なし
1000
適切ではありません
1000
新しいプロッタ環境設定名を選択しない限り、レイアウトは印刷されません。
1070
     0
  0
LAYOUT
  5
4BF
102
{ACAD_REACTORS
330
4BC
102
}
330
4BC
100
AcDbPlotSettings
  1

  2
C:\PROGRAM FILES\AUTOCAD 2000I\plotters\DocuWide2050.pc3
  4

  6

 40
0.0
 41
0.0
 42
0.0
 43
0.0
 44
0.0
 45
0.0
 46
0.0
 47
0.0
 48
0.0
 49
0.0
140
0.0
141
0.0
142
1.0
143
1.0
 70
   688
 72
     0
 73
     0
 74
     5
  7
monochrome.ctb
 75
    16
147
1.0
 76
     0
 77
     2
 78
   300
148
0.0
149
0.0
100
AcDbLayout
  1
ﾚｲｱｳﾄ1
 70
     1
 71
     1
 10
0.0
 20
0.0
 11
420.0
 21
297.0
 12
0.0
 22
0.0
 32
0.0
 14
1.000000000000000E+20
 24
1.000000000000000E+20
 34
1.000000000000000E+20
 15
-1.000000000000000E+20
 25
-1.000000000000000E+20
 35
-1.000000000000000E+20
146
0.0
 13
0.0
 23
0.0
 33
0.0
 16
1.0
 26
0.0
 36
0.0
 17
0.0
 27
1.0
 37
0.0
 76
     0
330
17
331
22
  0
MATERIAL
  5
565
102
{ACAD_XDICTIONARY
360
566
102
}
102
{ACAD_REACTORS
330
4F3
102
}
330
4F3
100
AcDbMaterial
  1
ByBlock
 72
     0
 43
0.0208333333333333
 43
0.0
 43
0.0
 43
0.0
 43
0.0
 43
0.0208333333333333
 43
0.0
 43
0.0
 43
0.0
 43
0.0
 43
1.0
 43
0.0
 43
0.0
 43
0.0
 43
0.0
 43
1.0
 77
     0
 47
0.0208333333333333
 47
0.0
 47
0.0
 47
0.0
 47
0.0
 47
0.0208333333333333
 47
0.0
 47
0.0
 47
0.0
 47
0.0
 47
1.0
 47
0.0
 47
0.0
 47
0.0
 47
0.0
 47
1.0
171
     0
 49
0.0208333333333333
 49
0.0
 49
0.0
 49
0.0
 49
0.0
 49
0.0208333333333333
 49
0.0
 49
0.0
 49
0.0
 49
0.0
 49
1.0
 49
0.0
 49
0.0
 49
0.0
 49
0.0
 49
1.0
175
     0
142
0.0208333333333333
142
0.0
142
0.0
142
0.0
142
0.0
142
0.0208333333333333
142
0.0
142
0.0
142
0.0
142
0.0
142
1.0
142
0.0
142
0.0
142
0.0
142
0.0
142
1.0
179
     0
144
0.0208333333333333
144
0.0
144
0.0
144
0.0
144
0.0
144
0.0208333333333333
144
0.0
144
0.0
144
0.0
144
0.0
144
1.0
144
0.0
144
0.0
144
0.0
144
0.0
144
1.0
147
0.0208333333333333
147
0.0
147
0.0
147
0.0
147
0.0
147
0.0208333333333333
147
0.0
147
0.0
147
0.0
147
0.0
147
1.0
147
0.0
147
0.0
147
0.0
147
0.0
147
1.0
  0
MATERIAL
  5
55D
102
{ACAD_XDICTIONARY
360
55E
102
}
102
{ACAD_REACTORS
330
4F3
102
}
330
4F3
100
AcDbMaterial
  1
ByLayer
 72
     0
 43
0.0208333333333333
 43
0.0
 43
0.0
 43
0.0
 43
0.0
 43
0.0208333333333333
 43
0.0
 43
0.0
 43
0.0
 43
0.0
 43
1.0
 43
0.0
 43
0.0
 43
0.0
 43
0.0
 43
1.0
 77
     0
 47
0.0208333333333333
 47
0.0
 47
0.0
 47
0.0
 47
0.0
 47
0.0208333333333333
 47
0.0
 47
0.0
 47
0.0
 47
0.0
 47
1.0
 47
0.0
 47
0.0
 47
0.0
 47
0.0
 47
1.0
171
     0
 49
0.0208333333333333
 49
0.0
 49
0.0
 49
0.0
 49
0.0
 49
0.0208333333333333
 49
0.0
 49
0.0
 49
0.0
 49
0.0
 49
1.0
 49
0.0
 49
0.0
 49
0.0
 49
0.0
 49
1.0
175
     0
142
0.0208333333333333
142
0.0
142
0.0
142
0.0
142
0.0
142
0.0208333333333333
142
0.0
142
0.0
142
0.0
142
0.0
142
1.0
142
0.0
142
0.0
142
0.0
142
0.0
142
1.0
179
     0
144
0.0208333333333333
144
0.0
144
0.0
144
0.0
144
0.0
144
0.0208333333333333
144
0.0
144
0.0
144
0.0
144
0.0
144
1.0
144
0.0
144
0.0
144
0.0
144
0.0
144
1.0
147
0.0208333333333333
147
0.0
147
0.0
147
0.0
147
0.0
147
0.0208333333333333
147
0.0
147
0.0
147
0.0
147
0.0
147
1.0
147
0.0
147
0.0
147
0.0
147
0.0
147
1.0
  0
MATERIAL
  5
56D
102
{ACAD_XDICTIONARY
360
56E
102
}
102
{ACAD_REACTORS
330
4F3
102
}
330
4F3
100
AcDbMaterial
  1
Global
 72
     0
 43
0.0208333333333333
 43
0.0
 43
0.0
 43
0.0
 43
0.0
 43
0.0208333333333333
 43
0.0
 43
0.0
 43
0.0
 43
0.0
 43
1.0
 43
0.0
 43
0.0
 43
0.0
 43
0.0
 43
1.0
 77
     0
 47
0.0208333333333333
 47
0.0
 47
0.0
 47
0.0
 47
0.0
 47
0.0208333333333333
 47
0.0
 47
0.0
 47
0.0
 47
0.0
 47
1.0
 47
0.0
 47
0.0
 47
0.0
 47
0.0
 47
1.0
171
     0
 49
0.0208333333333333
 49
0.0
 49
0.0
 49
0.0
 49
0.0
 49
0.0208333333333333
 49
0.0
 49
0.0
 49
0.0
 49
0.0
 49
1.0
 49
0.0
 49
0.0
 49
0.0
 49
0.0
 49
1.0
175
     0
142
0.0208333333333333
142
0.0
142
0.0
142
0.0
142
0.0
142
0.0208333333333333
142
0.0
142
0.0
142
0.0
142
0.0
142
1.0
142
0.0
142
0.0
142
0.0
142
0.0
142
1.0
179
     0
144
0.0208333333333333
144
0.0
144
0.0
144
0.0
144
0.0
144
0.0208333333333333
144
0.0
144
0.0
144
0.0
144
0.0
144
1.0
144
0.0
144
0.0
144
0.0
144
0.0
144
1.0
147
0.0208333333333333
147
0.0
147
0.0
147
0.0
147
0.0
147
0.0208333333333333
147
0.0
147
0.0
147
0.0
147
0.0
147
1.0
147
0.0
147
0.0
147
0.0
147
0.0
147
1.0
  0
MLEADERSTYLE
  5
5A9
102
{ACAD_REACTORS
330
5A8
102
}
330
5A8
100
AcDbMLeaderStyle
179
     2
170
     2
171
     1
172
     0
 90
        2
 40
0.0
 41
0.0
173
     1
 91
-1056964608
340
14
 92
       -2
290
     1
 42
2.0
291
     1
 43
0.36
  3
Standard
 44
4.0
300

342
10
174
     1
178
     6
175
     1
176
     0
 93
-1056964608
 45
4.0
292
     0
297
     0
 46
4.0
 94
-1056964608
 47
1.0
 49
1.0
140
1.0
293
     1
141
0.0
294
     1
177
     0
142
1.0
295
     0
296
     0
143
0.125
271
     0
272
     9
273
     9
298
     0
  0
MLINESTYLE
  5
13
102
{ACAD_REACTORS
330
E
102
}
330
E
100
AcDbMlineStyle
  2
STANDARD
 70
     0
  3

 62
     0
 51
90.0
 52
90.0
 71
     2
 49
0.5
 62
   256
  6
BYLAYER
 49
-0.5
 62
   256
  6
BYLAYER
  0
ACDBPLACEHOLDER
  5
4BB
102
{ACAD_REACTORS
330
4BA
102
}
330
4BA
  0
SCALE
  5
587
102
{ACAD_REACTORS
330
586
102
}
330
586
100
AcDbScale
 70
     0
300
1:1
140
1.0
141
1.0
290
     1
  0
SCALE
  5
588
102
{ACAD_REACTORS
330
586
102
}
330
586
100
AcDbScale
 70
     0
300
1:2
140
1.0
141
2.0
290
     0
  0
SCALE
  5
589
102
{ACAD_REACTORS
330
586
102
}
330
586
100
AcDbScale
 70
     0
300
1:4
140
1.0
141
4.0
290
     0
  0
SCALE
  5
58A
102
{ACAD_REACTORS
330
586
102
}
330
586
100
AcDbScale
 70
     0
300
1:5
140
1.0
141
5.0
290
     0
  0
SCALE
  5
58B
102
{ACAD_REACTORS
330
586
102
}
330
586
100
AcDbScale
 70
     0
300
1:8
140
1.0
141
8.0
290
     0
  0
SCALE
  5
58C
102
{ACAD_REACTORS
330
586
102
}
330
586
100
AcDbScale
 70
     0
300
1:10
140
1.0
141
10.0
290
     0
  0
SCALE
  5
58D
102
{ACAD_REACTORS
330
586
102
}
330
586
100
AcDbScale
 70
     0
300
1:16
140
1.0
141
16.0
290
     0
  0
SCALE
  5
58E
102
{ACAD_REACTORS
330
586
102
}
330
586
100
AcDbScale
 70
     0
300
1:20
140
1.0
141
20.0
290
     0
  0
SCALE
  5
58F
102
{ACAD_REACTORS
330
586
102
}
330
586
100
AcDbScale
 70
     0
300
1:30
140
1.0
141
30.0
290
     0
  0
SCALE
  5
590
102
{ACAD_REACTORS
330
586
102
}
330
586
100
AcDbScale
 70
     0
300
1:40
140
1.0
141
40.0
290
     0
  0
SCALE
  5
591
102
{ACAD_REACTORS
330
586
102
}
330
586
100
AcDbScale
 70
     0
300
1:50
140
1.0
141
50.0
290
     0
  0
SCALE
  5
592
102
{ACAD_REACTORS
330
586
102
}
330
586
100
AcDbScale
 70
     0
300
1:100
140
1.0
141
100.0
290
     0
  0
SCALE
  5
593
102
{ACAD_REACTORS
330
586
102
}
330
586
100
AcDbScale
 70
     0
300
2:1
140
2.0
141
1.0
290
     0
  0
SCALE
  5
594
102
{ACAD_REACTORS
330
586
102
}
330
586
100
AcDbScale
 70
     0
300
4:1
140
4.0
141
1.0
290
     0
  0
SCALE
  5
595
102
{ACAD_REACTORS
330
586
102
}
330
586
100
AcDbScale
 70
     0
300
8:1
140
8.0
141
1.0
290
     0
  0
SCALE
  5
596
102
{ACAD_REACTORS
330
586
102
}
330
586
100
AcDbScale
 70
     0
300
10:1
140
10.0
141
1.0
290
     0
  0
SCALE
  5
597
102
{ACAD_REACTORS
330
586
102
}
330
586
100
AcDbScale
 70
     0
300
100:1
140
100.0
141
1.0
290
     0
  0
SCALE
  5
598
102
{ACAD_REACTORS
330
586
102
}
330
586
100
AcDbScale
 70
     0
300
1/128" = 1'-0"
140
0.0078125
141
12.0
290
     0
  0
SCALE
  5
599
102
{ACAD_REACTORS
330
586
102
}
330
586
100
AcDbScale
 70
     0
300
1/64" = 1'-0"
140
0.015625
141
12.0
290
     0
  0
SCALE
  5
59A
102
{ACAD_REACTORS
330
586
102
}
330
586
100
AcDbScale
 70
     0
300
1/32" = 1'-0"
140
0.03125
141
12.0
290
     0
  0
SCALE
  5
59B
102
{ACAD_REACTORS
330
586
102
}
330
586
100
AcDbScale
 70
     0
300
1/16" = 1'-0"
140
0.0625
141
12.0
290
     0
  0
SCALE
  5
59C
102
{ACAD_REACTORS
330
586
102
}
330
586
100
AcDbScale
 70
     0
300
3/32" = 1'-0"
140
0.09375
141
12.0
290
     0
  0
SCALE
  5
59D
102
{ACAD_REACTORS
330
586
102
}
330
586
100
AcDbScale
 70
     0
300
1/8" = 1'-0"
140
0.125
141
12.0
290
     0
  0
SCALE
  5
59E
102
{ACAD_REACTORS
330
586
102
}
330
586
100
AcDbScale
 70
     0
300
3/16" = 1'-0"
140
0.1875
141
12.0
290
     0
  0
SCALE
  5
59F
102
{ACAD_REACTORS
330
586
102
}
330
586
100
AcDbScale
 70
     0
300
1/4" = 1'-0"
140
0.25
141
12.0
290
     0
  0
SCALE
  5
5A0
102
{ACAD_REACTORS
330
586
102
}
330
586
100
AcDbScale
 70
     0
300
3/8" = 1'-0"
140
0.375
141
12.0
290
     0
  0
SCALE
  5
5A1
102
{ACAD_REACTORS
330
586
102
}
330
586
100
AcDbScale
 70
     0
300
1/2" = 1'-0"
140
0.5
141
12.0
290
     0
  0
SCALE
  5
5A2
102
{ACAD_REACTORS
330
586
102
}
330
586
100
AcDbScale
 70
     0
300
3/4" = 1'-0"
140
0.75
141
12.0
290
     0
  0
SCALE
  5
5A3
102
{ACAD_REACTORS
330
586
102
}
330
586
100
AcDbScale
 70
     0
300
1" = 1'-0"
140
1.0
141
12.0
290
     0
  0
SCALE
  5
5A4
102
{ACAD_REACTORS
330
586
102
}
330
586
100
AcDbScale
 70
     0
300
1-1/2" = 1'-0"
140
1.5
141
12.0
290
     0
  0
SCALE
  5
5A5
102
{ACAD_REACTORS
330
586
102
}
330
586
100
AcDbScale
 70
     0
300
3" = 1'-0"
140
3.0
141
12.0
290
     0
  0
SCALE
  5
5A6
102
{ACAD_REACTORS
330
586
102
}
330
586
100
AcDbScale
 70
     0
300
6" = 1'-0"
140
6.0
141
12.0
290
     0
  0
SCALE
  5
5A7
102
{ACAD_REACTORS
330
586
102
}
330
586
100
AcDbScale
 70
     0
300
1'-0" = 1'-0"
140
12.0
141
12.0
290
     0
  0
ACDBSECTIONVIEWSTYLE
  5
967
102
{ACAD_REACTORS
330
5F6
102
}
330
5F6
100
AcDbModelDocViewStyle
 70
     0
  3
Imperial24
290
     0
300
Imperial24
 90
        0
100
AcDbSectionViewStyle
 70
     0
 71
     0
 90
       78
 71
     1
340
10
 62
   256
 40
0.24
340
0
340
0
 62
   256
 40
0.24
300
I, O, Q, S, X, Z
 40
0.48
 90
        3
 40
0.18
 90
        1
 71
     2
340
16
 90
       25
 62
   256
340
16
 90
       50
 62
   256
 40
0.24
 40
0.0
 40
0.24
 71
     3
340
10
 62
   256
 40
0.24
 90
        1
 40
0.75
 90
        1
300
%<\AcVar ViewType \f "%tc1">% %<\AcVar ViewSectionStartId>%-%<\AcVar ViewSectionEndId>%\PSCALE %<\AcVar ViewScale \f "%sn">%
 71
     4
 62
   256
 62
   257
300
ANSI31
 40
1.0
 90
        0
290
     0
290
     0
 90
        6
 40
0.0
 40
1.570796326794896
 40
0.2617993877991494
 40
1.308996938995747
 40
-0.2617993877991494
 40
1.832595714594046
  0
ACDBSECTIONVIEWSTYLE
  5
5F7
102
{ACAD_REACTORS
330
5F6
102
}
330
5F6
100
AcDbModelDocViewStyle
 70
     0
  3
Metric50
290
     0
300
Metric50
 90
        0
100
AcDbSectionViewStyle
 70
     0
 71
     0
 90
      102
 71
     1
340
10
 62
   256
 40
5.0
340
0
340
0
 62
   256
 40
5.0
300
I, O, Q, S, X, Z
 40
10.0
 90
        0
 40
2.5
 90
        0
 71
     2
340
16
 90
       25
 62
   256
340
16
 90
       50
 62
   256
 40
5.0
 40
2.5
 40
5.0
 71
     3
340
10
 62
   256
 40
5.0
 90
        0
 40
15.0
 90
        1
300
%<\AcVar ViewSectionStartId>%-%<\AcVar ViewSectionEndId>% (%<\AcVar ViewScale \f "%sn">%)
 71
     4
 62
   256
 62
   257
300
ANSI31
 40
1.0
 90
        0
290
     0
290
     0
 90
        6
 40
0.0
 40
1.570796326794896
 40
0.2617993877991494
 40
1.308996938995747
 40
-0.2617993877991494
 40
1.832595714594046
  0
TABLESTYLE
  5
4F6
102
{ACAD_XDICTIONARY
360
5C5
102
}
102
{ACAD_REACTORS
330
4F5
102
}
330
4F5
100
AcDbTableStyle
280
     0
  3
Standard
 70
     0
 71
     0
 40
1.5
 41
1.5
280
     0
281
     0
  7
STANDARD
140
4.5
170
     2
 62
     0
 63
     7
283
     0
 90
        4
 91
        0
  1

274
    -2
284
     1
 64
     0
275
    -2
285
     1
 65
     0
276
    -2
286
     1
 66
     0
277
    -2
287
     1
 67
     0
278
    -2
288
     1
 68
     0
279
    -2
289
     1
 69
     0
  7
STANDARD
140
6.0
170
     5
 62
     0
 63
     7
283
     0
 90
        4
 91
        0
  1

274
    -2
284
     1
 64
     0
275
    -2
285
     1
 65
     0
276
    -2
286
     1
 66
     0
277
    -2
287
     1
 67
     0
278
    -2
288
     1
 68
     0
279
    -2
289
     1
 69
     0
  7
STANDARD
140
4.5
170
     5
 62
     0
 63
     7
283
     0
 90
        4
 91
        0
  1

274
    -2
284
     1
 64
     0
275
    -2
285
     1
 65
     0
276
    -2
286
     1
 66
     0
277
    -2
287
     1
 67
     0
278
    -2
288
     1
 68
     0
279
    -2
289
     1
 69
     0
  0
VISUALSTYLE
  5
57B
102
{ACAD_REACTORS
330
575
102
}
330
575
100
AcDbVisualStyle
  2
2dWireframe
 70
     4
177
     3
291
     0
 70
    58
 90
        0
176
     1
 90
        2
176
     1
 90
        0
176
     1
 90
        0
176
     1
 40
0.6
176
     1
 40
30.0
176
     1
 62
     7
420
 16777215
176
     1
 90
        1
176
     1
 90
        4
176
     1
 62
     7
176
     1
 62
   257
176
     1
 90
        1
176
     1
 90
        1
176
     1
 40
1.0
176
     1
 90
        0
176
     1
 62
   257
176
     1
 40
1.0
176
     1
 90
        1
176
     1
 90
        6
176
     1
 90
        2
176
     1
 62
     7
176
     1
 90
        5
176
     1
 90
        0
176
     1
 90
        0
176
     1
290
     0
176
     1
 90
        1
176
     1
 40
0.0
176
     1
 90
        0
176
     1
290
     1
176
     1
290
     1
176
     1
290
     0
176
     1
290
     0
176
     1
290
     0
176
     1
290
     0
176
     1
290
     0
176
     1
290
     0
176
     1
290
     0
176
     1
 90
       50
176
     1
 40
0.0
176
     1
 40
1.0
176
     1
 90
        0
176
     1
 62
    18
420
        0
176
     1
 90
       50
176
     1
 90
        3
176
     1
 62
     5
420
      255
176
     1
290
     0
176
     1
 90
       50
176
     1
 90
       50
176
     1
 90
       50
176
     1
290
     0
176
     1
 90
       50
176
     1
 62
   256
176
     0
 40
1.0
176
     0
 90
        2
176
     1
  1
strokes_ogs.tif
176
     1
290
     0
176
     1
 40
1.0
176
     1
 40
1.0
176
     1
  0
VISUALSTYLE
  5
57D
102
{ACAD_REACTORS
330
575
102
}
330
575
100
AcDbVisualStyle
  2
3D Hidden
 70
     6
177
     3
291
     0
 70
    58
 90
        1
176
     1
 90
        2
176
     1
 90
        2
176
     1
 90
        0
176
     1
 40
0.6
176
     1
 40
30.0
176
     1
 62
     7
420
 16777215
176
     1
 90
        2
176
     1
 90
        2
176
     1
 62
     7
176
     1
 62
   257
176
     1
 90
        2
176
     1
 90
        1
176
     1
 40
40.0
176
     1
 90
        0
176
     1
 62
   257
176
     1
 40
1.0
176
     1
 90
        1
176
     1
 90
        6
176
     1
 90
        2
176
     1
 62
     7
176
     1
 90
        3
176
     1
 90
        0
176
     1
 90
        0
176
     1
290
     0
176
     1
 90
        1
176
     1
 40
0.0
176
     1
 90
        0
176
     1
290
     0
176
     1
290
     1
176
     1
290
     1
176
     1
290
     0
176
     1
290
     0
176
     1
290
     0
176
     1
290
     0
176
     1
290
     0
176
     1
290
     0
176
     1
 90
       50
176
     1
 40
0.0
176
     1
 40
1.0
176
     1
 90
        0
176
     1
 62
    18
420
        0
176
     1
 90
       50
176
     1
 90
        3
176
     1
 62
     5
420
      255
176
     1
290
     0
176
     1
 90
       50
176
     1
 90
       50
176
     1
 90
       50
176
     1
290
     0
176
     1
 90
       50
176
     1
 62
   256
176
     0
 40
1.0
176
     0
 90
        2
176
     1
  1
strokes_ogs.tif
176
     1
290
     0
176
     1
 40
1.0
176
     1
 40
1.0
176
     1
  0
VISUALSTYLE
  5
57C
102
{ACAD_REACTORS
330
575
102
}
330
575
100
AcDbVisualStyle
  2
3dWireframe
 70
     5
177
     3
291
     0
 70
    58
 90
        0
176
     1
 90
        2
176
     1
 90
        0
176
     1
 90
        0
176
     1
 40
0.6
176
     1
 40
30.0
176
     1
 62
     7
420
 16777215
176
     1
 90
        1
176
     1
 90
        4
176
     1
 62
     7
176
     1
 62
   257
176
     1
 90
        1
176
     1
 90
        1
176
     1
 40
1.0
176
     1
 90
        0
176
     1
 62
   257
176
     1
 40
1.0
176
     1
 90
        1
176
     1
 90
        6
176
     1
 90
        2
176
     1
 62
     7
176
     1
 90
        5
176
     1
 90
        0
176
     1
 90
        0
176
     1
290
     0
176
     1
 90
        1
176
     1
 40
0.0
176
     1
 90
        0
176
     1
290
     0
176
     1
290
     1
176
     1
290
     1
176
     1
290
     0
176
     1
290
     0
176
     1
290
     0
176
     1
290
     0
176
     1
290
     0
176
     1
290
     0
176
     1
 90
       50
176
     1
 40
0.0
176
     1
 40
1.0
176
     1
 90
        0
176
     1
 62
    18
420
        0
176
     1
 90
       50
176
     1
 90
        3
176
     1
 62
     5
420
      255
176
     1
290
     0
176
     1
 90
       50
176
     1
 90
       50
176
     1
 90
       50
176
     1
290
     0
176
     1
 90
       50
176
     1
 62
   256
176
     0
 40
1.0
176
     0
 90
        2
176
     1
  1
strokes_ogs.tif
176
     1
290
     0
176
     1
 40
1.0
176
     1
 40
1.0
176
     1
  0
VISUALSTYLE
  5
57A
102
{ACAD_REACTORS
330
575
102
}
330
575
100
AcDbVisualStyle
  2
Basic
 70
     7
177
     3
291
     1
 70
    58
 90
        1
176
     1
 90
        0
176
     1
 90
        1
176
     1
 90
        0
176
     1
 40
0.6
176
     1
 40
30.0
176
     1
 62
     7
420
 16777215
176
     1
 90
        0
176
     1
 90
        4
176
     1
 62
     7
176
     1
 62
   257
176
     1
 90
        1
176
     1
 90
        1
176
     1
 40
1.0
176
     1
 90
        8
176
     1
 62
     7
176
     1
 40
1.0
176
     1
 90
        1
176
     1
 90
        6
176
     1
 90
        2
176
     1
 62
     7
176
     1
 90
        5
176
     1
 90
        0
176
     1
 90
        0
176
     1
290
     0
176
     1
 90
        1
176
     1
 40
0.0
176
     1
 90
        0
176
     1
290
     0
176
     1
290
     1
176
     1
290
     1
176
     1
290
     0
176
     1
290
     0
176
     1
290
     0
176
     1
290
     0
176
     1
290
     0
176
     1
290
     0
176
     1
 90
       50
176
     1
 40
0.0
176
     1
 40
1.0
176
     1
 90
        0
176
     1
 62
    18
420
        0
176
     1
 90
       50
176
     1
 90
        3
176
     1
 62
     5
420
      255
176
     1
290
     0
176
     1
 90
       50
176
     1
 90
       50
176
     1
 90
       50
176
     1
290
     0
176
     1
 90
       50
176
     1
 62
   256
176
     0
 40
1.0
176
     0
 90
        2
176
     1
  1
strokes_ogs.tif
176
     1
290
     0
176
     1
 40
1.0
176
     1
 40
1.0
176
     1
  0
VISUALSTYLE
  5
581
102
{ACAD_REACTORS
330
575
102
}
330
575
100
AcDbVisualStyle
  2
Brighten
 70
    12
177
     3
291
     1
 70
    58
 90
        2
176
     1
 90
        2
176
     1
 90
        0
176
     1
 90
        0
176
     1
 40
0.6
176
     1
 40
30.0
176
     1
 62
     7
420
 16777215
176
     1
 90
        1
176
     1
 90
        4
176
     1
 62
     7
176
     1
 62
   257
176
     1
 90
        1
176
     1
 90
        1
176
     1
 40
1.0
176
     1
 90
        8
176
     1
 62
     7
176
     1
 40
1.0
176
     1
 90
        1
176
     1
 90
        6
176
     1
 90
        2
176
     1
 62
     7
176
     1
 90
        5
176
     1
 90
        0
176
     1
 90
        0
176
     1
290
     0
176
     1
 90
        1
176
     1
 40
50.0
176
     1
 90
        0
176
     1
290
     0
176
     1
290
     1
176
     1
290
     1
176
     1
290
     0
176
     1
290
     0
176
     1
290
     0
176
     1
290
     0
176
     1
290
     0
176
     1
290
     0
176
     1
 90
       50
176
     1
 40
0.0
176
     1
 40
1.0
176
     1
 90
        0
176
     1
 62
    18
420
        0
176
     1
 90
       50
176
     1
 90
        3
176
     1
 62
     5
420
      255
176
     1
290
     0
176
     1
 90
       50
176
     1
 90
       50
176
     1
 90
       50
176
     1
290
     0
176
     1
 90
       50
176
     1
 62
   256
176
     0
 40
1.0
176
     0
 90
        2
176
     1
  1
strokes_ogs.tif
176
     1
290
     0
176
     1
 40
1.0
176
     1
 40
1.0
176
     1
  0
VISUALSTYLE
  5
585
102
{ACAD_REACTORS
330
575
102
}
330
575
100
AcDbVisualStyle
  2
ColorChange
 70
    16
177
     3
291
     1
 70
    58
 90
        2
176
     1
 90
        2
176
     1
 90
        3
176
     1
 90
        0
176
     1
 40
0.6
176
     1
 40
30.0
176
     1
 62
     8
420
  8421504
176
     1
 90
        1
176
     1
 90
        4
176
     1
 62
     7
176
     1
 62
   257
176
     1
 90
        1
176
     1
 90
        1
176
     1
 40
1.0
176
     1
 90
        8
176
     1
 62
     8
420
  8421504
176
     1
 40
1.0
176
     1
 90
        1
176
     1
 90
        6
176
     1
 90
        2
176
     1
 62
     7
176
     1
 90
        5
176
     1
 90
        0
176
     1
 90
        0
176
     1
290
     0
176
     1
 90
        1
176
     1
 40
0.0
176
     1
 90
        0
176
     1
290
     0
176
     1
290
     1
176
     1
290
     1
176
     1
290
     0
176
     1
290
     0
176
     1
290
     0
176
     1
290
     0
176
     1
290
     0
176
     1
290
     0
176
     1
 90
       50
176
     1
 40
0.0
176
     1
 40
1.0
176
     1
 90
        0
176
     1
 62
    18
420
        0
176
     1
 90
       50
176
     1
 90
        3
176
     1
 62
     5
420
      255
176
     1
290
     0
176
     1
 90
       50
176
     1
 90
       50
176
     1
 90
       50
176
     1
290
     0
176
     1
 90
       50
176
     1
 62
   256
176
     0
 40
1.0
176
     0
 90
        2
176
     1
  1
strokes_ogs.tif
176
     1
290
     0
176
     1
 40
1.0
176
     1
 40
1.0
176
     1
  0
VISUALSTYLE
  5
57E
102
{ACAD_REACTORS
330
575
102
}
330
575
100
AcDbVisualStyle
  2
Conceptual
 70
     9
177
     3
291
     0
 70
    58
 90
        3
176
     1
 90
        2
176
     1
 90
        0
176
     1
 90
        0
176
     1
 40
0.6
176
     1
 40
30.0
176
     1
 62
     7
420
 16777215
176
     1
 90
        2
176
     1
 90
        2
176
     1
 62
     7
176
     1
 62
   257
176
     1
 90
        1
176
     1
 90
        1
176
     1
 40
40.0
176
     1
 90
        8
176
     1
 62
     7
176
     1
 40
1.0
176
     1
 90
        1
176
     1
 90
        6
176
     1
 90
        2
176
     1
 62
     7
176
     1
 90
        3
176
     1
 90
        0
176
     1
 90
        0
176
     1
290
     0
176
     1
 90
        1
176
     1
 40
0.0
176
     1
 90
        0
176
     1
290
     0
176
     1
290
     1
176
     1
290
     1
176
     1
290
     0
176
     1
290
     0
176
     1
290
     0
176
     1
290
     0
176
     1
290
     0
176
     1
290
     0
176
     1
 90
       50
176
     1
 40
0.0
176
     1
 40
1.0
176
     1
 90
        0
176
     1
 62
    18
420
        0
176
     1
 90
       50
176
     1
 90
        3
176
     1
 62
     5
420
      255
176
     1
290
     0
176
     1
 90
       50
176
     1
 90
       50
176
     1
 90
       50
176
     1
290
     0
176
     1
 90
       50
176
     1
 62
   256
176
     0
 40
1.0
176
     0
 90
        2
176
     1
  1
strokes_ogs.tif
176
     1
290
     0
176
     1
 40
1.0
176
     1
 40
1.0
176
     1
  0
VISUALSTYLE
  5
580
102
{ACAD_REACTORS
330
575
102
}
330
575
100
AcDbVisualStyle
  2
Dim
 70
    11
177
     3
291
     1
 70
    58
 90
        2
176
     1
 90
        2
176
     1
 90
        0
176
     1
 90
        0
176
     1
 40
0.6
176
     1
 40
30.0
176
     1
 62
     7
420
 16777215
176
     1
 90
        1
176
     1
 90
        4
176
     1
 62
     7
176
     1
 62
   257
176
     1
 90
        1
176
     1
 90
        1
176
     1
 40
1.0
176
     1
 90
        8
176
     1
 62
     7
176
     1
 40
1.0
176
     1
 90
        1
176
     1
 90
        6
176
     1
 90
        2
176
     1
 62
     7
176
     1
 90
        5
176
     1
 90
        0
176
     1
 90
        0
176
     1
290
     0
176
     1
 90
        1
176
     1
 40
-50.0
176
     1
 90
        0
176
     1
290
     0
176
     1
290
     1
176
     1
290
     1
176
     1
290
     0
176
     1
290
     0
176
     1
290
     0
176
     1
290
     0
176
     1
290
     0
176
     1
290
     0
176
     1
 90
       50
176
     1
 40
0.0
176
     1
 40
1.0
176
     1
 90
        0
176
     1
 62
    18
420
        0
176
     1
 90
       50
176
     1
 90
        3
176
     1
 62
     5
420
      255
176
     1
290
     0
176
     1
 90
       50
176
     1
 90
       50
176
     1
 90
       50
176
     1
290
     0
176
     1
 90
       50
176
     1
 62
   256
176
     0
 40
1.0
176
     0
 90
        2
176
     1
  1
strokes_ogs.tif
176
     1
290
     0
176
     1
 40
1.0
176
     1
 40
1.0
176
     1
  0
VISUALSTYLE
  5
5F5
102
{ACAD_REACTORS
330
575
102
}
330
575
100
AcDbVisualStyle
  2
EdgeColorOff
 70
    22
177
     3
291
     1
 70
    58
 90
        2
176
     0
 90
        2
176
     0
 90
        0
176
     0
 90
        0
176
     0
 40
0.6
176
     0
 40
30.0
176
     0
 62
     7
420
 16777215
176
     0
 90
        1
176
     0
 90
        4
176
     0
 62
     7
176
     0
 62
   257
176
     0
 90
        1
176
     0
 90
        1
176
     0
 40
1.0
176
     0
 90
        8
176
     2
 62
     7
176
     0
 40
1.0
176
     0
 90
        1
176
     0
 90
        6
176
     0
 90
        2
176
     0
 62
     7
176
     0
 90
        5
176
     0
 90
        0
176
     0
 90
        0
176
     0
290
     0
176
     0
 90
        1
176
     0
 40
0.0
176
     0
 90
        0
176
     0
290
     0
176
     0
290
     1
176
     0
290
     1
176
     0
290
     0
176
     0
290
     0
176
     0
290
     0
176
     0
290
     0
176
     0
290
     0
176
     0
290
     0
176
     0
 90
       50
176
     0
 40
0.0
176
     0
 40
1.0
176
     0
 90
        0
176
     0
 62
    18
420
        0
176
     0
 90
       50
176
     0
 90
        3
176
     0
 62
     5
420
      255
176
     0
290
     0
176
     0
 90
       50
176
     0
 90
       50
176
     0
 90
       50
176
     0
290
     0
176
     0
 90
       50
176
     0
 62
   256
176
     0
 40
1.0
176
     0
 90
        2
176
     0
  1
strokes_ogs.tif
176
     0
290
     0
176
     0
 40
1.0
176
     0
 40
1.0
176
     0
  0
VISUALSTYLE
  5
584
102
{ACAD_REACTORS
330
575
102
}
330
575
100
AcDbVisualStyle
  2
Facepattern
 70
    15
177
     3
291
     1
 70
    58
 90
        2
176
     1
 90
        2
176
     1
 90
        0
176
     1
 90
        0
176
     1
 40
0.6
176
     1
 40
30.0
176
     1
 62
     7
420
 16777215
176
     1
 90
        1
176
     1
 90
        4
176
     1
 62
     7
176
     1
 62
   257
176
     1
 90
        1
176
     1
 90
        1
176
     1
 40
1.0
176
     1
 90
        8
176
     1
 62
     7
176
     1
 40
1.0
176
     1
 90
        1
176
     1
 90
        6
176
     1
 90
        2
176
     1
 62
     7
176
     1
 90
        5
176
     1
 90
        0
176
     1
 90
        0
176
     1
290
     0
176
     1
 90
        1
176
     1
 40
0.0
176
     1
 90
        0
176
     1
290
     0
176
     1
290
     1
176
     1
290
     1
176
     1
290
     0
176
     1
290
     0
176
     1
290
     0
176
     1
290
     0
176
     1
290
     0
176
     1
290
     0
176
     1
 90
       50
176
     1
 40
0.0
176
     1
 40
1.0
176
     1
 90
        0
176
     1
 62
    18
420
        0
176
     1
 90
       50
176
     1
 90
        3
176
     1
 62
     5
420
      255
176
     1
290
     0
176
     1
 90
       50
176
     1
 90
       50
176
     1
 90
       50
176
     1
290
     0
176
     1
 90
       50
176
     1
 62
   256
176
     0
 40
1.0
176
     0
 90
        2
176
     1
  1
strokes_ogs.tif
176
     1
290
     0
176
     1
 40
1.0
176
     1
 40
1.0
176
     1
  0
VISUALSTYLE
  5
576
102
{ACAD_REACTORS
330
575
102
}
330
575
100
AcDbVisualStyle
  2
Flat
 70
     0
177
     3
291
     1
 70
    58
 90
        2
176
     1
 90
        1
176
     1
 90
        1
176
     1
 90
        2
176
     1
 40
0.6
176
     1
 40
30.0
176
     1
 62
     7
420
 16777215
176
     1
 90
        0
176
     1
 90
        4
176
     1
 62
     7
176
     1
 62
   257
176
     1
 90
        1
176
     1
 90
        1
176
     1
 40
1.0
176
     1
 90
        8
176
     1
 62
     7
176
     1
 40
1.0
176
     1
 90
        1
176
     1
 90
        6
176
     1
 90
        2
176
     1
 62
     7
176
     1
 90
        5
176
     1
 90
        0
176
     1
 90
        0
176
     1
290
     0
176
     1
 90
       13
176
     1
 40
0.0
176
     1
 90
        0
176
     1
290
     0
176
     1
290
     1
176
     1
290
     1
176
     1
290
     0
176
     1
290
     0
176
     1
290
     0
176
     1
290
     0
176
     1
290
     0
176
     1
290
     0
176
     1
 90
       50
176
     1
 40
0.0
176
     1
 40
1.0
176
     1
 90
        0
176
     1
 62
    18
420
        0
176
     1
 90
       50
176
     1
 90
        3
176
     1
 62
     5
420
      255
176
     1
290
     0
176
     1
 90
       50
176
     1
 90
       50
176
     1
 90
       50
176
     1
290
     0
176
     1
 90
       50
176
     1
 62
   256
176
     0
 40
1.0
176
     0
 90
        2
176
     1
  1
strokes_ogs.tif
176
     1
290
     0
176
     1
 40
1.0
176
     1
 40
1.0
176
     1
  0
VISUALSTYLE
  5
577
102
{ACAD_REACTORS
330
575
102
}
330
575
100
AcDbVisualStyle
  2
FlatWithEdges
 70
     1
177
     3
291
     1
 70
    58
 90
        2
176
     1
 90
        1
176
     1
 90
        1
176
     1
 90
        2
176
     1
 40
0.6
176
     1
 40
30.0
176
     1
 62
     7
420
 16777215
176
     1
 90
        1
176
     1
 90
        4
176
     1
 62
     7
176
     1
 62
   257
176
     1
 90
        1
176
     1
 90
        1
176
     1
 40
1.0
176
     1
 90
        0
176
     1
 62
   257
176
     1
 40
1.0
176
     1
 90
        1
176
     1
 90
        6
176
     1
 90
        2
176
     1
 62
     7
176
     1
 90
        5
176
     1
 90
        0
176
     1
 90
        0
176
     1
290
     0
176
     1
 90
       13
176
     1
 40
0.0
176
     1
 90
        0
176
     1
290
     0
176
     1
290
     1
176
     1
290
     1
176
     1
290
     0
176
     1
290
     0
176
     1
290
     0
176
     1
290
     0
176
     1
290
     0
176
     1
290
     0
176
     1
 90
       50
176
     1
 40
0.0
176
     1
 40
1.0
176
     1
 90
        0
176
     1
 62
    18
420
        0
176
     1
 90
       50
176
     1
 90
        3
176
     1
 62
     5
420
      255
176
     1
290
     0
176
     1
 90
       50
176
     1
 90
       50
176
     1
 90
       50
176
     1
290
     0
176
     1
 90
       50
176
     1
 62
   256
176
     0
 40
1.0
176
     0
 90
        2
176
     1
  1
strokes_ogs.tif
176
     1
290
     0
176
     1
 40
1.0
176
     1
 40
1.0
176
     1
  0
VISUALSTYLE
  5
578
102
{ACAD_REACTORS
330
575
102
}
330
575
100
AcDbVisualStyle
  2
Gouraud
 70
     2
177
     3
291
     1
 70
    58
 90
        2
176
     1
 90
        2
176
     1
 90
        1
176
     1
 90
        2
176
     1
 40
0.6
176
     1
 40
30.0
176
     1
 62
     7
420
 16777215
176
     1
 90
        0
176
     1
 90
        4
176
     1
 62
     7
176
     1
 62
   257
176
     1
 90
        1
176
     1
 90
        1
176
     1
 40
1.0
176
     1
 90
        0
176
     1
 62
     7
176
     1
 40
1.0
176
     1
 90
        1
176
     1
 90
        6
176
     1
 90
        2
176
     1
 62
     7
176
     1
 90
        5
176
     1
 90
        0
176
     1
 90
        0
176
     1
290
     0
176
     1
 90
       13
176
     1
 40
0.0
176
     1
 90
        0
176
     1
290
     0
176
     1
290
     1
176
     1
290
     1
176
     1
290
     0
176
     1
290
     0
176
     1
290
     0
176
     1
290
     0
176
     1
290
     0
176
     1
290
     0
176
     1
 90
       50
176
     1
 40
0.0
176
     1
 40
1.0
176
     1
 90
        0
176
     1
 62
    18
420
        0
176
     1
 90
       50
176
     1
 90
        3
176
     1
 62
     5
420
      255
176
     1
290
     0
176
     1
 90
       50
176
     1
 90
       50
176
     1
 90
       50
176
     1
290
     0
176
     1
 90
       50
176
     1
 62
   256
176
     0
 40
1.0
176
     0
 90
        2
176
     1
  1
strokes_ogs.tif
176
     1
290
     0
176
     1
 40
1.0
176
     1
 40
1.0
176
     1
  0
VISUALSTYLE
  5
579
102
{ACAD_REACTORS
330
575
102
}
330
575
100
AcDbVisualStyle
  2
GouraudWithEdges
 70
     3
177
     3
291
     1
 70
    58
 90
        2
176
     1
 90
        2
176
     1
 90
        1
176
     1
 90
        2
176
     1
 40
0.6
176
     1
 40
30.0
176
     1
 62
     7
420
 16777215
176
     1
 90
        1
176
     1
 90
        4
176
     1
 62
     7
176
     1
 62
   257
176
     1
 90
        1
176
     1
 90
        1
176
     1
 40
1.0
176
     1
 90
        0
176
     1
 62
   257
176
     1
 40
1.0
176
     1
 90
        1
176
     1
 90
        6
176
     1
 90
        2
176
     1
 62
     7
176
     1
 90
        5
176
     1
 90
        0
176
     1
 90
        0
176
     1
290
     0
176
     1
 90
       13
176
     1
 40
0.0
176
     1
 90
        0
176
     1
290
     0
176
     1
290
     1
176
     1
290
     1
176
     1
290
     0
176
     1
290
     0
176
     1
290
     0
176
     1
290
     0
176
     1
290
     0
176
     1
290
     0
176
     1
 90
       50
176
     1
 40
0.0
176
     1
 40
1.0
176
     1
 90
        0
176
     1
 62
    18
420
        0
176
     1
 90
       50
176
     1
 90
        3
176
     1
 62
     5
420
      255
176
     1
290
     0
176
     1
 90
       50
176
     1
 90
       50
176
     1
 90
       50
176
     1
290
     0
176
     1
 90
       50
176
     1
 62
   256
176
     0
 40
1.0
176
     0
 90
        2
176
     1
  1
strokes_ogs.tif
176
     1
290
     0
176
     1
 40
1.0
176
     1
 40
1.0
176
     1
  0
VISUALSTYLE
  5
5ED
102
{ACAD_REACTORS
330
575
102
}
330
575
100
AcDbVisualStyle
  2
Hidden
 70
     6
177
     3
291
     0
 70
    58
 90
        1
176
     1
 90
        2
176
     1
 90
        2
176
     1
 90
        0
176
     1
 40
0.6
176
     1
 40
30.0
176
     1
 62
     7
420
 16777215
176
     1
 90
        2
176
     1
 90
        2
176
     1
 62
     7
176
     1
 62
   257
176
     1
 90
        2
176
     1
 90
        1
176
     1
 40
40.0
176
     1
 90
        0
176
     1
 62
   257
176
     1
 40
1.0
176
     1
 90
        1
176
     1
 90
        6
176
     1
 90
        2
176
     1
 62
     7
176
     1
 90
        3
176
     1
 90
        0
176
     1
 90
        0
176
     1
290
     0
176
     1
 90
        1
176
     1
 40
0.0
176
     1
 90
        0
176
     1
290
     0
176
     1
290
     1
176
     1
290
     1
176
     1
290
     0
176
     1
290
     0
176
     1
290
     0
176
     1
290
     0
176
     1
290
     0
176
     1
290
     0
176
     1
 90
       50
176
     1
 40
0.0
176
     1
 40
1.0
176
     1
 90
        0
176
     1
 62
    18
420
        0
176
     1
 90
       50
176
     1
 90
        3
176
     1
 62
     5
420
      255
176
     1
290
     0
176
     1
 90
       50
176
     1
 90
       50
176
     1
 90
       50
176
     1
290
     0
176
     1
 90
       50
176
     1
 62
   256
176
     0
 40
1.0
176
     0
 90
        2
176
     1
  1
strokes_ogs.tif
176
     1
290
     0
176
     1
 40
1.0
176
     1
 40
1.0
176
     1
  0
VISUALSTYLE
  5
5F3
102
{ACAD_REACTORS
330
575
102
}
330
575
100
AcDbVisualStyle
  2
JitterOff
 70
    20
177
     3
291
     1
 70
    58
 90
        2
176
     0
 90
        2
176
     0
 90
        0
176
     0
 90
        0
176
     0
 40
0.6
176
     0
 40
30.0
176
     0
 62
     7
420
 16777215
176
     0
 90
        1
176
     0
 90
        4
176
     0
 62
     7
176
     0
 62
   257
176
     0
 90
        1
176
     0
 90
        1
176
     0
 40
1.0
176
     0
 90
       10
176
     2
 62
     7
176
     0
 40
1.0
176
     0
 90
        1
176
     0
 90
        6
176
     0
 90
        2
176
     0
 62
     7
176
     0
 90
        5
176
     0
 90
        0
176
     0
 90
        0
176
     0
290
     0
176
     0
 90
        1
176
     0
 40
0.0
176
     0
 90
        0
176
     0
290
     0
176
     0
290
     1
176
     0
290
     1
176
     0
290
     0
176
     0
290
     0
176
     0
290
     0
176
     0
290
     0
176
     0
290
     0
176
     0
290
     0
176
     0
 90
       50
176
     0
 40
0.0
176
     0
 40
1.0
176
     0
 90
        0
176
     0
 62
    18
420
        0
176
     0
 90
       50
176
     0
 90
        3
176
     0
 62
     5
420
      255
176
     0
290
     0
176
     0
 90
       50
176
     0
 90
       50
176
     0
 90
       50
176
     0
290
     0
176
     0
 90
       50
176
     0
 62
   256
176
     0
 40
1.0
176
     0
 90
        2
176
     0
  1
strokes_ogs.tif
176
     0
290
     0
176
     0
 40
1.0
176
     0
 40
1.0
176
     0
  0
VISUALSTYLE
  5
583
102
{ACAD_REACTORS
330
575
102
}
330
575
100
AcDbVisualStyle
  2
Linepattern
 70
    14
177
     3
291
     1
 70
    58
 90
        2
176
     1
 90
        2
176
     1
 90
        0
176
     1
 90
        0
176
     1
 40
0.6
176
     1
 40
30.0
176
     1
 62
     7
420
 16777215
176
     1
 90
        1
176
     1
 90
        4
176
     1
 62
     7
176
     1
 62
   257
176
     1
 90
        7
176
     1
 90
        7
176
     1
 40
1.0
176
     1
 90
        8
176
     1
 62
     7
176
     1
 40
1.0
176
     1
 90
        1
176
     1
 90
        6
176
     1
 90
        2
176
     1
 62
     7
176
     1
 90
        5
176
     1
 90
        0
176
     1
 90
        0
176
     1
290
     0
176
     1
 90
        1
176
     1
 40
0.0
176
     1
 90
        0
176
     1
290
     0
176
     1
290
     1
176
     1
290
     1
176
     1
290
     0
176
     1
290
     0
176
     1
290
     0
176
     1
290
     0
176
     1
290
     0
176
     1
290
     0
176
     1
 90
       50
176
     1
 40
0.0
176
     1
 40
1.0
176
     1
 90
        0
176
     1
 62
    18
420
        0
176
     1
 90
       50
176
     1
 90
        3
176
     1
 62
     5
420
      255
176
     1
290
     0
176
     1
 90
       50
176
     1
 90
       50
176
     1
 90
       50
176
     1
290
     0
176
     1
 90
       50
176
     1
 62
   256
176
     0
 40
1.0
176
     0
 90
        2
176
     1
  1
strokes_ogs.tif
176
     1
290
     0
176
     1
 40
1.0
176
     1
 40
1.0
176
     1
  0
VISUALSTYLE
  5
5F4
102
{ACAD_REACTORS
330
575
102
}
330
575
100
AcDbVisualStyle
  2
OverhangOff
 70
    21
177
     3
291
     1
 70
    58
 90
        2
176
     0
 90
        2
176
     0
 90
        0
176
     0
 90
        0
176
     0
 40
0.6
176
     0
 40
30.0
176
     0
 62
     7
420
 16777215
176
     0
 90
        1
176
     0
 90
        4
176
     0
 62
     7
176
     0
 62
   257
176
     0
 90
        1
176
     0
 90
        1
176
     0
 40
1.0
176
     0
 90
        9
176
     2
 62
     7
176
     0
 40
1.0
176
     0
 90
        1
176
     0
 90
        6
176
     0
 90
        2
176
     0
 62
     7
176
     0
 90
        5
176
     0
 90
        0
176
     0
 90
        0
176
     0
290
     0
176
     0
 90
        1
176
     0
 40
0.0
176
     0
 90
        0
176
     0
290
     0
176
     0
290
     1
176
     0
290
     1
176
     0
290
     0
176
     0
290
     0
176
     0
290
     0
176
     0
290
     0
176
     0
290
     0
176
     0
290
     0
176
     0
 90
       50
176
     0
 40
0.0
176
     0
 40
1.0
176
     0
 90
        0
176
     0
 62
    18
420
        0
176
     0
 90
       50
176
     0
 90
        3
176
     0
 62
     5
420
      255
176
     0
290
     0
176
     0
 90
       50
176
     0
 90
       50
176
     0
 90
       50
176
     0
290
     0
176
     0
 90
       50
176
     0
 62
   256
176
     0
 40
1.0
176
     0
 90
        2
176
     0
  1
strokes_ogs.tif
176
     0
290
     0
176
     0
 40
1.0
176
     0
 40
1.0
176
     0
  0
VISUALSTYLE
  5
57F
102
{ACAD_REACTORS
330
575
102
}
330
575
100
AcDbVisualStyle
  2
Realistic
 70
     8
177
     3
291
     0
 70
    58
 90
        2
176
     1
 90
        2
176
     1
 90
        0
176
     1
 90
        0
176
     1
 40
0.6
176
     1
 40
30.0
176
     1
 62
     7
420
 16777215
176
     1
 90
        1
176
     1
 90
        0
176
     1
 62
     7
176
     1
 62
   257
176
     1
 90
        1
176
     1
 90
        1
176
     1
 40
1.0
176
     1
 90
        8
176
     1
 62
     8
420
  7895160
176
     1
 40
1.0
176
     1
 90
        1
176
     1
 90
        6
176
     1
 90
        2
176
     1
 62
     7
176
     1
 90
        5
176
     1
 90
        0
176
     1
 90
        0
176
     1
290
     0
176
     1
 90
       13
176
     1
 40
0.0
176
     1
 90
        0
176
     1
290
     0
176
     1
290
     1
176
     1
290
     1
176
     1
290
     0
176
     1
290
     0
176
     1
290
     0
176
     1
290
     0
176
     1
290
     0
176
     1
290
     0
176
     1
 90
       50
176
     1
 40
0.0
176
     1
 40
1.0
176
     1
 90
        0
176
     1
 62
    18
420
        0
176
     1
 90
       50
176
     1
 90
        3
176
     1
 62
     5
420
      255
176
     1
290
     0
176
     1
 90
       50
176
     1
 90
       50
176
     1
 90
       50
176
     1
290
     0
176
     1
 90
       50
176
     1
 62
   256
176
     0
 40
1.0
176
     0
 90
        2
176
     1
  1
strokes_ogs.tif
176
     1
290
     0
176
     1
 40
1.0
176
     1
 40
1.0
176
     1
  0
VISUALSTYLE
  5
5F2
102
{ACAD_REACTORS
330
575
102
}
330
575
100
AcDbVisualStyle
  2
Shaded
 70
    27
177
     3
291
     0
 70
    58
 90
        2
176
     1
 90
        2
176
     1
 90
        1
176
     1
 90
        2
176
     1
 40
0.6
176
     1
 40
30.0
176
     1
 62
     7
420
 16777215
176
     1
 90
        0
176
     1
 90
        4
176
     1
 62
     7
176
     1
 62
   257
176
     1
 90
        1
176
     1
 90
        1
176
     1
 40
1.0
176
     1
 90
        8
176
     1
 62
   257
176
     1
 40
1.0
176
     1
 90
        1
176
     1
 90
        6
176
     1
 90
        2
176
     1
 62
     8
420
  7895160
176
     1
 90
        3
176
     1
 90
        0
176
     1
 90
        0
176
     1
290
     0
176
     1
 90
        5
176
     1
 40
0.0
176
     1
 90
        0
176
     1
290
     0
176
     1
290
     1
176
     1
290
     1
176
     1
290
     0
176
     1
290
     0
176
     1
290
     0
176
     1
290
     0
176
     1
290
     0
176
     1
290
     0
176
     1
 90
       50
176
     1
 40
0.0
176
     1
 40
1.0
176
     1
 90
        0
176
     1
 62
    18
420
        0
176
     1
 90
       50
176
     1
 90
        3
176
     1
 62
     5
420
      255
176
     1
290
     0
176
     1
 90
       50
176
     1
 90
       50
176
     1
 90
       50
176
     1
290
     0
176
     1
 90
       50
176
     1
 62
   256
176
     0
 40
1.0
176
     0
 90
        2
176
     1
  1
strokes_ogs.tif
176
     1
290
     0
176
     1
 40
1.0
176
     1
 40
1.0
176
     1
  0
VISUALSTYLE
  5
5F1
102
{ACAD_REACTORS
330
575
102
}
330
575
100
AcDbVisualStyle
  2
Shaded with edges
 70
    26
177
     3
291
     0
 70
    58
 90
        2
176
     1
 90
        2
176
     1
 90
        1
176
     1
 90
        2
176
     1
 40
0.6
176
     1
 40
30.0
176
     1
 62
     7
420
 16777215
176
     1
 90
        1
176
     1
 90
        2
176
     1
 62
     7
176
     1
 62
   257
176
     1
 90
        2
176
     1
 90
        1
176
     1
 40
1.0
176
     1
 90
        8
176
     1
 62
   257
176
     1
 40
1.0
176
     1
 90
        1
176
     1
 90
        6
176
     1
 90
        2
176
     1
 62
     7
176
     1
 90
        3
176
     1
 90
        0
176
     1
 90
        0
176
     1
290
     0
176
     1
 90
        5
176
     1
 40
0.0
176
     1
 90
        0
176
     1
290
     0
176
     1
290
     1
176
     1
290
     1
176
     1
290
     0
176
     1
290
     0
176
     1
290
     0
176
     1
290
     0
176
     1
290
     0
176
     1
290
     0
176
     1
 90
       50
176
     1
 40
0.0
176
     1
 40
1.0
176
     1
 90
        0
176
     1
 62
    18
420
        0
176
     1
 90
       50
176
     1
 90
        3
176
     1
 62
     5
420
      255
176
     1
290
     0
176
     1
 90
       50
176
     1
 90
       50
176
     1
 90
       50
176
     1
290
     0
176
     1
 90
       50
176
     1
 62
   256
176
     0
 40
1.0
176
     0
 90
        2
176
     1
  1
strokes_ogs.tif
176
     1
290
     0
176
     1
 40
1.0
176
     1
 40
1.0
176
     1
  0
VISUALSTYLE
  5
5EE
102
{ACAD_REACTORS
330
575
102
}
330
575
100
AcDbVisualStyle
  2
Shades of Gray
 70
    23
177
     3
291
     0
 70
    58
 90
        2
176
     1
 90
        2
176
     1
 90
        3
176
     1
 90
        0
176
     1
 40
0.6
176
     1
 40
30.0
176
     1
 62
     7
420
 16777215
176
     1
 90
        2
176
     1
 90
        2
176
     1
 62
     7
176
     1
 62
     7
176
     1
 90
        1
176
     1
 90
        1
176
     1
 40
40.0
176
     1
 90
        8
176
     1
 62
     7
176
     1
 40
1.0
176
     1
 90
        1
176
     1
 90
        6
176
     1
 90
        2
176
     1
 62
     7
176
     1
 90
        3
176
     1
 90
        0
176
     1
 90
        0
176
     1
290
     0
176
     1
 90
        1
176
     1
 40
0.0
176
     1
 90
        0
176
     1
290
     0
176
     1
290
     1
176
     1
290
     1
176
     1
290
     0
176
     1
290
     0
176
     1
290
     0
176
     1
290
     0
176
     1
290
     0
176
     1
290
     0
176
     1
 90
       50
176
     1
 40
0.0
176
     1
 40
1.0
176
     1
 90
        0
176
     1
 62
    18
420
        0
176
     1
 90
       50
176
     1
 90
        3
176
     1
 62
     5
420
      255
176
     1
290
     0
176
     1
 90
       50
176
     1
 90
       50
176
     1
 90
       50
176
     1
290
     0
176
     1
 90
       50
176
     1
 62
   256
176
     0
 40
1.0
176
     0
 90
        2
176
     1
  1
strokes_ogs.tif
176
     1
290
     0
176
     1
 40
1.0
176
     1
 40
1.0
176
     1
  0
VISUALSTYLE
  5
5EF
102
{ACAD_REACTORS
330
575
102
}
330
575
100
AcDbVisualStyle
  2
Sketchy
 70
    24
177
     3
291
     0
 70
    58
 90
        1
176
     1
 90
        2
176
     1
 90
        2
176
     1
 90
        0
176
     1
 40
0.6
176
     1
 40
30.0
176
     1
 62
     7
420
 16777215
176
     1
 90
        2
176
     1
 90
        2
176
     1
 62
     7
176
     1
 62
     7
176
     1
 90
        1
176
     1
 90
        1
176
     1
 40
40.0
176
     1
 90
       11
176
     1
 62
     7
176
     1
 40
1.0
176
     1
 90
        1
176
     1
 90
        6
176
     1
 90
        2
176
     1
 62
     7
176
     1
 90
        6
176
     1
 90
        0
176
     1
 90
        0
176
     1
290
     0
176
     1
 90
        1
176
     1
 40
0.0
176
     1
 90
        0
176
     1
290
     0
176
     1
290
     1
176
     1
290
     1
176
     1
290
     0
176
     1
290
     0
176
     1
290
     0
176
     1
290
     0
176
     1
290
     0
176
     1
290
     0
176
     1
 90
       50
176
     1
 40
0.0
176
     1
 40
1.0
176
     1
 90
        0
176
     1
 62
    18
420
        0
176
     1
 90
       50
176
     1
 90
        3
176
     1
 62
     5
420
      255
176
     1
290
     0
176
     1
 90
       50
176
     1
 90
       50
176
     1
 90
       50
176
     1
290
     0
176
     1
 90
       50
176
     1
 62
   256
176
     0
 40
1.0
176
     0
 90
        2
176
     1
  1
strokes_ogs.tif
176
     1
290
     0
176
     1
 40
1.0
176
     1
 40
1.0
176
     1
  0
VISUALSTYLE
  5
582
102
{ACAD_REACTORS
330
575
102
}
330
575
100
AcDbVisualStyle
  2
Thicken
 70
    13
177
     3
291
     1
 70
    58
 90
        2
176
     1
 90
        2
176
     1
 90
        0
176
     1
 90
        0
176
     1
 40
0.6
176
     1
 40
30.0
176
     1
 62
     7
420
 16777215
176
     1
 90
        1
176
     1
 90
        4
176
     1
 62
     7
176
     1
 62
   257
176
     1
 90
        1
176
     1
 90
        1
176
     1
 40
1.0
176
     1
 90
       12
176
     1
 62
     7
176
     1
 40
1.0
176
     1
 90
        1
176
     1
 90
        6
176
     1
 90
        2
176
     1
 62
     7
176
     1
 90
        5
176
     1
 90
        0
176
     1
 90
        0
176
     1
290
     0
176
     1
 90
        1
176
     1
 40
0.0
176
     1
 90
        0
176
     1
290
     0
176
     1
290
     1
176
     1
290
     1
176
     1
290
     0
176
     1
290
     0
176
     1
290
     0
176
     1
290
     0
176
     1
290
     0
176
     1
290
     0
176
     1
 90
       50
176
     1
 40
0.0
176
     1
 40
1.0
176
     1
 90
        0
176
     1
 62
    18
420
        0
176
     1
 90
       50
176
     1
 90
        3
176
     1
 62
     5
420
      255
176
     1
290
     0
176
     1
 90
       50
176
     1
 90
       50
176
     1
 90
       50
176
     1
290
     0
176
     1
 90
       50
176
     1
 62
   256
176
     0
 40
1.0
176
     0
 90
        2
176
     1
  1
strokes_ogs.tif
176
     1
290
     0
176
     1
 40
1.0
176
     1
 40
1.0
176
     1
  0
VISUALSTYLE
  5
5EC
102
{ACAD_REACTORS
330
575
102
}
330
575
100
AcDbVisualStyle
  2
Wireframe
 70
     5
177
     3
291
     0
 70
    58
 90
        0
176
     1
 90
        2
176
     1
 90
        0
176
     1
 90
        0
176
     1
 40
0.6
176
     1
 40
30.0
176
     1
 62
     7
420
 16777215
176
     1
 90
        1
176
     1
 90
        4
176
     1
 62
     7
176
     1
 62
   257
176
     1
 90
        1
176
     1
 90
        1
176
     1
 40
1.0
176
     1
 90
        0
176
     1
 62
   257
176
     1
 40
1.0
176
     1
 90
        1
176
     1
 90
        6
176
     1
 90
        2
176
     1
 62
     7
176
     1
 90
        3
176
     1
 90
        0
176
     1
 90
        0
176
     1
290
     0
176
     1
 90
        1
176
     1
 40
0.0
176
     1
 90
        0
176
     1
290
     0
176
     1
290
     1
176
     1
290
     1
176
     1
290
     0
176
     1
290
     0
176
     1
290
     0
176
     1
290
     0
176
     1
290
     0
176
     1
290
     0
176
     1
 90
       50
176
     1
 40
0.0
176
     1
 40
1.0
176
     1
 90
        0
176
     1
 62
    18
420
        0
176
     1
 90
       50
176
     1
 90
        3
176
     1
 62
     5
420
      255
176
     1
290
     0
176
     1
 90
       50
176
     1
 90
       50
176
     1
 90
       50
176
     1
290
     0
176
     1
 90
       50
176
     1
 62
   256
176
     0
 40
1.0
176
     0
 90
        2
176
     1
  1
strokes_ogs.tif
176
     1
290
     0
176
     1
 40
1.0
176
     1
 40
1.0
176
     1
  0
VISUALSTYLE
  5
5F0
102
{ACAD_REACTORS
330
575
102
}
330
575
100
AcDbVisualStyle
  2
X-Ray
 70
    25
177
     3
291
     0
 70
    58
 90
        2
176
     1
 90
        2
176
     1
 90
        1
176
     1
 90
        1
176
     1
 40
0.5
176
     1
 40
30.0
176
     1
 62
     7
420
 16777215
176
     1
 90
        1
176
     1
 90
        0
176
     1
 62
     7
176
     1
 62
   257
176
     1
 90
        1
176
     1
 90
        1
176
     1
 40
1.0
176
     1
 90
        8
176
     1
 62
     7
176
     1
 40
1.0
176
     1
 90
        1
176
     1
 90
        6
176
     1
 90
        2
176
     1
 62
     7
176
     1
 90
        3
176
     1
 90
        0
176
     1
 90
        0
176
     1
290
     0
176
     1
 90
       13
176
     1
 40
0.0
176
     1
 90
        0
176
     1
290
     0
176
     1
290
     1
176
     1
290
     1
176
     1
290
     0
176
     1
290
     0
176
     1
290
     0
176
     1
290
     0
176
     1
290
     0
176
     1
290
     0
176
     1
 90
       50
176
     1
 40
0.0
176
     1
 40
1.0
176
     1
 90
        0
176
     1
 62
    18
420
        0
176
     1
 90
       50
176
     1
 90
        3
176
     1
 62
     5
420
      255
176
     1
290
     0
176
     1
 90
       50
176
     1
 90
       50
176
     1
 90
       50
176
     1
290
     0
176
     1
 90
       50
176
     1
 62
   256
176
     0
 40
1.0
176
     0
 90
        2
176
     1
  1
strokes_ogs.tif
176
     1
290
     0
176
     1
 40
1.0
176
     1
 40
1.0
176
     1
  0
DICTIONARYVAR
  5
5CA
102
{ACAD_REACTORS
330
4FD
102
}
330
4FD
100
DictionaryVariables
280
     0
  1
1:1
  0
DICTIONARYVAR
  5
5C8
102
{ACAD_REACTORS
330
4FD
102
}
330
4FD
100
DictionaryVariables
280
     0
  1
STANDARD
  0
DICTIONARYVAR
  5
4FE
102
{ACAD_REACTORS
330
4FD
102
}
330
4FD
100
DictionaryVariables
280
     0
  1
STANDARD
  0
DICTIONARYVAR
  5
618
102
{ACAD_REACTORS
330
4FD
102
}
330
4FD
100
DictionaryVariables
280
     0
  1
Metric50
  0
DICTIONARYVAR
  5
619
102
{ACAD_REACTORS
330
4FD
102
}
330
4FD
100
DictionaryVariables
280
     0
  1
Metric50
  0
DICTIONARYVAR
  5
61A
102
{ACAD_REACTORS
330
4FD
102
}
330
4FD
100
DictionaryVariables
280
     0
  1
1
  0
DICTIONARYVAR
  5
61B
102
{ACAD_REACTORS
330
4FD
102
}
330
4FD
100
DictionaryVariables
280
     0
  1
15
  0
DICTIONARYVAR
  5
5CB
102
{ACAD_REACTORS
330
4FD
102
}
330
4FD
100
DictionaryVariables
280
     0
  1
0
  0
DICTIONARYVAR
  5
5C9
102
{ACAD_REACTORS
330
4FD
102
}
330
4FD
100
DictionaryVariables
280
     0
  1
0
  0
XRECORD
  5
973
102
{ACAD_REACTORS
330
972
102
}
330
972
100
AcDbXrecord
280
     1
330
0
330
0
330
0
  0
DICTIONARY
  5
B48
330
4BE
100
AcDbDictionary
280
     1
281
     1
  0
DICTIONARY
  5
566
330
565
100
AcDbDictionary
280
     1
281
     1
  3
BUMPTILE
360
568
  3
DIFFUSETILE
360
567
  3
OPACITYTILE
360
56B
  3
REFLECTIONTILE
360
56A
  3
REFRACTIONTILE
360
56C
  3
SPECULARTILE
360
569
  0
DICTIONARY
  5
55E
330
55D
100
AcDbDictionary
280
     1
281
     1
  3
BUMPTILE
360
560
  3
DIFFUSETILE
360
55F
  3
OPACITYTILE
360
563
  3
REFLECTIONTILE
360
562
  3
REFRACTIONTILE
360
564
  3
SPECULARTILE
360
561
  0
DICTIONARY
  5
56E
330
56D
100
AcDbDictionary
280
     1
281
     1
  3
BUMPTILE
360
570
  3
DIFFUSETILE
360
56F
  3
FBXASSET
360
E71
  3
OPACITYTILE
360
573
  3
REFLECTIONTILE
360
572
  3
REFRACTIONTILE
360
574
  3
SPECULARTILE
360
571
  0
DICTIONARY
  5
5C5
330
4F6
100
AcDbDictionary
280
     1
281
     1
  3
ACAD_ROUNDTRIP_2008_TABLESTYLE_CELLSTYLEMAP
360
FC0
  0
XRECORD
  5
568
102
{ACAD_REACTORS
330
566
102
}
330
566
100
AcDbXrecord
280
     1
270
     1
271
     1
  0
XRECORD
  5
567
102
{ACAD_REACTORS
330
566
102
}
330
566
100
AcDbXrecord
280
     1
270
     1
271
     1
  0
XRECORD
  5
56B
102
{ACAD_REACTORS
330
566
102
}
330
566
100
AcDbXrecord
280
     1
270
     1
271
     1
  0
XRECORD
  5
56A
102
{ACAD_REACTORS
330
566
102
}
330
566
100
AcDbXrecord
280
     1
270
     1
271
     1
  0
XRECORD
  5
56C
102
{ACAD_REACTORS
330
566
102
}
330
566
100
AcDbXrecord
280
     1
270
     1
271
     1
  0
XRECORD
  5
569
102
{ACAD_REACTORS
330
566
102
}
330
566
100
AcDbXrecord
280
     1
270
     1
271
     1
  0
XRECORD
  5
560
102
{ACAD_REACTORS
330
55E
102
}
330
55E
100
AcDbXrecord
280
     1
270
     1
271
     1
  0
XRECORD
  5
55F
102
{ACAD_REACTORS
330
55E
102
}
330
55E
100
AcDbXrecord
280
     1
270
     1
271
     1
  0
XRECORD
  5
563
102
{ACAD_REACTORS
330
55E
102
}
330
55E
100
AcDbXrecord
280
     1
270
     1
271
     1
  0
XRECORD
  5
562
102
{ACAD_REACTORS
330
55E
102
}
330
55E
100
AcDbXrecord
280
     1
270
     1
271
     1
  0
XRECORD
  5
564
102
{ACAD_REACTORS
330
55E
102
}
330
55E
100
AcDbXrecord
280
     1
270
     1
271
     1
  0
XRECORD
  5
561
102
{ACAD_REACTORS
330
55E
102
}
330
55E
100
AcDbXrecord
280
     1
270
     1
271
     1
  0
XRECORD
  5
570
102
{ACAD_REACTORS
330
56E
102
}
330
56E
100
AcDbXrecord
280
     1
270
     1
271
     1
  0
XRECORD
  5
56F
102
{ACAD_REACTORS
330
56E
102
}
330
56E
100
AcDbXrecord
280
     1
270
     1
271
     1
  0
XRECORD
  5
E71
102
{ACAD_REACTORS
330
56E
102
}
330
56E
100
AcDbXrecord
280
     1
 70
     1
 90
1959938040
 71
     1
  1
D2523FC4-AABD-4D48-8D6B-E421200F1238
311
504B030414000608080093645652183686E0F6000000A80100004F00000042333832353737422D454535452D343533432D393437352D3844314641454241343645412F4173736574446174612F446566696E6974696F6E4974657261746F7250726F706572746965732E62696EBD50BD4EC33010360C200606241E8081D538
311
B1CF8D8B84901D3B4C2CED0320379836929B547522D68EBC359C4578054EFAEE4EDFFD7DBA2F42C8F76C989233C409FD35C697D08763D7AEDB5DD87B729199386C7CBCC74C57BC704B5DD15A19A000A2A4C60A4585744E8151D23838C7BE4B840D1F7E8A635EF9DAA536C4E8FB304CE90689F9C6DDDE8F78CBC7873C744548
311
0E2704F92BA4BC69FBAB288BFC44F8F7C3E3B34F298C4FCC08C5655519EA9C7414A4A8E9122A49952D1BED8C8685D36C15D2301DDB9098E5928BA606AAB5B1142C28EC5CE034F09217455372A1D8B89BF26B6EB38C4DEFBBC80A364B783BF45BA4FFCD7E00504B030414000608080093645652D9F764093101000030020000
311
4500000042333832353737422D454535452D343533432D393437352D3844314641454241343645412F4173736574446174612F496E7374616E636550726F706572746965732E62696EEB606060F80F0540260323103700495E20ED9E9A975A94991C9C9C919A9BA802147031323532767336D175747472D1357131B1D0B570
311
3173D27535313234323070333432B6604768046931363471713532B5D435353131D635313332D47572036A3634373670367376B67474B5042A03DBCBA019D37FE8ABC6157B20CD04146B0062181F4C03F940F0C11EA29A8141C08141002C0426541C106CAC2CA046088033B02A030AC2157C6006F21A8018AAF50194E6010A
311
610250382264E08660284CD9E98021862280A91564B406929A0FF62C401E28B6F88038B83CB1243943D7A928312F25350524232F0091E500B2371B7C36B862F0D4E08FC17E20060A00810C101B0607046FB6CE4A3DF0E6AF734BB9D70307AF6967C19260A291E130E3C59818C7022303DDE2D4A2B2D4A2982EAF2900504B03
311
041400060808009364565288E57597CD3F0000904100006B00000042333832353737422D454535452D343533432D393437352D3844314641454241343645412F5265736F75726365732F44323532334643342D414142442D344434382D384436422D4534323132303046313233382F7468756D626E61696C2F302F67656E65
311
7269635F706E67355B773CD4FF1FBF73E71C0E67EF7576C9DEF3EC995D46C6A1EC5046649CBDF79E192942562825CE965D8A868C2842C8DE9FDFD1F7E7F138F7078FCF6B3F5FCFD7EBFDFEC41B196891913091804020321D6D7513FC77D8C5070EC3FFEE51B21F068154CC75D455CC028A3EA68992803810109FDDE5D5CEC5
311
521B28A1B422BF80741695D5B529DA1C2D058AD2388BDA9F476F7C2CADC939304173DBF48A452BF8A700C0C70C3D121C1AA15A5270C22E2B9E28763651F7DA0D12CE11077B2ECD0D560B5E3DE2368B1E65C5E1C87384A4CC5F2D9FB8BE39E9B77C753783A37998F5CEF1B4FEE553463245C9712270880DF339E0B882A6BA71
311
3D865F6F384C842D440934EF264F4A304F8DE4EEFA1E2BF5E2D91F5ADD9613D6E31DDB33ED31DB1D7916CAF091286EA3D31B9CFECB78BB0060245B943C4C040119FF780A74DD308BA9D028678674EB5504ECF284EE814DAED07440BAF649BE4B55DA2890F4D73E2D489A59EE54FDB0A85B59F2F52C4858A02705C4815A792B
311
0C4A996A2023ECB195073E115E3E3647F64243A8338F2000BCB58DA5692C7E7C3D413F963FEDF3CF00FBB0F831A9D51360FECA43819F527B89FA260EB63C5DA676830AA3626A3693B23F1A17A0DFFCE3EE164E31B5365EDF0C89EF64D8E38AB0BA9A1117D7C3A0EC44F44F4023095E80BA610DE336D0F99593A88BFC5306E7
311
2DF98F7FD132ED95878DF2964EA7E43071359FD83B2BDF9C6B5BDF768F0F3C0FC351199526F53D9460A34511F75D1B63E488178569472C91A94497807A3FD4A390C6558F26D416365C3656DE6E769DA9D8FC73774E1709812842DD8EF96AED1960F79D21B395CDDFE6F92CB4EB962A4668C76990E2EF29798C8941D67DA50F
311
4A5F947872460F1F6FDB794E8A29FD7AC0C0D6E0714339CE258FB17AE8535221E3464A10F29A0BE5EEECEFC5675926A89F49EB14E5711894F6586DB5754EB4D5DA9C6437EBA57DB97A24F8B8A8DB295FFD73266CF57E82694DF5166DDF93573AFE9C9C5EB05F8FEF8E89E0A8917B0B3724DB7BEBB53252581EFC3E38166BA1
311
31A3A5B42FE2AD00A769BBFA4458D2DE7822F8C4F63D0B8E21B285AE13325F3410A435C648C9D91FDEB109E73CEDA7BC796961AF79175E1A3CE4C5E8B0D009B0C9E29EFD98BC8E97554E3D8D838424E270F7685226E5AC268E021EDE3522D583E8F20C0BDE2959EF5BBFEEDAB32FE9A3ED0E39F211A86AA9DEBFC68182EDED
311
132AB8BB794442D2D7EA9F4D8BFF52BC4D55BB165124EE90A42D101E67BBBB292FFB4F66DE5BF2300E44546757DA7CEF8932BFC9F92A0707953491A55C5A5ACEDABD9FA1AEA01BAC3DC5A24E22E7C47213493996EFBC369D086ED9397C9BA6C7F9855C7BD5E15BFC8C53DB3D2A4C5901A57ACD2FBDF4D1676E95338B2C2BCE
311
65FDA4C64F5FEFDC7D9CA5AA1FCF11E193F2FDABF0F4916BF13FB916A224380E6462A9815F2300DC49CC4DF8D055CEF76462F4B7A7ACA7365C2707891370BC1D0AA6203C44CCAB47084FEC057F27FFCD57F89B8B9852459798A675C66BD7CE572CAF71FF7E6D7ECF7BF62CAB7B3F1107DCD04DC55A3F9961700286141C94A4
311
F771FEB2BCDA2DDEE0CB0BAE402FF1DB0100F8E475DFFFC074DDB4498AB7D186A7654DDB1CB680D703D47CEB4E72F8CB13D86A4AA68116E26387B93FD6738779B34FEDB8E517EDF2BAF28D9BE93A1D3A164320E07D42E514725C29515FF361754213EDE06B079A2E99EB1CA82A02019EADEEB87B9AF005BD04BBCECB14AACD
311
6B24EFBE482194A97DD32400685FF1FEF1544D1B14EFB1E7F08E6D2CD2AF52DE757F35F5E62332EE88EA26417AD5C3E0E319D68F25414E6D672BD4522B278C57D18F0113921C71D96527E091F00CEB15AE23D24667369BD3CEFA10C7549D930890BA4366F4EBC55F01F746109F98ABCDD5A3EE06619C6AD78AB33E48E4C9BD
311
21BF7478B385EC05C4F8987E2C1BFA0A60EBEDAA0AE0B015C2720ECE180FB6F2DEFBEB822D96338C9B63822183BBF52FB664A7AE57003AABCE512BF77E7E31BDA2E739AC4C131657DDFE5225E900FB56CC01CDE808FA4A9C9DA16AC679656BB64796283D89812B8F91136AE18EE5EBBAF47A73BE3C153EB5D4CD491B4BFB4F
311
E690A4CF9ABA08C0D8AA64220C438C96EA6CA80B58FE5761E697B3A292EB9FBDA502FA863E49FE694ADDFFF9D62C520BDD1A22014147A0903A05B9B729F54272EF83931FEEC057BFF8C8055C279EAC5C0011804828734024F6CFA319C9CC6867C727184465CD9BB7ED386AFFD96B294A85E3802FAE47244602D8273615952B
311
98C4F23F7EAE4463D9D638EEE374A20959E0FE519C4CFB0FBFE5DD80C2AA3F9DB961D1BDE57E67C9BB47B77FDD74EE3094F5DBBE3EBC1FBDB7393F5116263009E2EFE1AF9A221B2AE234C902BF70E9F280ED23E73908361565964333A3F01D0B006AF32FB21AA1316744B489D5A198E85299241735BE559675130955C902A8
311
ED761FC0DBE337A9F91919AF5CE32AF902ADF9AB2615E00E8A94586BA1A90839B61832FF1BFB76D2EFADE6DB1BA04CCAD3DA649E7E2A0219F592E22F2AD54847EEA8E42271011E9074F8F3DD9FBA6CDF88FFC9FC7E811AD1CA8F4557CE4AFC7BBEDCF0114A48689F20A584520C74DA8127124B767E2FB91A6B186246727BE6
311
3C9445BAE02088D58B8EFDC0F1072407CD9B89A13F6303B4A928F593AD489B58E6869325790ADC406036C591729FE14021F94B7796BB11848D463536A092A26F077F94639F7CEEE2A724C66EC885F4A24F8B8A0AC321F8FD149BA529460FAA34E4663C02D41FDF80BCA222D42F0ABFF8490F4FA74C673807C2051D8E467B47
311
B616072860069A9A303ABA9B319D58404461401B0A0F9BE5E1E151C14BC33B32ABE03DDE91708DFAEB15E7C0D593C86BB7D7EC17BE56E57975F077BFD5525F3A1A361D584A75E08CF29FC7B44B2B3085014F3A5A14517377C3F6B8F37E59514C3B12F8AACDEDDA4DFC49BE5710101534CD6FB6DE15B50F11A09472AABA727F
311
0C49D9CB906B158030065F48EB3625E010CEC1D511D0053474B11E6A4F01C0D6EF1BED3A944FDEC70E0DDCDC756C86545910E0DAE3BE3AA9A404574C2995CD5CAF9549226BC94B4F4F0F5F9086F418F6B32346464610D8BC7391D3C3A3CCF04CFC1FB2A3A3170E369511868F14EEA4E5E438CC73DB1F3248AA94B6B2FF33B2
311
22FF3D1E7BF146CAD229770158063BCE4F5391964DF62F7E52A7BE0EEA829C9E13C4C147D6F93FE59E111DAB5E4594D6F3CD1AD375EE039930EFE5AF2BB2D41C83C7DABD8C659BAFBE8FAB392CA634F3D15C1D945DB4588D2B0824A4EC928AAC565557CA2F0DAA588CA5BE30B3A8004F7BF005E96CBF891D7F18112A3619FD
311
F530DC8AA64954258E1811789B5189B49B4EB53F5F89F7D37523894F3EB57B373763C91E502F52CC99EB7BDDF933FC324C4FFC2561DFFA7339FAFDD0A4BFBE6D3A8FF9ED1FC49898139864602458968913181918F719CCF5A68B2EE9C1FF050E34E63107003B8120FA982C21B30A874E4F5E4B38D5A8290C4B8D9BE48A0BE3
311
1EA995BDC37AC6DE90BA17D259DEF53605D55922FEB1855D915B659FBEB350EE0DFB2F9F766E1C84CC8964B75D08667445EAB966015F63A18A9E0A325C1B3DC628C0D3CB60F767FA93CC65F25458BD23C3B312716E5F40E5858AC06EBA9AB14F95DB99147B832069201541D09A0D856E12C629CF32683760EE855537D19019
311
88D5EBC156676C7DD51D7207CF3267AF1D76C2AD867315E44618015313A98B19941C696FED3461CAA9B5415F918556D7802EDACEFD6B2E45853A9735DFC9DBF7E440F9319F8B6805A973BCCDC76C069A9144E51F187EDCC12FC31B5DEAAF0A76137199B106EC84ADA6B6EE697D4E6A96E007417F4E880E8B1E89B4BCE9D81E
311
F611E2ED8F0C1A6C25F620FAFAAB656A7C42D464880E8AFAB0E0FC8EA38CA9A8AEEAEE3E4648BA4680270A89743CDD3E6C6CBF34B7B640EFA285ABC7EA0A1E28F3CC963D114A80123EE66D0AF7D5380EB41909B605AB4765B709B808590458157E69BA1378FEC4B48CAF6A730E3BE3C5EF2DD1A5EAF94B1DDE50CEB55DDFD7
311
EE9A16747FA4B223359FB1FCC69E1194892BABB93A1D5C4E807AC0EA2E30180811E77A2291F6E7F7FAA5E0F60215BC6024E48DE436C511F0628B8CA189982D4D83CCA17D305A7E923C37941CFDFDCD93ACAF735EF5F0E61BBD3E6C41A59B242790D3A3BAC7064DCD89AA2E37214EC839820949D5CAA31E240D2948E48F6902
311
98974A96BA9A8432BC90F5071D6537C9666EA4564796B7AFFFA548077BEEA75F63083435074BA182F3699557397F71548383FDA8CA34D99B981E72835ECDA5DDDC151315173D05A21F651AAF8524E88209E2E7A737ED1045800CE3390050BCFB8BE588DF111617874C62575039CA588EEFDEFEFE319B739DE2EDC147092A26
311
2611E159650E787917885EF08F1F51B8F2D8A71D60B58B190FEF9541A1BE94BC19FEA50784DA1419FE4B0FB51B8D36B5FF8E1286FD8AF42B91E59A5F1CC4D60174E764045FD8C57B18209B217F89A62252BD20BE0E63E12B8E8F029FE19E0E8D0870F58721A557082250D5424F7909369376E41666C0EE77CD87CB283F661D
311
5FB6D0DA023CB67320A20DC7BE661E9E1BFE5463085C557DA1FF9BE835733766C3D139F2CF9E2208873AD0EB4814DE9E6BF2CAF81614D4D43906ED1C05A3265CABBFE192770FC2F64F940CB6B17B5F166F133C9AEEAD2641807C3E69515171DD74C4A85311513D6EC9530B3B601B6BA3EBFF3B5C3D2F7D69765141E345F754
311
33953D013ADDF8F6AA7DC3F4A7563FE5C7D367937E2900D7EAD0F9FC9A4A1A9B5BDF1FEF08532660C01C5D6DE22199AA774383E306DAB87E301ABB7D213887F9869D4942D0D71E94B27EDF216A318BD488D45DF84529EF575AF3C3938C0AAA0215B01994153E2054A0B894DA5C784980633AAD48576957CF4AEAEAFADC7C58
311
7368551C73DBE1E57C58AC713303A8BFC258BD04B51724459FF9E24C03A81E0E0679CEB9B348C0DC998FEB9C6D6EFA77D247CC8F92D3848599ED89A23218D0636465AD1CEEB7DC140D7426F83491C4E8E8281C2FB35240918FFECE880CA2A42D70E8B20B34DF5221C7DB0CF90ECCB9C745B37A47E9B716FF7A97B7A252C1F3
311
814DC7B1E1A7F72B8751D524EF7CAE45B0C73B3BE7D08ED39781B380DDFC9AA4A4749C9493DB5BAD07A6EA6C092FBD0E85DB004DF06B8C9D3089C5320187E4CE1846158C7EA7DDAE8AD9AFFF21AA3A1026BB06A259845E8232DEE62811A4DA9CEAB3A4887320B76E2AE5615EAB7BDF738CBDD01F1E64064BC13D9EC5357675
311
1CA8CACD58B3CEB0E6CA585BD089B2A59B9FC101403387AADBDBE70586B93D64BF3AD4453EF9C3B6A93817E8346991798601344F79A83C51F3D50F7BF2683A3605F51A72449489E0EE6169C749C60B1035651103AEE24D24E51A759C840DD3FC6504DA6FE107510E447B43461C79D22970B75DE5E1BD3007D1AFC619A4A4A6
311
9B5626AF5E9B8374E20677F77E2F8E73DF868E8BEC7EBA7B6A75EEF7205E1AB9486CB642741D6E03FF13FCCEDB1C4AC129886268B01CDF4B124AF797CF784F3C6DEC97A17D4B558070A0F1C04DA4FF9BDBF34159AEFE958479824B3F58EBD1E19088A2AFDE501B6F2052368A3FD0E650A179EFAB1561E1D27527077136E652
311
676C3670F42DCB3352F48F6BC86D2C3B0051727E41A0A4DC6CE2BE9D47F5CAA2935A3C0539AF080665997194ABECD723B08129CC5B6B21D2E7D54CD4D12610E7E9FB8306771A89576C7A982002775ED44F3F744CF21EEBB27A631671D921938AAEE3EB0D19CD1E083727F607823E817BF599DCED5394E37EEBC2E88782E638
311
920CA641EF74D4CDFCDEF06F4278ECB18E31E7E9876F2D783C8BF429C75395F57E98C2B495A3DA077EB3AC3C158608B6B57FE3EA48484D9A480096FCEE0DE880950E7E5A5714131C5C41AAA29FD19AE81AC145FA1B9E85C7169A5AB837B213493DF7E9AA4B5FBF9CDEB36EBD21EF1181B7CF7366AB2A951D01E37AF4EB835D
311
1BE8C117CFBE7625D2EBCDB0B20C5A4B45CED0BCDE3EE8DA9DA78C2E21DEAAFFD1197E463C33CC6A80FB785669B856EFF7A8CCCA2841B5A5369173320B1170C368B2748D81062EA0296E5E2D95D7667A4A46D98A6FF475C76AAB0A8C8D45E226FAFC9FE0133EA9F60111F99CA81ACE03A1D14C89E8B0D69079C91464FA1D99
311
E651D0EAF606F345C42A8A1AA9BA391031582B96D5B4176A77AADB01F12FD298A75DEEBB2C82F0B8650E880722F8DDD90C56A7A058E5FDEF1AC93545BA27367C76F5D8F9690CB6F8DAE141EDD7971F0FB548A2AE435F224D6E5954CA155512F7332029D5A1230854B79F258EC5FFDB09F5F6343A8EB193229B7F7E79B3E48F
311
8E183860B38C8269D1B53738FF1E0BACF6AADA6D4869E9DE708E79B5DADCC09B1BC76F649731CFAF59A83FD8BAE4C749D66FA87A3810D4D62FFE826FA400C0F325D2BC0F3CA35F5847B82A2ACC7961745C823E4D863D54460AF792CE6F79B5C7A33B25C3AEA6CDE15A919B6367D781E9D44F61BF828672594A3E1D9EDD6DF1
311
79A81F27EAC05B936575D73E05C209DDD2115CFB705DF9BBF3C911589B3640735E9E618FC9C36A7326C82B2205E244C55D56FDB9D5DC93CE958D4BF8174D2B3DA54CB3C09F2C2A6DFF73D23B2197355761AD421EC581284A7EF8DE2CE3497C0C804D49B41DFD6A7360844E5BEFFB495CFCDB97A4595911CDBA623274CE852B
311
5E278AF0BEB1770E9D37CD977B2766A7DED0E94B840E1E95E8C77DE5CB6354AF7871427C28ADBEEF7BA0A28E19DE9ACD75F379FE373EAE6DDDAE3834692F9C2B03B4FCA8FCA9ABE8EEEBEBB725B88A7C90941E850682CA04061A7DF0CE82ED49BFAFFD42C309818FAE14755CAAE78B0F73243ECCCAD7DF58FCB9CDFAE7A4D3
311
E6671A613639130D056C8383C8F4FCF4808C331E544DD26E4755D09EA05253B3049A1E32587CC25D72E073E2CD96D04A71BBCB0038FEC3F53D254199C3CDC67CD66640269431860225392B2CB3ECD0B4498AAE78BA1994246AE1EE78F2EDFB79F6C6CB6B5E279C4D373FBC21CB2698C9ACBBEB6A4BB6B39E16AB0E421CCBFC
311
7654D81ED86022F9BB522146F9F4772E2D0E4FA70120C95A85A417BF5078B232F4754363EB1750B2AC2148EB46B1EA72AD9B4D23ADCBC589D70106C3EC2ABEEED84DFE28E718C6C83502C28E9FDD3B09DA0A6F6F7B72B706A31C9E2A331EE70DA56A083D2177BFD63C55B11D8D949FAFCF90B23A1E24B9B5018B9A17E99F28
311
90EC302F330FE7936E2C23F0D237EC8916F5166AB84B62A21BB0B950146962D754F92CC2C8877BED8FC7B7B25726DD19545392570B3A2C66B58F027BEF412E552D12A588C4A3CC5C3193FCB3485EFFF700D0B9EEC077754A33DC1FB9E25AF814628F91DDFECB667D3F7690803F38D13F8AE39353523BB08FC6760144AFA2CE
311
28236F65EDBB3D5F59A57D612B99E3D7E5F8A851666BF9B5A6658EFC96EEB37A378ABB0EB3FDDF1303AF32C41BD1C8560745D7BD81066B0D6313359CF488563D3BA3F8E2185D1FAA3EBA1397C9D0E3DD232180A4DCADB6AF25DB3AC3CC26589C8239E66E81547BC7E2F328F9884764CA37EB5DBE390DFC03A5246B456A7C36
311
84C4377D0EEF9A350680FA9A077E8B2957B489E09AB1AD41316944C2254B5984830F691C93CAA767EECF976FA5647538830B5E63236A6F0365C1E0F3E327F24FE35EDDBD7360B0F7374837409F7A6311BECC12B7026D4FA1AE204FA3F5FE904B1F420C7A9044AE58E403E7C4848E7DA25DC9EDAC79DD756FAA26B9EA83ACE8
311
A214A2612A22AFA19DAE7DBAC5F8CDE1292A485F98DAC731A29FE01A3966E96BCB9FB5A4C8830E1B9AF0C54B87FBE221A097036E5D28D1F869F810C06A9BB0AC0612F69AEBAF893C6E7AD59460208BAB3A6B09CA4F6BDDAB8CF0D1F84B72487498395A70DCD754796E271099A567A55CF242BBED64696378BB6CF25EF0FCDB
311
589F3A82F1116D010A9AB9FA4358809EE0C973A2B4229BAA876A70B03AB49CBA7FBE71DB1832FFD32F9BF2C8E98075CACAFB36921235D0F552B6A67E94E094097A5D7DF681B40623DA535ADA7A9AD8E9A62407D7C9A5AE51D62A17A83A23728DE86BB56115804D3F2675F2C6B87541A0FC497BF0CA86420F558C9859EBE9FA
311
D62747E323E3AADC03FDCDDFE7407B09DA90B44E3185723C5381EAEF589765E2F7A099BA46695BAD60CEF3491B8A171F5F56444F7CE9455312C3498C74173AEA0214EC029833B34B650CBB5A5508D5091665309642791708ECF27CF11DB3D797D6CFE474453BD4BFADB768094B2147814D81C7CBAF8228DCAF5564B5891F5E
311
F6A860EB2E323CB82AB868D8EA048880D63B0DE5341F1B3D53297B928A11E15F25E5148990F710747C3509ED14909C552EBE3973246FCE55D00564D8310BC3EBC5085D08D806799B77D6C57FDF5E55837F9E934F09C03C729271B64F12D0A9F9E938107CAF7BF1EC8CF1BB9B42363D33070F4CACB425E605DDB0A34A12BB93
311
6DE286B9887A4E2E558F0886498BFF49C311D96C277CF6A9FC0D75AD0ECC5226D7E0E3572012E56D7FDE4410CEC7A6D0F997F225A2055B8B92E3956E875AE4993CB3D4C9063AF98FD45E1BAB165640A43439A2C9181A7C355B297C0A0CCFFAE19B6FA3C2BA238A885FBC98B8F6DAF4B94B97304878DF4D8BFF6A4AEDF79E90
311
ED4E68F00CD7299F4E0D83E35601AF0CBEF18C1E870E74758FA91F5131075004DB3CFCF09AE1DABC11957FD9808C92E8A678CE9DBE40DDA0E0D1D505AAFBCBA208232BFB6FB3704E8985E61ADE53DE74152F5C7DE74B1DEDCD37DC3E8FB30D7EBA8B9EFFC3606BF90B8D438279CB7709FC7C00D327F41817EEA71CD9E49FE9
311
C8C9A81C70915D9F0F15958EC5AA4C3BBFAF46986B90F188BDB24B89DE3C6F29EC3E6F66D84856EE96A35E657CA41B41EFD8DBFA16AD6E91439EA92B40B21C053249F51AE50EB0B24C770FFAF40DF12C8436366819C48E36547D4E7B72FE2BBF10828583057814A668BDF183F6B2E58DFB151103E56303E63D00F39C27C466
311
1605DB644D19175D02E3F0241E8FC3458D17AAAADB117CE9EEA690D0DB01E634878C04C2C9310B69FCAB831151E3AD293BEF6E46B0ABCECB50F5939B39C613D41E81FAE8D34CAE3C4566B761D37185FE864AC32FCB71AEF39DAA5BAB88609BB980CD2F07A8F941653B529567726E2B2A58D079DD57E1E5E31426CF184A04D7
311
B03B985F276D47406AF276FE32E3328BA866EB1FD39BEF57863A317634AA5FE467409B3873F5069EF0D71AF00AD189D17BA1974ECDB2D623E9E14086386A6AAB5807825C37B015BFE892AFD154920EC437EB945D958E18622E1E0FE2FA06557CE4BB9BBD05A2D40E774DA2B65473791E314B7D6C886820B2FCFE4AA272B3B8
311
B15E7344A145E8AF919B5454D89D36D413E87211186BF6F645E5EC94DCCE8E1C799022E4EC9BC86D7A0F2AFB1FC4B2CE48F84B3F49ECE65BAD24CADCC07EFF39AB06BE9E6B27A059938EA7208838455383DDBCFCD967DDE4650EF92A14FF933C975DB20BD7FEEBC4487576485963D757D16340D9599FEB362F775F38CA4185
311
A86F74B629C81B133644A3B18FD056E997E0734F9BE26D11C0AAFC669E2AC9FC41D281F8B2E1C35AE27BCE05F3DA295488096688719D974DF1B5D182DB7792288697F8763CFB43562C1CDEE11C4AABD5C22B6E33F6F389CFC3477C5919DC0D533F8A7A1846B7ADB60ABDC26C43D0CFC8910B7C15EE22675BD02702ED39DB77
311
A87A192CA7A543E6205B979B9F5A6B512A3CA799E198B2D5797C0AF8D1D872CA455D4D431A7879D4DD76110B5FF7F4176B54477A9EB5E4A5D11214FDA585F0382751D8E2582BA5D2075053298FEB8F1537304E32CB22C2E2B693DC0A760B1DFCA751BDC445AFDCBB12820ED85F6D5298933C7EF1211E9E057684056CDA3FEF
311
3BB6052355E162DF27C59E965A8DDB7F9437EB72CDDA3A090DE65A5B2F50326247B7EC67B73ACC7047FC9B353D6EE990F772207C6EC52B39DC2F3C0754821DAB559F7C1809C7D0DD5B0499D0442E0A6E391B3D5DB46D11E731E6794EC77523FBDAA242ED67F9FA1FB684255671F63C9BCFE6E7E896D51001A6113EF2298BA4
311
94E0B0980D1FA5B9D60796554C02256B1E0345FB7C6186B6A19D2DCA270416262845FA4F42DB5D9B0A0B6F07FCA2E56C242522E001E0CEB734AF310FC8BFB57E38E03AACE93B3326A2197891E68452B26A6307FDABFEE0223D3C03C3C73D2D5BC054C8311F12004CAE488E5C29287F8156A2CAA4AD0D7BE6B97264E4139F43
311
7CE73ADF52E5134C52B819777C18B323A5924E4F67AFD13B1CDC3A61793A79FAF5C0CEB718E441071E797C6DCCB9EFCF7E4A1E9F3DF3C2F9C9E8294E9586868788C972857FB0556D7A26941A7EEB9B580AD78EC40B85DC906B4120A563CA3B87797ED612D3B035962BB75F6515A393F4CB057F564CDF54F2E5A024514E6A1F
311
901DB80C7E70B1FC05E356A7E72FABF4775B3E3FB8F70A2A8E7B6A94542BB304157978CCC999E707A29CC795E67A59CC546A5D47B368954CA7B6E75EC9E1F6FC73CE3B4F71F8CB1A6B15923D61EAAEB14626AAA9D04A26EB9C66CD1BE86CA31A5D8703DE04CD1EBCE4F5CCB62F93909AD11E55799A781A956ED27D3E738F45
311
38CB04ADABC7DAEF20BC35BA6A90BCC1DC61BA05F20D8832FFB9BC9B15E2DB838A0AFBB7E0C82A562127E0446894F427794C3037186F622BF24DE1B00AA10A23BFA47B2A180D6DA5AD6F7326FEB8C100C2D7142EB2A0B2A9D1008A09BA343D70E054AB69E2A7EDB783CBD92537FAF4A44D1296AC2792729104B3276C276C95
311
1D0CF3CF3F1E6B017720A7B8505A5FF9589365979678C36F1BAF759EAF57C60F1FF5FE9DCF5F8E764FF25A2D06CF25117A8FED51884C13B2B750DB0E4F5E3D64124FCF11F0AD8F1CC3B3DA4B38ED22BF1CB2585EE6BFEBBA63FBFD44F9537B9B37BDD6B358720F98A8125AED4349CCFEB0E135F19E208A04CA7E2B10711185
311
D72E381F448036EF57C9F874E54A971CA37A639E986AC0226DC5AA00D5B14FEA9192234B3DE617814FC221C92F33F1D392F297731B567FD98FD91D989379AF567A65B8ADF177591DB90FBEA99BF4ED11B16E50A0AB1DBF1156D034BBE04D69D08F939D8E92BF525A1DDAFF80ECBC95D8F45D3FDD289FD23F7D8B452F8EBB34
311
EC082DEEE68E18EDDF072060FAD2AB1504DD4879BF67099FC58F6E9DEFBF645D16334A3E9A127C6F1AF6132CF287E433B43A0EE93812B4AA0B194E03EE3FF91EF9C6ED0074A2F6EB18A96A7C9890B1FCDA1F2095E944DB911ED54C60DF16FB74C8CE9BDC7C54C4F14078CF73C2FFF1F1BBCCD7CF64F71407EA1683DBC410D2
311
26627F66E509060D5C0AFD611DE681D509DB8DD12FB1265B03C6F5C55FF4C30BD94187FF692B4F152982502F193098A789526A038AB529A52BC0DC4FB6285CBAC10A8B8DB75DCD9BDABBB221E27D1F8DA9F5EE5926A1C8AA9BA9BC09239C6A7F12914EA3B59EFF7AAEC3FFCCE56F1C5C2980AD072793527565E774F4631DB1
311
78CEEC691B1F367BEA0CF2907E1D6B854D527065979DDEF002D8B2ACEA7CE21AE297737EDE1D45B31233B73FEA35BCFDD0B09721FDBAF6432681F2FD10C3E9EFB246FD6E854B344ACC9D8A0EEF876A7314B49B6A499FC650B099D650DBFEC7638ADFD245E2B7839DA5AC5F7D5623FC0ECEEC8653FC9B2BDD1AD4D00A566FBA
311
7186DD3C9CD26512551637498CADB950FEC71ADB9A5524285DE328B8EC7EC75D2345AEC6A27C42AF6D9B92155315C80DBFCABBB7DA0FAE425C4FB896B15C9BFAC4FE67DF5A23D30C93DA4D8F36FB15D100050DA6062E22AEC5F4DAC4F6FEEF97AE05DE63C6D38F9E068A20BC5E3B6BCD75320C5090924E7F93640A7735B1A4
311
3451C2D91EE62C6238B797349E59890AF3A520DF4A87095F3ABEC2E61F0593416CE46CDCBE0E00E2523FCCD04408588B5B6C9DB6459C786CE378770B54F51DA3A5E1DF2A3349BEAAC234A6CF8993B598B3B25B4B113E353A4D750FA7534749430F3EBF2512E7EA3FD43C6AB9A1F765A58463B306721A15D224FAFE8C6F5E34
311
32D57EE697DA0DD5A9D4866A8BCCAAA9DFF1F06047851408FEC060471D0E3EB86BFAF46E4B5E60311DC3E3CEA147C75CF971BE74689507154FF2D2E92F15CDB2B9182B11459FD8ACAC5A85F174BC94A7F4EE4C4F5CAFA7C02E37BF0BC77B7DCD0C047BC316F562A01A441AFA7931CC84A28CB9F4AA367EB515778F29BFE611
311
95FA671F4352E5E46E3A64773F1F76EE5EB36D7BCE9BCEAD837A4D77F8DB8C92AEEF6711920D7C7D0F76B0FD0EB7AB83724CD35BCA7D36DDDF5FBB7FF6F04A91F3E2BB3B8F1A43CD659639507FF6331C5F697BCC782AE57D757A27D97F1AB9E0AEDB43F92F1B2AACDF5FEC8ADBAF9F814E2027003BA2F9E144B1938A7A0405
311
0AE5D953B82C45619165C813A10E76DD6906B3C16438064D14CDA713AEC420034613E1AC7241904A49FBF87409AFB1FCB9B72FE7933A87D8FBEDACECE4EDCF6A4FE9FB94D5DEB74FAB7CFEAE17EE965DF980DCCA2D04134994F9A2E94D2265DA4FE6AA7B7AC15FACAC2B5ABBCD7DFF542C5314FDAB2E1B9D8B65220B8E2B63
311
8BE008E8DCA22678C820C5053664D15E89F2D735B51A84955E81A443545E9FF787BE0FA700A76D136C27DA179A7C6E8939E01BE756E19CB292798063D8B97F44E8A27BCF3A614FEB8BE974A718E86F7EC99B53CA35FA24F61F2B07266684623A3D4CF073E511F3A10A8FDAFAF0078C577F4DF9D339FE7862E5FA47CF434420
311
9E5BF76D783B1B48E152AD281B15FCB934DCDA49CEC5706B1EE8B460F435324A5CAD154725E21AB8044B75A557A79F6C807B9340AA3D92503E866F4274412926C8C504E4D5EF8C0E68DD0B028781A6B4054F11CF18941F101C57CCC796773ABC8DED9CD91FE5788806C05E548895354AEAC96546D55B0E94A59F148D061F42
311
AA398D822CDECA4CDE79E13469BDCC44FDC990F366BA5978C15F97ED80CBFD73B0CD9B8B83A4F6845BDFBFAF034019473FB9A63BD55D3A4A7284757071574029A4D016DCCBE95DD679EF3C4880BF169422F8C89B68A988D2B13793CAED4F74DE7486C72DC94DF46B8E93D8E02EFCB1FF9B3BA10C8AE7F653DF94F4AF466CDD
311
CEF5776687F7C4C14B63E4EED1719DC2EC482D7DBCC7AE518CDE3D5FF86D39000EC3673C0044E1D308BF05F74D1B5F033A7D1BE7F74BC55BBE3E4A20F920946CA0271EB17BD2B80E5660ACB8A29A79F5E4BBA49D4D945B6EEF4A7EFEAA65E5555BBB57A7E15D2F83C69F30BBB978D2B39F1F26FC097424D39BB33CA3D87ABF
311
64E307938B685BAD44F71556A30B7E712CA4FE600613C3E554B69ADE949A7CFE214DF1FFF05CB82151EC6FC31950239F94CF7AD39DC473F6EA356E5EC2C4EFA04383CEFE985A127484366FBEE3C0EC4FEA363E4F6632AE781392FD45D67B63FB8DF70E82734F431FD3443172A0E30A83D60982D55FA6A2CF86DBA8382502AC
311
C6CDEF3B907982EED1160E14863FA242F9757347E1544275CCDCF71ECD5F8621CBEA326B8BA884AD7F825781923E66971F04010D574C541D8427A438A37EEF8AF88240EED7362C953F5A81DE2D56109CDE2524EA0F5D2F87308C0C47BD97AD605878AB8589E17CA83930CB5E0DCCD75853D68B1AB136594926DE426C367428
311
E9334AFAFF90ECE221BB5DC9E5BB53D2CDEF954EAA9CD814F0E5725F1965DD458E5F8487683AD86B9D0076BE3EE91EB1CECC5331A67A3F79D8B27587C12EC2A6A70474749F27B4C0BBAFB94B34189E88DC18964BE4121B9137FD516C7755356E50D6714E31ACD222621EBBCD1CFF81D87479056A9DA0E0B8EA19D24CF937DA
311
89F78E8650CCBDC110AAB6C4E46DCBFD0446BA9E2060E81F314AC2031E88135E5476AC0160EF5C0DD2EEF1B8B5CB2D198BE9A554A9093B5F7D7E4B5407DDFCA1D9C152FD97F55BFFFDFE802954DFEC8995B983E28AC92F1971E28F531DC407A1280EB125F64A72E617EFB27DFBCEDCDA2D6F2BDADA36873EE46B9BE1782998
311
C63DA7182BC383FB6FD15DA472B175D7E8B4FC88F38D6E07FEAA3FA3CBB8F6B449ECF14D2175E5C5CCA3A42ABF24CA6C9395AF74535F4DDB38CB84F56614B0FD32D7E19CA5CF988DB4449C40E23DF2B16772594554579094450F56F253CD25EA7F77366FB1CFE79696C428BB64D5A41E986189427E5E4D7E2DAE3D5BB4972B
311
3DC44EAABDDDD63A2264ECFA5C786EB0EE1FDC5BE34FA0F08376869FD1E61EA06CAE15191135445EE8F0394161C3266A596AA035572BB0C8876180D8B9C77D307DF9DCDF7365ABDA6F3A2366436457A4DFC1F259666569A9E4A79C817BDD5610E5200FCE894A358EC72858D50EF67545DA81C6FACE3D457BAF70367E1E6BDD
311
9A952FB4F56247F58F523B97E640246051A72F79BE42FFA0B3187F63097F91C48B868586F714B0EBD5A00A8412C1236E1298F60C72BE6C96B82B404CADAA304AE9F303176B14BA53FBC2D5E86377E35542019E24D97B96A49B2C0E5006E7795954DEAF5DA58958839043C6C70BD3B1B33B6DC5C31316D8A6923F142E26F671
311
1A2258AF977DDF1F970ECC4F1F2B434B96D81BEB6E89BF3BBB3C7C8CC80505070723D6D7D7D3C8CA27CA164A26024FED94B12A86031867241DA53D929636DA600F050BC40CE48B8BA03D69224720DEE2ED2127390BDF5E6EA64527BBD4C4C63FA76BB801FEEC0E61218EC98A8A86CD8313781617877E66692839B9468CF4DB
311
8E50A73986E558E309C0D6F676F921BE02F1185454DC75B111572FF9D27D85EA14C05AD7271225B391C4275659CA4A43759D0BA44639BE4C30A84DB7F67A41399FB95CBF923B1B1672ABC807C1590557FB18D811983FA97F5E609516D62281D38B1281F68FC75528C35E4CD7DF0F7DBB5E5DD69C414EBEA2F4A5B241B996BA
311
77AE6C772E367408C633EA3E438B68563EA8BE7667F3A4C4FDEEA52ABD78A2820F443B7914A15F180018D231E64519C56A12F6CA7C8DAE18F06F6B769DBF92329EF6A5D18FBCE600F36BD8E8198DE5CDAA96181F3A756EBA5501CEE58F497EA4F418A2B82565B9BCC611713C0B708CCA1F398B78C5F7D03B3437CC18F13061
311
F55C7BEDADD5ACB1DB0E36D3CE47FF6EA1A563A57E9649EA5D14D1A50EAA457463381C073777EF1600607BAF6428A7DDC079D47A204EF1E1F1F0589FB054D45E02CE623B3823C317C601E589E22B1E88B448524B86A82828E32345EC18AE17214B42F8C41C6D428016D9BA31DDCB47572561E5A402E5BA4FCE55F78AF72685
311
24AA04130F3A20BA5D1E9F9948EA48FC8F5314FDB35E21898198060034ACE5E3E2BBCA34092518F275190AF65F45867FF0900AA4B81F25427414C372BF51DC29AA855C5428EE1EEDD6B849AD60F6E73475C2D2523F8A2772C840A478DED18A8C5C91B085F255DC4F54EA7AA8947354FD17ECF8FB3B4A0DE7B483CAF3A1165E
311
E05BBA413E5C1FEF3DE1D6B8F2F3F3251C17D9FCAB48A9AAF63AC773A0E413BBC46A9ADF84A566FC920E4D8C52C9769EE3301CADEEEDD92B312E02E2A7E35B7F1E7D203FE5A7D75578B06E99D0E46FFADB8FDA17ED8880390DA29094202D6F645F76F6F96409CDA05495A96E84B04A00D1A6C6C81D7F3DE9376E828CCF144E
311
E50E364ACCE7237EA0BFB5607ED1AC3CFE73794E5B61739D14DF1743441B1AC98F00ECEDE9E7301FA29755FBEFA68C91EF2B314CF510537EF1ABFC9A762496280B546F5EDAAF8A5B387D469FC9A878A92828C88608453ACEC6094DCA54111E7AD5B2663DFE2DD151B7F123B9F4FEF8EE36AB125FD7AD52A59B1B765B3E3F73
311
E3F73DEA93875004D2AFFE3CDE9493B87A9904DD052028949041A91DC0E1BA47BA714343FD5B25E0A6A09503AFC17C790058A836A324FE31D7893512E28230332F153181C1E018E1124EBE1BA262AA428A518237D1EA7275E48C5C561BD19ED6912EDD8367DA0F31E40EEAE9683DA9257525AEA7B632B97119E17145A90231
311
768A4F3B9120FF32E8319B015E3CBE26F1A754177D8185345817C096B0CE443A955D13AC15E1FB5DEEA0239EC32A3C92241A237B0B02FFCB4F93CF2B02570C8D192E2F2A68CEEB42F12E6F8CEEFF46C251E22B4341C56FB08CCE550E7A9D6F4D6564B9EA52A83D5BF2C6E03FA19D2775E15A8A7ACF30A13C259EE7F5EF2AC3
311
BA354F1500E1A07FC63FB4686E2F12EC69719F9ECF5FE3F35598DF2CE944008CE78F0911BA5BE5D0A34E0098FF038669C26030BA9B300303039852A8F6F496341737CA7E0D2E3AAA36DE0A70AA7D9CA0D54D9AD84B18A44C9E625475E1C97B93BEBB38DCE7D227E67A2D00F531436136355F243D1FC0D712C5765754FA22FC
311
FFAE97919161F46D6E61ACB37D83777B385889770B50765B127768443A5C4D3A4E35A3151111F146B7CA116F918A049F1C272F2CD7976C69A0068773451659A97E0F4A08FE604C3FF6CE7385DB19F4D3ABC8A0D80DA8A42096AC377DB49382B36E270B6FA7570188B4B7D1DDDDA82ACA487CCA5D38BD3BD039ADBAFA4ACFF2
311
7809239B722081E2EB9F145320553D183F28471C388BC8814E5045676767AB58A8E72D1CED2CA731379515D2E533E4CF0B39DFC625F97AC4836831A4DE330E87A8126FA17EBE583D614E71E22A8DBF2825599743E0640037303E8E1B1E8EA4E1ABFA4F62907B5E4E0E5DCFDAB417C36C6848A2B8D15F1E505434C0707E16B1
311
CFC2A1C36A42BBF55734F8F4301DDC2A5110CEE8C0747F69519265012A2174BF4E955ECD4FDE095A3ABC70536B7AD0B9D7892F81287D667C108703C9B66A221E9A0929D030008F77FF6F5D2108EF5706FC87A3069B976F7C9FC3239D13D283CDEA83597461079FEEE049B0F392889898B7D87D31F8D60ED7B56B91823A8E4E
311
DDB36C6172ECEE42BD42B12CD67994FA0F0DFAE9389356F4CD4425A4B8AA55CBF7ECD585C6A2C2316791E43D5C06841ADBB226A87FD61515FFBB0167B74E56BD7F3E90A57A97FEDCBDF483A0D6699A8C0849CAEB4947FAA90D8E332D9DEBD9F4738C37DA0CAF9CF3DAA68BCB67C420459C7A64498D6E848E5CADE92BB6901F
311
607AA331104A67F7CD650EE169B1DAE94D2C31C2F993632259B6957E246EFE4C5481107B07118607700040E5812A2A2A38DA0076875258C753F60E0F2662C748EDD5F3F3686B8FC3BD6FE631ECCAA1E8B1C1E565AD117E54893E79F4672E32F9E46B2A183DFDCF3EECB4D4D077DBEA0DA254D256045109670050129E9B9B1A
311
9E4A11344D61497A992778095151510C4BB7EF2009B63AA4360635312E4CF668B7E0D3D85A8688E2BD83B569439892ADB63461930D428E0DE42E4AC57CE48DA5CC1449530D8BD3D6A0F08DF20C8E8F570F2CFFFCEA286E30969B4654D498A58D9DA782E19FE3F002181838925592C4A1EF0B332D88B61A92C644547BED490D
311
3A42CFFAB70E36D961F694F6307F72FF15A1C79D5B1B5CEFD353D9E2B52566DEC8F8F09CB3E8359C0F68EBBB7898243E34E12A015B2685AB303C04D3A9E00671FF3DFF0A184E4A2ABEB2B666AF5B3A209C73D8EF29DCDB069C9F391EEE9DD0F74C7BCDE16F8F02E3B8816122BBEB50665775B600549D8BB33A54A6BF940C02
311
8118BC6878C79958D6784F9DEAA6E26748386FFAF8D0D0101E2847B6563F5D8DC1D78F787BE00E2C941AE12148D4A81599FE8F68D4DA5CDED75530ADE138240300EE13B0FC13A1687FED6774662C05A2B7DFB186732F0D7A93545D8B0A6390AE5054D9CB582DA846D7A061B3358B45E2B52DDE63E114397EDB7E09233A5791
311
55D795BE76102CF277F4DF8B188C4F2879BEAE3C08347124BF9ED23B128259FE107D31E34A652F090B30B39E0D9AF917B76A2806135621A8A60681F16AF216514BBD02711585B5B1AE823F4B2D0369EA5B6BCB863072727FFC871CA6C9AB79A814D989057E9470A3D238BC87CBB4A0EA49AFE2B86F22E499793CAA90470804
311
50166BDC357524561E258C77CB697F1ABB32562CF87C3B7AA12F911EF19FB3E5C02222E887D08202A60A17151F5E053A86B437771088B4FEE14D652C43E8D939995D34545E12E2FF93D4E366EAD25F10CB7DED141563C3D0C447AF06078A91135FD4B9611583CB4BF3BD167F2399CEAB0E0100F8FFC305F00F171171717313
311
8B4B48C83022295DE657EFEDD97F238ECA80F528AFB4F8D67AD4E2594B9A3AA86D7487EFC313BA95745C186F0CDD84CC12DC9CB0424B42203D351FD9C0A3AF10CC7F388E0329279087386421F194F4A29464C1DEF7EF8BE515E4A199DCD5B909342598D8FE6A231F71336248D5CEC5454455C7BE383B3BC7B260FED27F703F
311
DC39A170F3827239102F59D4DEE7FEF82EAA1A5E4BA94DCC4CC44E7E2EDE20F24244E4454369D2E87C3F823F193FD4FD27E1C23984B01898D15ABC20711A8A558054951A6AE280096BA36CBA439603B7B0B4C45F248C14B2383B4B5CD8ECECE4FF859AD4A6CA2326D020EF090F4041D28DB66E5256B56232CC52829DE8060B
311
AE6BBF37D4B7469B822454FE93210A3E8D15E69FFCF01123222611C51C4FD0A041A0CFA2471CF6BE38D2B20FA4C3525B5B8B586759475CF80ADFE67A284AC24651E52B8E683D24C2622642F27E7C3C22783BCF63648BC398BD6CD0D9C97E7E7E3EACB6126DB7A6C1FD9F1031302EE67ED96F22B77C7CA0239BB324207559B1
311
05E4693EB26EC46182A92C9C0DBD24F29B31C5C5AC1F84300E0E17CEEAC15F5736FA4A98971E2F1423BFCD68D4BBD5F86E74B40A369F39507C88FCDB35D2DD8DEBEA4AF999E23CF2816D204200DF6E611781B9884C1AC8888B4DE397320472959434323A5A36B22A8E1F721A270DF3BD65E4A31C11FF048AFB0D8B7B688142
311
3793963A23CFCE935FC189ED36FAE35C46DA3574C979E4394BE52084F3081837BE033396D2EBD80F1F691B273F660D2B32FA27A33B1DE4ADA5F0FA4651511102DFA410DDA86E065272CA314D5249DF91B06BB92807B28EFD54F08F7B525252782CD276DD02E6B0319B13DF87B1F6361AD6B28FC0D711CF445429B9E5A433CD
311
493051C49A9E03DDB1B147D880253514A5DED88009018620EE229101C041950E2D8AA8E1F5F5438E0C0C0C60EEDEE9E3E0C051948C69F84BB7B2A48A1F3C8EB9E6864687F4F4F6F6E2FA87608ADAF9C5E117B7C1A737E710769DA1D15ECE6A84502AA855398712D5FB51BE92E4EF824969CE18278798AC303C2C7980DD2500
311
ADF8FB1E6D6C2FAAFF9987178923334A244758BAA01A9A1B70FA5097D01E1CC2A58DAD0EC94CE6430AA9B0C10D75E3C6BAC670EFBADEE1607739CE0FC18A2587E3EC3058562014C64219C69BC269082D5C2F4A659278D585755912176D78A1B641719C2A394CED495A1AC5D583FD2F5EDD93308EA7EAE8A6DD396598BDBD3D
311
4CFED62D18A5BDFDE0DD5C80D1A89BA62697B131AE7CE9A6594138582F1B37D68F1749AC7CB67A70695D48A4A056AC1FBD4E82358CEAE38F54B95A9016F9000F9879C0D9D131768635CA798895F27D6F1614F11F2838A83611AA51C9A3DDB539D42979C29F10465655C17BEC3E2760B80DCBF609198C7B171A531905F3EC21
311
8D696025975E986C6B4C666666787271F202805577DD5A3EF0CAFAF91B62DC4B2DB4217A7606282F31D8DDBC290593BAA93EA6353AFA9939B877978481E15CFC9F2755CDC00C538F63A4BA3E80AE009B73CA0185687D339A507D165B74290D6EE46D5C58148F020C3668ABE9EF2F7549170DC80DB41FFC1D678FF19AEB10C7
311
133832B104B80F691B3138F97A92D26E551F1F110400D45AC71A9B9AC41A1A1B1DAEED0B0810638EFFB511D46B121C6FEA0F38CD00E03CFFEB9713FE1F9C263E4DDEC160D0497FA9A132BA608584057FB15380825DE6C7FC3C667EE947D488A09898D8E939C4953BF4EC9836344D2CC6B2971B2A21A572B06096F4982D2CC7
311
232D46E8EA69DC83722E267754D777F97F96D5DA74E1E75178084D0E70F12AD33E5F71EF2AFA599B2BEBF60A5BE475F444F240CBFE8143C334E7ED9150FEEFEF7EB020C4DBED388DD1D6A167A76F3CBF119B578AE8CFA7736ACAFA4440A1C47185638A0D2F3EB5BDDEFDA958FB13CE4AA4923D5BF840392D45544329525749
311
734866684BF7F8D9D54D892E19BCA9F829A0F8BFCBEEA6CFDFC61D74EA1A645ED7A1FF241739F15694BD835B66FEC5677E40FE69BD3F91AE402F036537218A401CB0828604AD189E575015C6F3F6BBC8AC79CF6C70653847254B31551EFCBEB5978B9DB85D58D0FA41A9DFE9C624834AA04949D24B5AE6D299E072D152D120
311
97920F14AA92C31C3B97E28B6C2E6E9C23D63043ECBBC0A60FDF5BD0C33C127EA8A3308B8B6AFFEB28B4455BF6E7AF4FC6222728357EB8E46E85053E6A8843AB23295BF838ABDA94658FEF3F832F147046B4ACD6F7D48E8FCC9618582961C898D1C7A253C91BFECBDA6BA18A1FCF70755DCCEE2222F41B76D23CA98D0CB3D9
311
5F0CF66D57FFF65E2A90F5DF40FC3187621E981BD0BC1D992787212688976B94A8F0C6EF646624B570B78E068826F87CE27041A95C9A4871FF65CC17FCB1639629AD6A9517000D63AC231F3D741CB8430777E7ECF80CE7A3F73C0F162F7E56AA71F4DA80A33CD6ACEE78E2C11FAC03DAFCE929B106F8F6B3ED2DC71FF994BD
311
9CEF4E9A94896EF1B6E2B7B4978168BCF0847A3D2A4F1B0500B926E634B174548E9FBAD27153FB5FC36799B1E6C7C38A94E1F9E996796D7B485E635D5287A2AE76FBD11A341DB3F8F810385BB7296391973DC6C37C452A9305AEBBE0CDB6C566DB59FE60C8E94B1FD090354BF51439FFD1B48D725228FFA88C84F686F54710
311
7A7A235665A4593B7C34D748C1AC8D56DD5DA861EEFBADDECBBD65117E65851F90351AEB65F0EFCFF4BCFEF24CB7A5879699FAC437A7AF9099186CF006BB923A59E37D7A36A29FD8D2CBB914A5E9D0A8FD212FBF796AE9A67958FF1D5D8B85F78F96219D4714EB919929241B6C018AAE0C02069F8D919961EC5DDFBFB7573E
311
3AC8E08BFB7C8534BE6DE045B3CD63DBD71F7638BA2309CAE398EA3A7D8F98BBBC7AEB367EFA5CFA27A9F8F2F52FE878058E6209C026453F8E7E8A237DFC389E9590F6059B397CFD65183BBF936E86896612A5B5FEE49DAC8455D026218AFEBEC12B3523A45B57B82C9C97E02ACFA1184DB18E48CF615DBF39C3CC6F0B4AE6
311
BBEEA2E39D944E290302FA3DE33FA7E40296E2EF7BF1CD855BBECFAD0FD622BEE9746FC4FDFDE545AE6E3BC234CADF83A0FB76DFB145BF3828AE3436368AC24989454F8FF70A177672C711CAA1A76107218CF948CA01F873520E7A2B118EBB161ABAD432932029628B6761590C98AB590C8C8C79798CE9F715BA696E839E91
311
31A4BB68BE923F1747FBFF165331FFDD4D05997ACD168F12CA75348DAC04C7F509FE83898A8B421181AF492861CE81E4A2DD0A30850CFA95E05F097FF70F9E777310D584A75BA7018922E271DAB1D785671157685B7D383D3E074DDB4F1E44EF04B07BAAC75A062077C54B9752C738C9D804D402E02851F3F89605AF189738
311
C18C021D2139EAF72513824E10DDD3047BACC8521ED7E98B257D1166903B1B08FA6F918FD7E162913FEC7D0EF4787E29C35FBA8C6E2C9C20E9AB30AE42CA2A01A090E7D010C1B5BF9CEE2A304BF3A987FB40D836979B79E18D70F257DA61E808472DD85B82761825779D6B90CAEB0F23360C6F80A7D7D77545E95B3DFF0CF9
311
6A827F9B5BCECD2C9698718417EF80FEEDEE938AFF55859D0D540B7FE09435583A6F04874A0C7E8CF234DF4879722000167F5872CEC6BF3EF7E5A8CC8121E6A359227C8A29C95212F9F735BC72A887D56B8F309FC525BFB4FD767AAEC4AEFF249CFBBD2DE1AB9969A6155C7D8DABC307E47324C1F916C7BCFF40ABA5644E9F
311
FB9238D19ADADA49D9610F01ABBA57E4DFCBDCCBB2B93C8953206C91DE01B0E2651A6D6C31721915B31F7B7CBCE55466F6D70402788FA91D73BE4ADCBA99A35F17D6B83383704917D6833F0FA3CD45C926ADB8BC17999A4A0AFBCE2541F7B8CF4C2F5FBA611B3E626D64407CB32C122DFF4EF8674D6EDBB86C8F7C6A16D50F
311
A685E2CCA34F8F7D1D8265BB0042E9D7F1F666F7BE5FAA5184DF58E12122A42EF02F461B3F369AC746F96528AD208512AB56844CF75B97F352DF7995024FB02855385854F3798670D01CAC771AC3E1889EC25F61A20C1F8CAB46898817F9C47E2CDA1F286BF2F358298709FE567C91133E2638C8B53975E753EA8BFD3578B5
311
F7186B7BF084EBA3F77BAC3132A5779902EC22AF2D2E79F42D324E083386DAEE9810D1B44A5DAA54513C7A71E52A4AB9257D975B621308FE4D2141CC3DCFE946C154A3C1DFCCA7629EC69ACFA831634ADDA93C0388D2A9A2DDAFCF957C6995BCE7FBB6DC4EBAE79E63EB08E9A25F52F67076F7093CA545CA3053B5BF576DEA
311
D4E0017143C5F759F32B2D6F145B52B67B48909B7C7FCA6586EE385A2189C16932CB6DDFD9152AE317C430492A578ED27B72D85D40C7C93C097939E1B50F4D67F05334FE9DC362C30B7FF561B95259138ECFD9274C8D695C31B14D4EAA9F3D7FA8DDF652F8C5DEFA23284C799B7D94416DEE81E05A866302DC70192A5368EA
311
65E1CED8BF107A1E2D3119A71E85DC1A7B0C1E93274CE04DD0F2ABC8AC7C987FDB002B6F81757B43502EF7A0D92E416494FAEEA4C9C090CD9557AA4D532F4996A272B94355C5A0E4974EEA9627476F30809B94D8D8D860062E02204643BEC7D0438AF800FC7E2B26955D595421E83C69E1A07E0E3122285835F014AD538188
311
CF9737CE76D464A353FA55A001AB2526B84E985083693BC76FE211CA1D000679C889E3C009832C87E1AC2EDD05C302557422DF0800E316FCAC86978A371F025A6C7DAA9F333E7BD160403A1A06EA75AA9888FF01504B03041400060808009364565228BB58AF800100009E0500003D00000042333832353737422D45453545
311
2D343533432D393437352D3844314641454241343645412F536368656D61732F436F6D6D6F6E536368656D612E786D6CBD544D4FC23018BEFB2B96DE15493C78601010A34B880709DEDFB52FD0D8B54BD70DF6EFED3AC0B12E6442E2716BFB3CEFF3D18E26FB440405EA8C2B1992E1C323095052C5B8DC842437EBFB673219
311
DF8DA659866649B798C078B48AE6410122242F2A4994AC7F93815DF85C049C8564CA0A901499DD886B2EB9B1E02448F358701A9235880C49A0119892A20C89D1B9FD768815CAD268CB5E0355B40B1E47F3E37A2020464BED06AA57CE8FCC20C3C3446D46761A2632A8C1283D07031EFF2AE7CCB1BFEEE916E406DFAC8E36FF
311
D99A9D60A6944090EEDC3B670C7DC13DE86B6B2C5C240D6E503BB85ACD579D513F1B9F9A69DC9CC22AFA80C426D40AF0B21EA168559156B6276F0F726A6BFF04DCD513A87A62CAD41FB24FCB2858B3952E3D852084DA25B9303C15687973CC8E8AAE11DF2836C38C6A9E765E8C1BA1BFB1DC29CDFE518C8B5A7655A4ED7E77
311
291ABEB80DBD82EC866ADE1B8D05AF9E35CF09D7A061F38A986D9EC412B8F0F65E5D81534D9B231D1E5A8FE577A241F3A5FD01504B030414000608080093645652670136ADA9040000B41400003E00000042333832353737422D454535452D343533432D393437352D3844314641454241343645412F536368656D61732F47
311
656E65726963536368656D612E786D6CDD586D6FE3360CFEBE5F21F87BD3245B0E2D90F4905CD12E1F8A0CCDF5BE0A8AAC24DAE417C872DAECD78FD48BE3D44EE3B5C3E16E010EE75A34C5877C48911A7F7E4914D9095DC82C9D44835E3F2222E5592CD3CD242ACDFAE22AFA7CF3CB785A14C22CF95624EC66FC34BF253BA6
311
26D1BD488596DCBD8F2E6FC6335608B7F428D258E807664080A98384D9E75E22F16B2CCF05D32CE502359492C878124DE31DBE89612BB196A934605E44F272A5249F446BA60A11112D589CA56A3F898C2EE16F6B136C595C7AC3C2FF076D3D808BDBC824572211A961A8D96E393F7AF5806BEA91EDDFB1ABFB769EB08DE8BC
311
DFE27EF98E9DE0ABCE3BFCA1C54E8AE777ECE2BFFC92A94C87EDE6A9111BA1ADE75C74BF391275D33FAAC5FABF89F1D33C9836CB3225980B2A479BE96A4FB3D59F821BCF11CF1FC55602586C7191D99E2C9C0CF2B8A662E3484E59466361985485D7E248E7953C01F19DA23B9D256461B6E09C40FF02D1DEA98C19EBAFBA46
311
59184B7D47DEDF22E2F53DB017721B164F5B845961697F0C699AAC2410982C385725A6361A500F59CD848221F103A8C1A7CA84A55F407794695C905C688E69B111550ACA946B9B4785FC1BDE0E229240B62665328986D5B32C400CEDD88188F35AC25EBCD40836F47F35E5C0EA4B6F767B50568CFFB5665C505E2AD5EA8A99
311
97205F50A2350EAB32C9294B0024108429953DF32C4D812E226658F78A490408362A94987E6F787DFCBBBABAAEDC36758ADEE9B58B41BF0F35D87BB1E991E02BF0B513748E6C0AA2EB2CE56EC68E97585643D82DE284E51DE03E4E22B00738761F1E66E1616A03EE093B0327B6BB9797262B0DCD72C6A5817ADAC1C3C0A390
311
9CF6639B404D18B15CAF4B3C09CEAA4414BD5F0723F059ED37048E7A64271711EDC9C5230F58FBDA5DE00DA512CF04BA6671A0D201A83D2EC81D2EB552C7E5CD1BF9D6913567B2CD53A659AC362A2B200B440195E2ACBBD167A32A86F7874F7F00686DB55D163481DADE5E417E979BAD827FC6B2B0AD8A6AB1567038E466EB
311
4B10C4C2F3F71196A09260938125FDAB8662456EAD68AB2F7C1DFF709C874887B76A4355564F017256531BF73D7D754A40E23401DA38EFC907CF8D8E3C1E5E7505D8E432C60BE1EDA01E5166683F169B6EAC6EC046153F66C2BE0679FD3F407982ABFA28F92E0E457501938D96B12090869079360D3F947CA8BBC3D9FCE1EC
311
F3C676C9BE80EB67CABE004FC290F8E26BE6A0371AD6CE66781C408A1FAA8CFFA63DD93A94CD5E1F3BA6A3DFB05B34E1247BB3949E3C332105035203136EA14AE89FF99E3E0B3C4EFE65C581A3A3D2D0EE84EFDB22B49DA31A07059E69B81628A8ED1228B63E42C3D840C3C01F460D1F331FE199821B03F22CCDB6DBF074B4
311
9566B12C3B3626074EA1B130B4596BDBFBB642A835954A9509E5769234228129889952870EEE13F494954AD7A27EAD09411BDEEC5B6B6AD752C11509F826EF4007E86281B1AE63750FD09DBA87A34EF4CE2A75F3E85960004EA6B519F4806609E8C91CD18380BD81691D9F2CB5730631E6DDBAFBC30E96D3E1D3D67EE8FB72
311
BAD92AD4C1FD3CEDFBD2681858ED6583CA3853294B80AF67AECFAC6418D08164D5FD1E52E8B546BCC77B87C6E9D1655FFD384FB26A28AADD82E04B9C64EBF78FFF00504B0304140006080800936456528DFFFC99640100009B0300004500000042333832353737422D454535452D343533432D393437352D38443146414542
311
41343645412F536368656D61732F52656E6465724D6174657269616C536368656D612E786D6CA5535D6BC230147DDFAF08799F5FDB600FADA20EA430D968A7AF12D36B1B481349529DFF7EF9A85A718860DFDA73EFB987734EA3D16FC5D10E946652C4B8DFE9610482CA9C8922C6B5D93CBFE3D1F0291A6B0D26A325546418
311
2D920FB4233CC629881CD49C18508CF000E3EE309A100D61622AAB4A8A33B2483F11CB639C545B0E1508438C3D3C0361192846DB7ACD198DF186700D182920B914FC1063A36AFBEE8FBA03FFD3CC1D1F4FC9E151A2AF59F628C5B7821D83FDFD3489305080F2EE04BF962195FB285E9D2DD352320A9E827AE357594914E42B
311
1F5FE35F83688F60C4C91A6C946ED0668E8F244BC2EB0BA6E3BCCFC0B6A4B507F9F9F8D51EB315D9BA9E08D308E89F96931666E577837E2B4172199C68C4FE306156D47DF51C698C7B9D97FE5BEFE2190C3C38BB054E6E8163FB039CB4B993C80BF18D969203116D6BBD26238B821F9BB909AD6D9C71B85BCD8C33D66FEA3D
311
31B4BC0AD45BEA46BBEDDFEC0F504B030414000608080093645652DDF8126251000000570000004700000042333832353737422D454535452D343533432D393437352D3844314641454241343645412F4173736574446174612F41737365745461626C654F66436F6E74656E74732E62696E536160607031323532767336D1
311
75747472D1357131B1D0B5703173D27535313234323070333432B61002AACB4D2C492DCA4CCC492C28484D2C4ACC4B4E050A82012F90744FCD03CA26072767A4E6260200504B030414000608080093645652C55C663656000000680000004500000042333832353737422D454535452D343533432D393437352D3844314641
311
454241343645412F4173736574446174612F53747265616D56657273696F6E5461626C652E696E665D8CBD0A80300C06F73E4B29FE6CDD8A2E82A083B8B7F209014925C9FBA3AEAEC7DD2555D896CB85E51C2A1BD834F6A1F56EC4494C4695278364ABB24ABD2146F88CCEBB89D5321FF8F3F43D672A3B44DF3CB6A1710F50
311
4B030414000608080093645652683A1D5B37010000A20400003600000042333832353737422D454535452D343533432D393437352D3844314641454241343645412F4173736574446174612F636E782E786D6CCD94316BC3301085FF8A1174B4652B504290154ABB646AA1A143B78B7C4E4464C948E7D2FEFB4A898796944E
311
19B21EDFDD3D3DF44EAE3F075B7C6088C6BB963555CD0A74DA77C6ED5B36515F2E59B15632784F3F30563818B065B9CC94DC073F8D73A9C31E269BABD6B8E35C7C8811690B3B8BCFFDA377848E222BB485185B16F50107A86022DF613C561D10544D1530FA29684C93C80C384FD20181B0634AD4A2296B510AB16DC46A71BF
311
5A2CDF25CFA4923BEFEDCC9BB42CF8F14ED4FABC97A95AF20C2839053353F9354CFDA5B2DA19277922958C14922B73077D8DA903C6D11A0D94CCE35E135299208441F233AC24CF2EFCF2E2097BE34C6ED92469403EBC248118C8E00D7AF29FDAEB7BB37191C069BC65472E355EDF87D7D32F7A3BC7F2949BDB4BCBA5C6CAB8
311
FE0A59E1A77392A293AF8BFA06504B0304140006080800936456526A3250C2E6000000600100006700000042333832353737422D454535452D343533432D393437352D3844314641454241343645412F5265736F75726365732F44323532334643342D414142442D344434382D384436422D4534323132303046313233382F
311
7468756D626E61696C2F302F636E782E786D6C4D90C16EC4200C447F2542EA312161A56AB522EC4FECA997CA25DE142DC1084CD5FE7DA1E5B0A7B1C64F9667F4F5FBF0C317A6EC28AC6299663160B0B4B9B0AFA2F07D3C8BE16A7422E2274C0C010E5C45B385D17BA212BBB5E11D8A6FAE77E1D1CD1D032667DF63D8C5603D
311
E4BC8A6C3FF180090AD386F9316DC0302D53C24C2559AC07D81DD80FD884C0B809A366B58CB31A95BA2DEA727ABD9CCE6F5A36D2E80F22DF79171813C517355BAA63A8FFCC5A36C0E8925CA75A08619E9ED3B22E8DCE9C6AFE0EF14FAC10C4E89D05AE3549B28C3C5608E1D0F21F365AB6BC55FECAA8DABA31BF504B030414
311
000608080093645652A233C2345D000000800000006500000042333832353737422D454535452D343533432D393437352D3844314641454241343645412F5265736F75726365732F44323532334643342D414142442D344434382D384436422D4534323132303046313233382F7468756D626E61696C2F636E782E786D6C4D
311
8B490E80201004BF42E6EE76F3C0F216234B883063108CCF170C074F95AE5473F5C4C06E932E4F28601967600677D21E9D8092EDB002539227A2FCCB80E1168D80A6417297A89C5D6963B7129A0D1E8F2EE73AA7B62BBEB8B27DE50B504B030414000608080093645652BE89762363000000880000005B0000004233383235
311
3737422D454535452D343533432D393437352D3844314641454241343645412F5265736F75726365732F44323532334643342D414142442D344434382D384436422D4534323132303046313233382F636E782E786D6C4DCC3B0E80201004D0AB90EDFD75167CCE820A4A845D83603CBE602CAC26799919AEEEE0D965E2E908
311
050C6D0FCCE04C8BC355404EB6198129C92351FAD580A10E464065907C8D948F8F166375F655BDC3FDC3B4E530A176BE7057BDC43B2A593FE403504B03041400060808009364565265C0EBEB7E000000A30000003600000042333832353737422D454535452D343533432D393437352D3844314641454241343645412F5265
311
736F75726365732F636E782E786D6C4D8C410EC2201405AF42FE1E058A8605D0B462EFD158DA102934588CC7174C17AE5E327933B2FDAC1EBD6D7AB91814D0130164C3234E2E2C0AF23E6301A8D532C5B8FFDD008571B50A2A062D9714F376A0C9CE63F6957A179E0734ECC29AE1C671D7F50673C30516E6DAE33B67941132
311
50D688629CAB52E6D72B5BF3FA0B504B030414000608080093645652A1C577E80B010000550300003400000042333832353737422D454535452D343533432D393437352D3844314641454241343645412F536368656D61732F636E782E786D6CCD93316FC3201085FF8A85D4D16013A98A224C860E9DBAB49DBA51B82428C0
311
5980ABF6DF175C8644EAD60ED9E0E9D3E9BD0727F69FDE751F1093C53091910EA483A0D1D8709CC8920FFD96747B292262BEC04817948789549948718CB8CC4D3270508BABAAB3E1DCC407F41EC38B3E8157A4D34EA53491B45EA95A321A48676A545674A411122E51439990AD8736414750190C917CE0633FF09EF3D791EF
311
36F7BBCDF64DB04A4AF18EE81A6F438688F31D1F349663288606C12A20C5126DA36A0A222FDDD1D28760859022E5585A6864FE9A0BA9E6D959AD72298BADE00F2305AB61AF223F428068F5AD66BEB2F76FA19F2118884FE5A5A255EE56B3FFE6F26F15B07503CA37A80B21BF01504B030414000608080093645652E3603EBE
311
7A000000C20000002C00000042333832353737422D454535452D343533432D393437352D3844314641454241343645412F636E782E786D6C6DCD410EC2201085E1AB90D9DBEACE05D09878023D01A1D34A8419C380F1F82DA68B9AB8FDFEC93C3D7C52546FCC12980C9CBA232824CF63A0D9402DD3E10C6AB03A3397DD1928
311
72090D3406ABE7CCF5B5D18893ABB1690CF4DCF02282E5EA8A5BB96FFE536F285CB347F95BEFFE81C9ED5AFF9D5B1FB575BB00504B03041400060808009364565262DB42197E000000A300000007000000636E782E786D6C4D8CD10AC22018465F45FE7BAB354D037568D97B8CE6C6C869D88C1E3F8D5D74F5C1E13B47749F
311
C5A3B74BAF390609CDEE00C8857B1CE63049C8EB8839A04E8914E3FA770314FAC549A818949852CCCF0D0D6EECB3AFD4CFE1B141D3F22365CC606BA9C584B6177C268C627E6D6EDA1A4D4E5617635F9532BF5ED99A575F504B030414000608080093645652CA1DF9C9A900000073010000130000005B436F6E74656E745F54
311
797065735D2E786D6CA590410EC2300C04BF12E5DEBA70400835E500FC800F84E0B411AD13252E2ABF27A55740421CEDDDD9B55CEFA7A117778CC979527255565220197F75D42A39B22DB652EC9BFAFC089844F65252B2630E3B80643A1C742A7D40CA8AF571D09CC7D842D0E6A65B8475556DC07862242E78CE904D7D44AB
311
C79EC569CAEBA537E3521C16DF5CA5A40EA17746733E0B6615DE7217475F386F18B9481C510F1F021CD9FF027EA0E1F5C4E609504B0304140006080800936456523DEE336E64000000790000001B0000006175746F6465736B2D64657369676E2D7061636B6167652E786D6C35CBC10E83200C00D05F21DCA56CA76D41FC96
311
062B120735B69A7DBE268BB7777961F8D5AF396893C2ADB70FE7ADA196782C2DF776D7A97B5933C430F15651E5469C55D70F80A4992A3ADC954792C525AE70A1E4D6AD9816CC044FEFDF01FE3FDE907802504B03041400060808009364565215907DF6F6000000960100003700000042333832353737422D454535452D3435
311
33432D393437352D3844314641454241343645412F4173736574446174612F636F72652E786D6C8550CB6EC32010FC156BEFD880519C44982849FB073DF58680B82831583CAA7E7E2176A5F6D4D3AE66676677879FBEE647F36942B4DE8D405A0C8D71CA6BEBA61172BAA13D3427C183F7E9170D1A276733428541F029F8BC
311
6C90F22E195751E7B5D94019A349D0A847694688EAC3CCB295391546BCB78B5477399996B42B4FF09CADDEA45617377BB32680C08CB00B3E3374C1AF0362871D29DD754003260366D7C39531CABB2A163CD9F967BB0A4626A341504C09C21451FA46E8B1DF1DFBFD3BEF2A53F09842F9795B5ABF0371AE57BFC82479B74EFF
311
B8E645FFEF9AAD4B3DDD5C57450441CA91CF81E05D4DA9946784A5D644C537504B03041400060808009364565256E7FF6CF00000008E0100006800000042333832353737422D454535452D343533432D393437352D3844314641454241343645412F5265736F75726365732F44323532334643342D414142442D344434382D
311
384436422D4534323132303046313233382F7468756D626E61696C2F302F636F72652E786D6C8550CB6EC32010FC156BEFD880519C4498A8B1FA073DF58680B82831583CAA7E7E2176A5F6D4D3AE8679B0C32F5FCBA3F934215AEF46202D86C638E5B575F30839DDD0119A8BE0C1FBF48B068D938B19A1C220F81C7C5E7748
311
79978CABA8F3DAECA08CD12468D4A32C2344F56116D9CA9C0A23DEDB55AABB9C4D4BDA8D2778CE56EF52AB8B9BBD5913406046D815BF3074C5AF0362A70329DB34A0019301B3E93431467957C58227BBFCA4AB6064321A04C594204C11A56F849EFBC3B93FBEF3AE32058F29949BF7D07A5D89E3DD86FE71CBABFEDF2D5B97
311
7ABABB6D8A088294CF3D1F04EF6A3B653CAB2BB33629BE01504B030414000608080093645652755E4CF4F7000000960100006600000042333832353737422D454535452D343533432D393437352D3844314641454241343645412F5265736F75726365732F44323532334643342D414142442D344434382D384436422D4534
311
323132303046313233382F7468756D626E61696C2F636F72652E786D6C8550CB6EC32010FC156BEFB601A33889305163F50F7AEA8D0271506CB07854FDFC42EC4AEDA9A75DCDCECCEE0EBB7C2D73F5A97D30CE0E801B0495B6D22963A70152BCD547A82E9C79E7E22F1A54562C7A80020367937769DD21E96CD4B6A0D629BD
311
8322041DA192736E0608F2AE17D1881433233C9A55C8879874839B8DC7594A46ED52A3B29BB919ED81238AE915BDD0FA8A5EFB9A9E0E3877635FF708F7888EA79152C2DA22E62C9AE567BBF45A44AD801344708D484DC81B26E7EE70EE8EEFAC2D4CCE42F4F9E77D69F90E78BCA7E5C30A33B3769BFE714DABFADF35191B3B
311
B2BB6E8A001CE7239F03CEDA92522ECF08732D89F26F504B030414000608080093645652E640FC6F0C010000B10100005C00000042333832353737422D454535452D343533432D393437352D3844314641454241343645412F5265736F75726365732F44323532334643342D414142442D344434382D384436422D45343231
311
32303046313233382F636F72652E786D6C8550CB6EC32010FC156BEFD880A9ED4498C88FE40B7AEA0DD9244189213250F5F30B892BB5A79E76353BB3B33BFCF0B5DCB34FB53A6D4D0B24C7902933D9599B4B0BC19F5103D941F0D55AFF8B0699918B6A21C120F865B5E1B14193355E99841A3BAB0D94CE290FD9748F4D0B6E
311
BAAA45E632F8C870B7FC21A79BBCA89CE42F9EE021E87993EA396ED367AD56109811D6E38EA11E1F6BC4761589DD50A31A931AB3613730467991C4827BBDFCB84FAB925ECD2028A604618A287D27745F56FBB2F9E045620AEEFC1A7FDE4CD3772046FA46CBD3C050D7F52362236B5033563D3A324A28C62742CB86172FE11F
311
C3F098FF370CDAF8926E862F850341E2FDCF81E0450A309667BAB1A6B0C537504B03041400060808009364565281CC1AABF8000000960100003700000042333832353737422D454535452D343533432D393437352D3844314641454241343645412F5265736F75726365732F636F72652E786D6C8550CB6EC32010FC156BEF
311
B601A33889305113F507AA9E7A4378E3A0C460F1A8FAF985D895DA534FBB9A9D99DD1D71FA9A1FD527FA609C1D8036042AB4DA8DC64E03A478ADF7509DA4F0CEC55F34A8AC9A7180028314937769D920ED6C445B50EB46DC40150246A8F4233703047DC359352AC5CC08F76651FAAE266C68B3F2A448C98C9BD48CD9CD5C0D
311
7A9084537E262FBC3E93D7BEE6871DCDDDA5AF7B427BC22F870BE74CB4452C4534F3CF76ED51451C4132C2684D58CDD83B65C76E77ECF61FA22D4C2942F4F9E76D69F90EE41B0697BCC620DA75FAC7352DE3FFAEC9D8D8B1CD75550490341FF91C48D19694727946986B49547E03504B030414000608080093645652B6179A
311
25F5000000940100003500000042333832353737422D454535452D343533432D393437352D3844314641454241343645412F536368656D61732F636F72652E786D6C8550CB6EC32010FC156BEFB601A33889305163F50BDA536F0888831283C5A3EAE7176C576A4F3DED6A76667677D8E56B7E569FDA07E3EC00B84150692B
311
9D32761A20C55B7D84EAC299772EFEA24165C5AC07283070367997961D92CE466D0B6A9DD23B2842D0112AF9CCCD0041DEF52C1A9162668447B308F910936E70B3F1384BC9A85D6A54763337A33D704431BDA2175A5FD16B5FD3D301E76EECEB1EE11ED1F134524A585BC49C4533FF6C975E8BA815708208AE11A90979C7E4
311
DC1DCEDDF183B585C959883EFFBC2F2DDF017F5BEF0CACDD667F3CD3A2FEF74CC6C68EEC9E9B2200C7F9C475C0595B32CA650D30D79227FF06504B0304140006080800936456524D4F8E4303010000D80100002D00000042333832353737422D454535452D343533432D393437352D3844314641454241343645412F636F72
311
652E786D6C9591CB52843010457F85EA7D780498C1A9902950FC0257EE22E9C1D40C099587E5E71B044BDDE92AA99B73BB73BBD9F97DBE256F689D32BA8522CD21413D1AA9F4D442F017D24072E6CC1AE37F60906831630BAB0C9C4DD684659746A33DEA55D546E22E0AE7D04332DEE2A50537BEE22C52117C24DC355DC478
311
1513A645BA719C79357F59478BC2A3044E735A909C124A9F0A7A2A0FA7B27966D94A721694F625DD9BE1FC8232318B8F9180D725CBB6E78805257748C9F84975516881F76543EBE3B127C3500FA4AACB7B72571D6BD23C148FDDD077D561E8629168E6CC791B47B3175987F057FB66FC152D2CF29FD13687035E7C87CAD639
311
73967D2E219EEB4EF807504B0304140006080800936456529BF7BA6905010000B201000008000000636F72652E786D6C8D50CB6EC32010FC15C41D1B308A9308133556FFA0A7DEA8210E8A0D168FA8FDFB4242A5F6D6D3AE66667766979F3ED705DCB50FC6D901920643A0EDE494B1F30053BCA03D0427C1BD73F1970C022B
311
573DC00243C167EFD256A1C9D9A86D41AD53BA8232041D219896DC0C304C57BDCA46A69815E1D66C72BAC95937A479EA048F66FD199DBC96512B2828A604618A287D23F4D8ED8EDDFE9DB74529784A46552BA3B2BBB918EDA1C08CB0337E61E88C5F7BC40E3B92BBB1473D263D66E361648CF2B60C0B1EA2CF37D725396704
311
41DE8B2F6F9F94E01FCE2D55904329E0ECF2954D785B883FA1D3A6FE11DAD8D8D1BAF03911A02039D083C8C6E583B93CDE9B6BF9B6F806504B0102140014000608080093645652183686E0F6000000A80100004F000000000000000000000000000000000042333832353737422D454535452D343533432D393437352D3844
311
314641454241343645412F4173736574446174612F446566696E6974696F6E4974657261746F7250726F706572746965732E62696E504B0102140014000608080093645652D9F76409310100003002000045000000000000000000000000006301000042333832353737422D454535452D343533432D393437352D38443146
311
41454241343645412F4173736574446174612F496E7374616E636550726F706572746965732E62696E504B010214001400060808009364565288E57597CD3F0000904100006B00000000000000000000000000F702000042333832353737422D454535452D343533432D393437352D3844314641454241343645412F526573
311
6F75726365732F44323532334643342D414142442D344434382D384436422D4534323132303046313233382F7468756D626E61696C2F302F67656E657269635F706E67504B010214001400060808009364565228BB58AF800100009E0500003D000000000000000000000000004D43000042333832353737422D454535452D
311
343533432D393437352D3844314641454241343645412F536368656D61732F436F6D6D6F6E536368656D612E786D6C504B0102140014000608080093645652670136ADA9040000B41400003E000000000000000000000000002845000042333832353737422D454535452D343533432D393437352D38443146414542413436
311
45412F536368656D61732F47656E65726963536368656D612E786D6C504B01021400140006080800936456528DFFFC99640100009B03000045000000000000000000000000002D4A000042333832353737422D454535452D343533432D393437352D3844314641454241343645412F536368656D61732F52656E6465724D61
311
74657269616C536368656D612E786D6C504B0102140014000608080093645652DDF8126251000000570000004700000000000000000000000000F44B000042333832353737422D454535452D343533432D393437352D3844314641454241343645412F4173736574446174612F41737365745461626C654F66436F6E74656E
311
74732E62696E504B0102140014000608080093645652C55C663656000000680000004500000000000000000000000000AA4C000042333832353737422D454535452D343533432D393437352D3844314641454241343645412F4173736574446174612F53747265616D56657273696F6E5461626C652E696E66504B01021400
311
14000608080093645652683A1D5B37010000A20400003600000000000000000000000000634D000042333832353737422D454535452D343533432D393437352D3844314641454241343645412F4173736574446174612F636E782E786D6C504B01021400140006080800936456526A3250C2E6000000600100006700000000
311
000000000000000000EE4E000042333832353737422D454535452D343533432D393437352D3844314641454241343645412F5265736F75726365732F44323532334643342D414142442D344434382D384436422D4534323132303046313233382F7468756D626E61696C2F302F636E782E786D6C504B010214001400060808
311
0093645652A233C2345D0000008000000065000000000000000000000000005950000042333832353737422D454535452D343533432D393437352D3844314641454241343645412F5265736F75726365732F44323532334643342D414142442D344434382D384436422D4534323132303046313233382F7468756D626E6169
311
6C2F636E782E786D6C504B0102140014000608080093645652BE89762363000000880000005B000000000000000000000000003951000042333832353737422D454535452D343533432D393437352D3844314641454241343645412F5265736F75726365732F44323532334643342D414142442D344434382D384436422D45
311
34323132303046313233382F636E782E786D6C504B010214001400060808009364565265C0EBEB7E000000A300000036000000000000000000000000001552000042333832353737422D454535452D343533432D393437352D3844314641454241343645412F5265736F75726365732F636E782E786D6C504B010214001400
311
0608080093645652A1C577E80B010000550300003400000000000000000000000000E752000042333832353737422D454535452D343533432D393437352D3844314641454241343645412F536368656D61732F636E782E786D6C504B0102140014000608080093645652E3603EBE7A000000C20000002C0000000000000000
311
00000000004454000042333832353737422D454535452D343533432D393437352D3844314641454241343645412F636E782E786D6C504B010214001400060808009364565262DB42197E000000A3000000070000000000000000000000000008550000636E782E786D6C504B0102140014000608080093645652CA1DF9C9A9
311
000000730100001300000000000000000000000000AB5500005B436F6E74656E745F54797065735D2E786D6C504B01021400140006080800936456523DEE336E64000000790000001B00000000000000000000000000855600006175746F6465736B2D64657369676E2D7061636B6167652E786D6C504B0102140014000608
311
08009364565215907DF6F60000009601000037000000000000000000000000002257000042333832353737422D454535452D343533432D393437352D3844314641454241343645412F4173736574446174612F636F72652E786D6C504B010214001400060808009364565256E7FF6CF00000008E0100006800000000000000
311
0000000000006D58000042333832353737422D454535452D343533432D393437352D3844314641454241343645412F5265736F75726365732F44323532334643342D414142442D344434382D384436422D4534323132303046313233382F7468756D626E61696C2F302F636F72652E786D6C504B0102140014000608080093
311
645652755E4CF4F7000000960100006600000000000000000000000000E359000042333832353737422D454535452D343533432D393437352D3844314641454241343645412F5265736F75726365732F44323532334643342D414142442D344434382D384436422D4534323132303046313233382F7468756D626E61696C2F
311
636F72652E786D6C504B0102140014000608080093645652E640FC6F0C010000B10100005C000000000000000000000000005E5B000042333832353737422D454535452D343533432D393437352D3844314641454241343645412F5265736F75726365732F44323532334643342D414142442D344434382D384436422D4534
311
323132303046313233382F636F72652E786D6C504B010214001400060808009364565281CC1AABF8000000960100003700000000000000000000000000E45C000042333832353737422D454535452D343533432D393437352D3844314641454241343645412F5265736F75726365732F636F72652E786D6C504B0102140014
311
000608080093645652B6179A25F5000000940100003500000000000000000000000000315E000042333832353737422D454535452D343533432D393437352D3844314641454241343645412F536368656D61732F636F72652E786D6C504B01021400140006080800936456524D4F8E4303010000D80100002D000000000000
311
00000000000000795F000042333832353737422D454535452D343533432D393437352D3844314641454241343645412F636F72652E786D6C504B01021400140006080800936456529BF7BA6905010000B20100000800000000000000000000000000C7600000636F72652E786D6C504B0506000000001A001A00210B0000F2
311
6100000000
310
504B030414000608080093645652000000000000000000000000370000006662782F36313941364534332D364642352D344232392D383131462D3332393035374430463145312F617474726962757465732E62696E504B030414000608080093645652000000000000000000000000350000006662782F3631394136453433
310
2D364642352D344232392D383131462D3332393035374430463145312F76657274696365732E62696E504B030414000608080093645652F270F1330600000004000000360000006662782F36313941364534332D364642352D344232392D383131462D3332393035374430463145312F747269616E676C65732E62696E6366
310
60600000504B03041400060808009364565288E57597CD3F000090410000420000006662782F36313941364534332D364642352D344232392D383131462D3332393035374430463145312F7265736F75726365732F322F305F67656E657269632E706E67355B773CD4FF1FBF73E71C0E67EF7576C9DEF3EC995D46C6A1EC50
310
46649CBDF79E192942562825CE965D8A868C2842C8DE9FDFD1F7E7F138F7078FCF6B3F5FCFD7EBFDFEC41B196891913091804020321D6D7513FC77D8C5070EC3FFEE51B21F068154CC75D455CC028A3EA68992803810109FDDE5D5CEC5521B28A1B422BF80741695D5B529DA1C2D058AD2388BDA9F476F7C2CADC939304173
310
DBF48A452BF8A700C0C70C3D121C1AA15A5270C22E2B9E28763651F7DA0D12CE11077B2ECD0D560B5E3DE2368B1E65C5E1C87384A4CC5F2D9FB8BE39E9B77C753783A37998F5CEF1B4FEE553463245C9712270880DF339E0B882A6BA713D865F6F384C842D440934EF264F4A304F8DE4EEFA1E2BF5E2D91F5ADD9613D6E31D
310
DB33ED31DB1D7916CAF091286EA3D31B9CFECB78BB0060245B943C4C040119FF780A74DD308BA9D028678674EB5504ECF284EE814DAED07440BAF649BE4B55DA2890F4D73E2D489A59EE54FDB0A85B59F2F52C4858A02705C4815A792B0C4A996A2023ECB195073E115E3E3647F64243A8338F2000BCB58DA5692C7E7C3D41
310
3F963FEDF3CF00FBB0F831A9D51360FECA43819F527B89FA260EB63C5DA676830AA3626A3693B23F1A17A0DFFCE3EE164E31B5365EDF0C89EF64D8E38AB0BA9A1117D7C3A0EC44F44F4023095E80BA610DE336D0F99593A88BFC5306E72DF98F7FD132ED95878DF2964EA7E43071359FD83B2BDF9C6B5BDF768F0F3C0FC351
310
199526F53D9460A34511F75D1B63E488178569472C91A94497807A3FD4A390C6558F26D416365C3656DE6E769DA9D8FC73774E1709812842DD8EF96AED1960F79D21B395CDDFE6F92CB4EB962A4668C76990E2EF29798C8941D67DA50F4A5F947872460F1F6FDB794E8A29FD7AC0C0D6E0714339CE258FB17AE8535221E346
310
4A10F29A0BE5EEECEFC5675926A89F49EB14E5711894F6586DB5754EB4D5DA9C6437EBA57DB97A24F8B8A8DB295FFD73266CF57E82694DF5166DDF93573AFE9C9C5EB05F8FEF8E89E0A8917B0B3724DB7BEBB53252581EFC3E38166BA131A3A5B42FE2AD00A769BBFA4458D2DE7822F8C4F63D0B8E21B285AE13325F3410A4
310
35C648C9D91FDEB109E73CEDA7BC796961AF79175E1A3CE4C5E8B0D009B0C9E29EFD98BC8E97554E3D8D838424E270F7685226E5AC268E021EDE3522D583E8F20C0BDE2959EF5BBFEEDAB32FE9A3ED0E39F211A86AA9DEBFC68182EDED132AB8BB794442D2D7EA9F4D8BFF52BC4D55BB165124EE90A42D101E67BBBB292FFB
310
4F66DE5BF2300E44546757DA7CEF8932BFC9F92A0707953491A55C5A5ACEDABD9FA1AEA01BAC3DC5A24E22E7C47213493996EFBC369D086ED9397C9BA6C7F9855C7BD5E15BFC8C53DB3D2A4C5901A57ACD2FBDF4D1676E95338B2C2BCE65FDA4C64F5FEFDC7D9CA5AA1FCF11E193F2FDABF0F4916BF13FB916A224380E6462
310
A9815F2300DC49CC4DF8D055CEF76462F4B7A7ACA7365C2707891370BC1D0AA6203C44CCAB47084FEC057F27FFCD57F89B8B9852459798A675C66BD7CE572CAF71FF7E6D7ECF7BF62CAB7B3F1107DCD04DC55A3F9961700286141C94A4F771FEB2BCDA2DDEE0CB0BAE402FF1DB0100F8E475DFFFC074DDB4498AB7D186A765
310
4DDB1CB680D703D47CEB4E72F8CB13D86A4AA68116E26387B93FD6738779B34FEDB8E517EDF2BAF28D9BE93A1D3A164320E07D42E514725C29515FF361754213EDE06B079A2E99EB1CA82A02019EADEEB87B9AF005BD04BBCECB14AACD6B24EFBE482194A97DD32400685FF1FEF1544D1B14EFB1E7F08E6D2CD2AF52DE757F
310
35F5E62332EE88EA26417AD5C3E0E319D68F25414E6D672BD4522B278C57D18F0113921C71D96527E091F00CEB15AE23D24667369BD3CEFA10C7549D930890BA4366F4EBC55F01F746109F98ABCDD5A3EE06619C6AD78AB33E48E4C9BD21BF7478B385EC05C4F8987E2C1BFA0A60EBEDAA0AE0B015C2720ECE180FB6F2DEFB
310
EB822D96338C9B63822183BBF52FB664A7AE57003AABCE512BF77E7E31BDA2E739AC4C131657DDFE5225E900FB56CC01CDE808FA4A9C9DA16AC679656BB64796283D89812B8F91136AE18EE5EBBAF47A73BE3C153EB5D4CD491B4BFB4FE690A4CF9ABA08C0D8AA64220C438C96EA6CA80B58FE5761E697B3A292EB9FBDA502
310
FA863E49FE694ADDFFF9D62C520BDD1A22014147A0903A05B9B729F54272EF83931FEEC057BFF8C8055C279EAC5C0011804828734024F6CFA319C9CC6867C727184465CD9BB7ED386AFFD96B294A85E3802FAE47244602D8273615952B98C4F23F7EAE4463D9D638EEE374A20959E0FE519C4CFB0FBFE5DD80C2AA3F9DB961
310
D1BDE57E67C9BB47B77FDD74EE3094F5DBBE3EBC1FBDB7393F5116263009E2EFE1AF9A221B2AE234C902BF70E9F280ED23E73908361565964333A3F01D0B006AF32FB21AA1316744B489D5A198E85299241735BE559675130955C902A8ED761FC0DBE337A9F91919AF5CE32AF902ADF9AB2615E00E8A94586BA1A90839B618
310
32FF1BFB76D2EFADE6DB1BA04CCAD3DA649E7E2A0219F592E22F2AD54847EEA8E42271011E9074F8F3DD9FBA6CDF88FFC9FC7E811AD1CA8F4557CE4AFC7BBEDCF0114A48689F20A584520C74DA8127124B767E2FB91A6B186246727BE63C9445BAE02088D58B8EFDC0F1072407CD9B89A13F6303B4A928F593AD489B58E686
310
9325790ADC406036C591729FE14021F94B7796BB11848D463536A092A26F077F94639F7CEEE2A724C66EC885F4A24F8B8A0AC321F8FD149BA529460FAA34E4663C02D41FDF80BCA222D42F0ABFF8490F4FA74C673807C2051D8E467B47B616072860069A9A303ABA9B319D58404461401B0A0F9BE5E1E151C14BC33B32ABE0
310
3DDE91708DFAEB15E7C0D593C86BB7D7EC17BE56E57975F077BFD5525F3A1A361D584A75E08CF29FC7B44B2B3085014F3A5A14517377C3F6B8F37E59514C3B12F8AACDEDDA4DFC49BE5710101534CD6FB6DE15B50F11A09472AABA727F0C49D9CB906B158030065F48EB3625E010CEC1D511D0053474B11E6A4F01C0D6EF1B
310
ED3A944FDEC70E0DDCDC756C86545910E0DAE3BE3AA9A404574C2995CD5CAF9549226BC94B4F4F0F5F9086F418F6B32346464610D8BC7391D3C3A3CCF04CFC1FB2A3A3170E369511868F14EEA4E5E438CC73DB1F3248AA94B6B2FF33B222FF3D1E7BF146CAD229770158063BCE4F5391964DF62F7E52A7BE0EEA829C9E13C4
310
C147D6F93FE59E111DAB5E4594D6F3CD1AD375EE039930EFE5AF2BB2D41C83C7DABD8C659BAFBE8FAB392CA634F3D15C1D945DB4588D2B0824A4EC928AAC565557CA2F0DAA588CA5BE30B3A8004F7BF005E96CBF891D7F18112A3619FDF530DC8AA64954258E1811789B5189B49B4EB53F5F89F7D37523894F3EB57B373763
310
C91E502F52CC99EB7BDDF933FC324C4FFC2561DFFA7339FAFDD0A4BFBE6D3A8FF9ED1FC49898139864602458968913181918F719CCF5A68B2EE9C1FF050E34E63107003B8120FA982C21B30A874E4F5E4B38D5A8290C4B8D9BE48A0BE31EA995BDC37AC6DE90BA17D259DEF53605D55922FEB1855D915B659FBEB350EE0DFB
310
2F9F766E1C84CC8964B75D08667445EAB966015F63A18A9E0A325C1B3DC628C0D3CB60F767FA93CC65F25458BD23C3B312716E5F40E5858AC06EBA9AB14F95DB99147B832069201541D09A0D856E12C629CF32683760EE855537D1901988D5EBC156676C7DD51D7207CF3267AF1D76C2AD867315E44618015313A98B19941C
310
696FED3461CAA9B5415F918556D7802EDACEFD6B2E45853A9735DFC9DBF7E440F9319F8B6805A973BCCDC76C069A9144E51F187EDCC12FC31B5DEAAF0A76137199B106EC84ADA6B6EE697D4E6A96E007417F4E880E8B1E89B4BCE9D81EF611E2ED8F0C1A6C25F620FAFAAB656A7C42D464880E8AFAB0E0FC8EA38CA9A8AEEA
310
EE3E4648BA4680270A89743CDD3E6C6CBF34B7B640EFA285ABC7EA0A1E28F3CC963D114A80123EE66D0AF7D5380EB41909B605AB4765B709B808590458157E69BA1378FEC4B48CAF6A730E3BE3C5EF2DD1A5EAF94B1DDE50CEB55DDFD7EE9A16747FA4B223359FB1FCC69E1194892BABB93A1D5C4E807AC0EA2E30180811E7
310
7A2291F6E7F7FAA5E0F60215BC6024E48DE436C511F0628B8CA189982D4D83CCA17D305A7E923C37941CFDFDCD93ACAF735EF5F0E61BBD3E6C41A59B242790D3A3BAC7064DCD89AA2E37214EC839820949D5CAA31E240D2948E48F690298974A96BA9A8432BC90F5071D6537C9666EA4564796B7AFFFA548077BEEA75F6308
310
3435074BA182F3699557397F71548383FDA8CA34D99B981E72835ECDA5DDDC151315173D05A21F651AAF8524E88209E2E7A737ED1045800CE3390050BCFB8BE588DF111617874C62575039CA588EEFDEFEFE319B739DE2EDC147092A262611E159650E787917885EF08F1F51B8F2D8A71D60B58B190FEF9541A1BE94BC19FE
310
A50784DA1419FE4B0FB51B8D36B5FF8E1286FD8AF42B91E59A5F1CC4D60174E764045FD8C57B18209B217F89A62252BD20BE0E63E12B8E8F029FE19E0E8D0870F58721A557082250D5424F7909369376E41666C0EE77CD87CB283F661D5FB6D0DA023CB67320A20DC7BE661E9E1BFE5463085C557DA1FF9BE835733766C3D1
310
39F2CF9E2208873AD0EB4814DE9E6BF2CAF81614D4D43906ED1C05A3265CABBFE192770FC2F64F940CB6B17B5F166F133C9AEEAD2641807C3E69515171DD74C4A85311513D6EC9530B3B601B6BA3EBFF3B5C3D2F7D69765141E345F75433953D013ADDF8F6AA7DC3F4A7563FE5C7D367937E2900D7EAD0F9FC9A4A1A9B5BDF
310
1FEF08532660C01C5D6DE22199AA774383E306DAB87E301ABB7D213887F9869D4942D0D71E94B27EDF216A318BD488D45DF84529EF575AF3C3938C0AAA0215B01994153E2054A0B894DA5C784980633AAD48576957CF4AEAEAFADC7C587368551C73DBE1E57C58AC713303A8BFC258BD04B51724459FF9E24C03A81E0E0679
310
CEB9B348C0DC998FEB9C6D6EFA77D247CC8F92D3848599ED89A23218D0636465AD1CEEB7DC140D7426F83491C4E8E8281C2FB35240918FFECE880CA2A42D70E8B20B34DF5221C7DB0CF90ECCB9C745B37A47E9B716FF7A97B7A252C1F3814DC7B1E1A7F72B8751D524EF7CAE45B0C73B3BE7D08ED39781B380DDFC9AA4A474
310
9C9493DB5BAD07A6EA6C092FBD0E85DB004DF06B8C9D3089C5320187E4CE1846158C7EA7DDAE8AD9AFFF21AA3A1026BB06A259845E8232DEE62811A4DA9CEAB3A4887320B76E2AE5615EAB7BDF738CBDD01F1E64064BC13D9EC53576751CA8CACD58B3CEB0E6CA585BD089B2A59B9FC101403387AADBDBE70586B93D64BF3A
310
D4453EF9C3B6A93817E8346991798601344F79A83C51F3D50F7BF2683A3605F51A72449489E0EE6169C749C60B1035651103AEE24D24E51A759C840DD3FC6504DA6FE107510E447B43461C79D22970B75DE5E1BD3007D1AFC619A4A4A69B5626AF5E9B8374E20677F77E2F8E73DF868E8BEC7EBA7B6A75EEF7205E1AB9486C
310
B642741D6E03FF13FCCEDB1C4AC129886268B01CDF4B124AF797CF784F3C6DEC97A17D4B558070A0F1C04DA4FF9BDBF34159AEFE958479824B3F58EBD1E19088A2AFDE501B6F2052368A3FD0E650A179EFAB1561E1D27527077136E652676C3670F42DCB3352F48F6BC86D2C3B0051727E41A0A4DC6CE2BE9D47F5CAA2935A
310
3C0539AF080665997194ABECD723B08129CC5B6B21D2E7D54CD4D12610E7E9FB8306771A89576C7A982002775ED44F3F744CF21EEBB27A631671D921938AAEE3EB0D19CD1E083727F607823E817BF599DCED5394E37EEBC2E88782E638920CA641EF74D4CDFCDEF06F4278ECB18E31E7E9876F2D783C8BF429C75395F57E98
310
C2B495A3DA077EB3AC3C158608B6B57FE3EA48484D9A480096FCEE0DE880950E7E5A5714131C5C41AAA29FD19AE81AC145FA1B9E85C7169A5AB837B213493DF7E9AA4B5FBF9CDEB36EBD21EF1181B7CF7366AB2A951D01E37AF4EB835D1BE8C117CFBE7625D2EBCDB0B20C5A4B45CED0BCDE3EE8DA9DA78C2E21DEAAFFD119
310
7E463C33CC6A80FB785669B856EFF7A8CCCA2841B5A5369173320B1170C368B2748D81062EA0296E5E2D95D7667A4A46D98A6FF475C76AAB0A8C8D45E226FAFC9FE0133EA9F60111F99CA81ACE03A1D14C89E8B0D69079C91464FA1D99E651D0EAF606F345C42A8A1AA9BA391031582B96D5B4176A77AADB01F12FD298A75D
310
EEBB2C82F0B8650E880722F8DDD90C56A7A058E5FDEF1AC93545BA27367C76F5D8F9690CB6F8DAE141EDD7971F0FB548A2AE435F224D6E5954CA155512F7332029D5A1230854B79F258EC5FFDB09F5F6343A8EB193229B7F7E79B3E48F8E183860B38C8269D1B53738FF1E0BACF6AADA6D4869E9DE708E79B5DADCC09B1BC7
310
6F649731CFAF59A83FD8BAE4C749D66FA87A3810D4D62FFE826FA400C0F325D2BC0F3CA35F5847B82A2ACC7961745C823E4D863D54460AF792CE6F79B5C7A33B25C3AEA6CDE15A919B6367D781E9D44F61BF828672594A3E1D9EDD6DF179A81F27EAC05B936575D73E05C209DDD2115CFB705DF9BBF3C911589B3640735E9E
310
618FC9C36A7326C82B2205E244C55D56FDB9D5DC93CE958D4BF8174D2B3DA54CB3C09F2C2A6DFF73D23B2197355761AD421EC581284A7EF8DE2CE3497C0C804D49B41DFD6A7360844E5BEFFB495CFCDB97A4595911CDBA623274CE852B5E278AF0BEB1770E9D37CD977B2766A7DED0E94B840E1E95E8C77DE5CB6354AF7871
310
427C28ADBEEF7BA0A28E19DE9ACD75F379FE373EAE6DDDAE3834692F9C2B03B4FCA8FCA9ABE8EEEBEBB725B88A7C90941E850682CA04061A7DF0CE82ED49BFAFFD42C309818FAE14755CAAE78B0F73243ECCCAD7DF58FCB9CDFAE7A4D3E6671A613639130D056C8383C8F4FCF4808C331E544DD26E4755D09EA05253B3049A
310
1E32587CC25D72E073E2CD96D04A71BBCB0038FEC3F53D254199C3CDC67CD66640269431860225392B2CB3ECD0B4498AAE78BA1994246AE1EE78F2EDFB79F6C6CB6B5E279C4D373FBC21CB2698C9ACBBEB6A4BB6B39E16AB0E421CCBFC7654D81ED86022F9BB522146F9F4772E2D0E4FA70120C95A85A417BF5078B232F475
310
4363EB1750B2AC2148EB46B1EA72AD9B4D23ADCBC589D70106C3EC2ABEEED84DFE28E718C6C83502C28E9FDD3B09DA0A6F6F7B72B706A31C9E2A331EE70DA56A083D2177BFD63C55B11D8D949FAFCF90B23A1E24B9B5018B9A17E99F2890EC302F330FE7936E2C23F0D237EC8916F5166AB84B62A21BB0B950146962D754F9
310
2CC2C8877BED8FC7B7B25726DD19545392570B3A2C66B58F027BEF412E552D12A588C4A3CC5C3193FCB3485EFFF700D0B9EEC077754A33DC1FB9E25AF814628F91DDFECB667D3F7690803F38D13F8AE39353523BB08FC6760144AFA2CE28236F65EDBB3D5F59A57D612B99E3D7E5F8A851666BF9B5A6658EFC96EEB37A378A
310
BB0EB3FDDF1303AF32C41BD1C8560745D7BD81066B0D6313359CF488563D3BA3F8E2185D1FAA3EBA1397C9D0E3DD232180A4DCADB6AF25DB3AC3CC26589C8239E66E81547BC7E2F328F9884764CA37EB5DBE390DFC03A5246B456A7C3684C4377D0EEF9A350680FA9A077E8B2957B489E09AB1AD41316944C2254B5984830F
310
691C93CAA767EECF976FA5647538830B5E63236A6F0365C1E0F3E327F24FE35EDDBD7360B0F7374837409F7A6311BECC12B7026D4FA1AE204FA3F5FE904B1F420C7A9044AE58E403E7C4848E7DA25DC9EDAC79DD756FAA26B9EA83ACE8A214A2612A22AFA19DAE7DBAC5F8CDE1292A485F98DAC731A29FE01A3966E96BCB9F
310
B5A4C8830E1B9AF0C54B87FBE221A097036E5D28D1F869F810C06A9BB0AC0612F69AEBAF893C6E7AD59460208BAB3A6B09CA4F6BDDAB8CF0D1F84B72487498395A70DCD754796E271099A567A55CF242BBED64696378BB6CF25EF0FCDB589F3A82F1116D010A9AB9FA4358809EE0C973A2B4229BAA876A70B03AB49CBA7FBE
310
71DB1832FFD32F9BF2C8E98075CACAFB36921235D0F552B6A67E94E094097A5D7DF681B40623DA535ADA7A9AD8E9A62407D7C9A5AE51D62A17A83A23728DE86BB56115804D3F2675F2C6B87541A0FC497BF0CA86420F558C9859EBE9FAD62747E323E3AADC03FDCDDFE7407B09DA90B44E3185723C5381EAEF589765E2F7A0
310
99BA46695BAD60CEF3491B8A171F5F56444F7CE9455312C3498C74173AEA0214EC029833B34B650CBB5A5508D5091665309642791708ECF27CF11DB3D797D6CFE474453BD4BFADB768094B2147814D81C7CBAF8228DCAF5564B5891F5EF6A860EB2E323CB82AB868D8EA048880D63B0DE5341F1B3D53297B928A11E15F25E5
310
148990F710747C3509ED14909C552EBE3973246FCE55D00564D8310BC3EBC5085D08D806799B77D6C57FDF5E55837F9E934F09C03C729271B64F12D0A9F9E938107CAF7BF1EC8CF1BB9B42363D33070F4CACB425E605DDB0A34A12BB936DE286B9887A4E2E558F0886498BFF49C311D96C277CF6A9FC0D75AD0ECC5226D7E0
310
E3572012E56D7FDE4410CEC7A6D0F997F225A2055B8B92E3956E875AE4993CB3D4C9063AF98FD45E1BAB165640A43439A2C9181A7C355B297C0A0CCFFAE19B6FA3C2BA238A885FBC98B8F6DAF4B94B97304878DF4D8BFF6A4AEDF79E90ED4E68F00CD7299F4E0D83E35601AF0CBEF18C1E870E74758FA91F5131075004DB3C
310
FCF09AE1DABC11957FD9808C92E8A678CE9DBE40DDA0E0D1D505AAFBCBA208232BFB6FB3704E8985E61ADE53DE74152F5C7DE74B1DEDCD37DC3E8FB30D7EBA8B9EFFC3606BF90B8D438279CB7709FC7C00D327F41817EEA71CD9E49FE9C8C9A81C70915D9F0F15958EC5AA4C3BBFAF46986B90F188BDB24B89DE3C6F29EC3E
310
6F66D84856EE96A35E657CA41B41EFD8DBFA16AD6E91439EA92B40B21C053249F51AE50EB0B24C770FFAF40DF12C8436366819C48E36547D4E7B72FE2BBF10828583057814A668BDF183F6B2E58DFB151103E56303E63D00F39C27C4661605DB644D19175D02E3F0241E8FC3458D17AAAADB117CE9EEA690D0DB01E634878C
310
04C2C9310B69FCAB831151E3AD293BEF6E46B0ABCECB50F5939B39C613D41E81FAE8D34CAE3C4566B761D37185FE864AC32FCB71AEF39DAA5BAB88609BB980CD2F07A8F941653B529567726E2B2A58D079DD57E1E5E31426CF184A04D7B03B985F276D47406AF276FE32E3328BA866EB1FD39BEF57863A317634AA5FE46740
310
9B3873F5069EF0D71AF00AD189D17BA1974ECDB2D623E9E14086386A6AAB5807825C37B015BFE892AFD154920EC437EB945D958E18622E1E0FE2FA06557CE4BB9BBD05A2D40E774DA2B65473791E314B7D6C886820B2FCFE4AA272B3B8B15E7344A145E8AF919B5454D89D36D413E87211186BF6F645E5EC94DCCE8E1C7990
310
22E4EC9BC86D7A0F2AFB1FC4B2CE48F84B3F49ECE65BAD24CADCC07EFF39AB06BE9E6B27A059938EA7208838455383DDBCFCD967DDE4650EF92A14FF933C975DB20BD7FEEBC4487576485963D757D16340D9599FEB362F775F38CA4185A86F74B629C81B133644A3B18FD056E997E0734F9BE26D11C0AAFC669E2AC9FC41D2
310
81F8B2E1C35AE27BCE05F3DA295488096688719D974DF1B5D182DB7792288697F8763CFB43562C1CDEE11C4AABD5C22B6E33F6F389CFC3477C5919DC0D533F8A7A1846B7ADB60ABDC26C43D0CFC8910B7C15EE22675BD02702ED39DB77A87A192CA7A543E6205B979B9F5A6B512A3CA799E198B2D5797C0AF8D1D872CA455D
310
4D431A7879D4DD76110B5FF7F4176B54477A9EB5E4A5D11214FDA585F0382751D8E2582BA5D2075053298FEB8F1537304E32CB22C2E2B693DC0A760B1DFCA751BDC445AFDCBB12820ED85F6D5298933C7EF1211E9E057684056CDA3FEF3BB6052355E162DF27C59E965A8DDB7F9437EB72CDDA3A090DE65A5B2F50326247B7
310
EC67B73ACC7047FC9B353D6EE990F772207C6EC52B39DC2F3C0754821DAB559F7C1809C7D0DD5B0499D0442E0A6E391B3D5DB46D11E731E6794EC77523FBDAA242ED67F9FA1FB684255671F63C9BCFE6E7E896D51001A6113EF2298BA494E0B0980D1FA5B9D60796554C02256B1E0345FB7C6186B6A19D2DCA270416262845
310
FA4F42DB5D9B0A0B6F07FCA2E56C242522E001E0CEB734AF310FC8BFB57E38E03AACE93B3326A2197891E68452B26A6307FDABFEE0223D3C03C3C73D2D5BC054C8311F12004CAE488E5C29287F8156A2CAA4AD0D7BE6B97264E4139F437CE73ADF52E5134C52B819777C18B323A5924E4F67AFD13B1CDC3A61793A79FAF5C0
310
CEB718E441071E797C6DCCB9EFCF7E4A1E9F3DF3C2F9C9E8294E9586868788C972857FB0556D7A26941A7EEB9B580AD78EC40B85DC906B4120A563CA3B87797ED612D3B035962BB75F6515A393F4CB057F564CDF54F2E5A024514E6A1F901DB80C7E70B1FC05E356A7E72FABF4775B3E3FB8F70A2A8E7B6A94542BB3041579
310
78CCC999E707A29CC795E67A59CC546A5D47B368954CA7B6E75EC9E1F6FC73CE3B4F71F8CB1A6B15923D61EAAEB14626AAA9D04A26EB9C66CD1BE86CA31A5D8703DE04CD1EBCE4F5CCB62F93909AD11E55799A781A956ED27D3E738F4538CB04ADABC7DAEF20BC35BA6A90BCC1DC61BA05F20D8832FFB9BC9B15E2DB838A0A
310
FBB7E0C82A562127E0446894F427794C3037186F622BF24DE1B00AA10A23BFA47B2A180D6DA5AD6F7326FEB8C100C2D7142EB2A0B2A9D1008A09BA343D70E054AB69E2A7EDB783CBD92537FAF4A44D1296AC2792729104B3276C276C951D0CF3CF3F1E6B017720A7B8505A5FF9589365979678C36F1BAF759EAF57C60F1FF5
310
FE9DCF5F8E764FF25A2D06CF25117A8FED51884C13B2B750DB0E4F5E3D64124FCF11F0AD8F1CC3B3DA4B38ED22BF1CB2585EE6BFEBBA63FBFD44F9537B9B37BDD6B358720F98A8125AED4349CCFEB0E135F19E208A04CA7E2B10711185D72E381F448036EF57C9F874E54A971CA37A639E986AC0226DC5AA00D5B14FEA9192
310
234B3DE617814FC221C92F33F1D392F297731B567FD98FD91D989379AF567A65B8ADF177591DB90FBEA99BF4ED11B16E50A0AB1DBF1156D034BBE04D69D08F939D8E92BF525A1DDAFF80ECBC95D8F45D3FDD289FD23F7D8B452F8EBB34EC082DEEE68E18EDDF072060FAD2AB1504DD4879BF67099FC58F6E9DEFBF645D1633
310
4A3E9A127C6F1AF6132CF287E433B43A0EE93812B4AA0B194E03EE3FF91EF9C6ED0074A2F6EB18A96A7C9890B1FCDA1F2095E944DB911ED54C60DF16FB74C8CE9BDC7C54C4F14078CF73C2FFF1F1BBCCD7CF64F71407EA1683DBC410D226627F66E509060D5C0AFD611DE681D509DB8DD12FB1265B03C6F5C55FF4C30BD941
310
87FF692B4F152982502F193098A789526A038AB529A52BC0DC4FB6285CBAC10A8B8DB75DCD9BDABBB221E27D1F8DA9F5EE5926A1C8AA9BA9BC09239C6A7F12914EA3B59EFF7AAEC3FFCCE56F1C5C2980AD072793527565E774F4631DB178CEEC691B1F367BEA0CF2907E1D6B854D527065979DDEF002D8B2ACEA7CE21AE297
310
737EDE1D45B31233B73FEA35BCFDD0B09721FDBAF6432681F2FD10C3E9EFB246FD6E854B344ACC9D8A0EEF876A7314B49B6A499FC650B099D650DBFEC7638ADFD245E2B7839DA5AC5F7D5623FC0ECEEC8653FC9B2BDD1AD4D00A566FBA7186DD3C9CD26512551637498CADB950FEC71ADB9A5524285DE328B8EC7EC75D2345
310
AEC6A27C42AF6D9B92155315C80DBFCABBB7DA0FAE425C4FB896B15C9BFAC4FE67DF5A23D30C93DA4D8F36FB15D100050DA6062E22AEC5F4DAC4F6FEEF97AE05DE63C6D38F9E068A20BC5E3B6BCD75320C5090924E7F93640A7735B1A43451C2D91EE62C6238B797349E59890AF3A520DF4A87095F3ABEC2E61F0593416CE4
310
6CDCBE0E00E2523FCCD04408588B5B6C9DB6459C786CE378770B54F51DA3A5E1DF2A3349BEAAC234A6CF8993B598B3B25B4B113E353A4D750FA7534749430F3EBF2512E7EA3FD43C6AB9A1F765A58463B306721A15D224FAFE8C6F5E3432D57EE697DA0DD5A9D4866A8BCCAAA9DFF1F06047851408FEC060471D0E3EB86BFA
310
F46E4B5E60311DC3E3CEA147C75CF971BE74689507154FF2D2E92F15CDB2B9182B11459FD8ACAC5A85F174BC94A7F4EE4C4F5CAFA7C02E37BF0BC77B7DCD0C047BC316F562A01A441AFA7931CC84A28CB9F4AA367EB515778F29BFE61195FA671F4352E5E46E3A64773F1F76EE5EB36D7BCE9BCEAD837A4D77F8DB8C92AEEF
310
6711920D7C7D0F76B0FD0EB7AB83724CD35BCA7D36DDDF5FBB7FF6F04A91F3E2BB3B8F1A43CD659639507FF6331C5F697BCC782AE57D757A27D97F1AB9E0AEDB43F92F1B2AACDF5FEC8ADBAF9F814E2027003BA2F9E144B1938A7A04050AE5D953B82C45619165C813A10E76DD6906B3C16438064D14CDA713AEC420034613
310
E1AC7241904A49FBF87409AFB1FCB9B72FE7933A87D8FBEDACECE4EDCF6A4FE9FB94D5DEB74FAB7CFEAE17EE965DF980DCCA2D04134994F9A2E94D2265DA4FE6AA7B7AC15FACAC2B5ABBCD7DFF542C5314FDAB2E1B9D8B65220B8E2B638BE008E8DCA22678C820C5053664D15E89F2D735B51A84955E81A443545E9FF787BE
310
0FA700A76D136C27DA179A7C6E8939E01BE756E19CB292798063D8B97F44E8A27BCF3A614FEB8BE974A718E86F7EC99B53CA35FA24F61F2B07266684623A3D4CF073E511F3A10A8FDAFAF0078C577F4DF9D339FE7862E5FA47CF4344209E5BF76D783B1B48E152AD281B15FCB934DCDA49CEC5706B1EE8B460F435324A5CAD
310
154725E21AB8044B75A557A79F6C807B9340AA3D92503E866F4274412926C8C504E4D5EF8C0E68DD0B028781A6B4054F11CF18941F101C57CCC796773ABC8DED9CD91FE5788806C05E548895354AEAC96546D55B0E94A59F148D061F42AA398D822CDECA4CDE79E13469BDCC44FDC990F366BA5978C15F97ED80CBFD73B0CD
310
9B8B83A4F6845BDFBFAF034019473FB9A63BD55D3A4A7284757071574029A4D016DCCBE95DD679EF3C4880BF169422F8C89B68A988D2B13793CAED4F74DE7486C72DC94DF46B8E93D8E02EFCB1FF9B3BA10C8AE7F653DF94F4AF466CDDCEF5776687F7C4C14B63E4EED1719DC2EC482D7DBCC7AE518CDE3D5FF86D39000EC3
310
673C0044E1D308BF05F74D1B5F033A7D1BE7F74BC55BBE3E4A20F920946CA0271EB17BD2B80E5660ACB8A29A79F5E4BBA49D4D945B6EEF4A7EFEAA65E5555BBB57A7E15D2F83C69F30BBB978D2B39F1F26FC097424D39BB33CA3D87ABF64E307938B685BAD44F71556A30B7E712CA4FE600613C3E554B69ADE949A7CFE214D
310
F1FFF05CB82151EC6FC31950239F94CF7AD39DC473F6EA356E5EC2C4EFA04383CEFE985A127484366FBEE3C0EC4FEA363E4F6632AE781392FD45D67B63FB8DF70E82734F431FD3443172A0E30A83D60982D55FA6A2CF86DBA8382502ACC6CDEF3B907982EED1160E14863FA242F9757347E1544275CCDCF71ECD5F8621CBEA
310
326B8BA884AD7F825781923E66971F04010D574C541D8427A438A37EEF8AF88240EED7362C953F5A81DE2D56109CDE2524EA0F5D2F87308C0C47BD97AD605878AB8589E17CA83930CB5E0DCCD75853D68B1AB136594926DE426C367428E9334AFAFF90ECE221BB5DC9E5BB53D2CDEF954EAA9CD814F0E5725F1965DD458E5F
310
8487683AD86B9D0076BE3EE91EB1CECC5331A67A3F79D8B27587C12EC2A6A70474749F27B4C0BBAFB94B34189E88DC18964BE4121B9137FD516C7755356E50D6714E31ACD222621EBBCD1CFF81D87479056A9DA0E0B8EA19D24CF937DA89F78E8650CCBDC110AAB6C4E46DCBFD0446BA9E2060E81F314AC2031E88135E5476
310
AC0160EF5C0DD2EEF1B8B5CB2D198BE9A554A9093B5F7D7E4B5407DDFCA1D9C152FD97F55BFFFDFE802954DFEC8995B983E28AC92F1971E28F531DC407A1280EB125F64A72E617EFB27DFBCEDCDA2D6F2BDADA36873EE46B9BE1782998C63DA7182BC383FB6FD15DA472B175D7E8B4FC88F38D6E07FEAA3FA3CBB8F6B449EC
310
F14D2175E5C5CCA3A42ABF24CA6C9395AF74535F4DDB38CB84F56614B0FD32D7E19CA5CF988DB4449C40E23DF2B16772594554579094450F56F253CD25EA7F77366FB1CFE79696C428BB64D5A41E986189427E5E4D7E2DAE3D5BB4972B3DC44EAABDDDD63A2264ECFA5C786EB0EE1FDC5BE34FA0F08376869FD1E61EA06CAE
310
15191135445EE8F0394161C3266A596AA035572BB0C8876180D8B9C77D307DF9DCDF7365ABDA6F3A2366436457A4DFC1F259666569A9E4A79C817BDD5610E5200FCE894A358EC72858D50EF67545DA81C6FACE3D457BAF70367E1E6BDD9A952FB4F56247F58F523B97E640246051A72F79BE42FFA0B3187F63097F91C48B86
310
8586F714B0EBD5A00A8412C1236E1298F60C72BE6C96B82B404CADAA304AE9F303176B14BA53FBC2D5E86377E35542019E24D97B96A49B2C0E5006E7795954DEAF5DA58958839043C6C70BD3B1B33B6DC5C31316D8A6923F142E26F6711A2258AF977DDF1F970ECC4F1F2B434B96D81BEB6E89BF3BBB3C7C8CC80505070723
310
D6D7D7D3C8CA27CA164A26024FED94B12A86031867241DA53D929636DA600F050BC40CE48B8BA03D69224720DEE2ED2127390BDF5E6EA64527BBD4C4C63FA76BB801FEEC0E61218EC98A8A86CD8313781617877E66692839B9468CF4DB8E50A73986E558E309C0D6F676F921BE02F1185454DC75B111572FF9D27D85EA14C0
310
5AD7271225B391C4275659CA4A43759D0BA44639BE4C30A84DB7F67A41399FB95CBF923B1B1672ABC807C1590557FB18D811983FA97F5E609516D62281D38B1281F68FC75528C35E4CD7DF0F7DBB5E5DD69C414EBEA2F4A5B241B996BA77AE6C772E367408C633EA3E438B68563EA8BE7667F3A4C4FDEEA52ABD78A2820F44
310
3B7914A15F180018D231E64519C56A12F6CA7C8DAE18F06F6B769DBF92329EF6A5D18FBCE600F36BD8E8198DE5CDAA96181F3A756EBA5501CEE58F497EA4F418A2B82565B9BCC611713C0B708CCA1F398B78C5F7D03B3437CC18F13061F55C7BEDADD5ACB1DB0E36D3CE47FF6EA1A563A57E9649EA5D14D1A50EAA45746338
310
1C073777EF1600607BAF6428A7DDC079D47A204EF1E1F1F0589FB054D45E02CE623B3823C317C601E589E22B1E88B448524B86A82828E32345EC18AE17214B42F8C41C6D428016D9BA31DDCB47572561E5A402E5BA4FCE55F78AF7268524AA04130F3A20BA5D1E9F9948EA48FC8F5314FDB35E21898198060034ACE5E3E2BB
310
CA34092518F275190AF65F45867FF0900AA4B81F25427414C372BF51DC29AA855C5428EE1EEDD6B849AD60F6E73475C2D2523F8A2772C840A478DED18A8C5C91B085F255DC4F54EA7AA8947354FD17ECF8FB3B4A0DE7B483CAF3A1165EE05BBA413E5C1FEF3DE1D6B8F2F3F3251C17D9FCAB48A9AAF63AC773A0E413BBC46A
310
9ADF84A566FC920E4D8C52C9769EE3301CADEEEDD92B312E02E2A7E35B7F1E7D203FE5A7D75578B06E99D0E46FFADB8FDA17ED8880390DA29094202D6F645F76F6F96409CDA05495A96E84B04A00D1A6C6C81D7F3DE9376E828CCF144EE50E364ACCE7237EA0BFB5607ED1AC3CFE73794E5B61739D14DF1743441B1AC98F00
310
ECEDE9E7301FA29755FBEFA68C91EF2B314CF510537EF1ABFC9A762496280B546F5EDAAF8A5B387D469FC9A878A92828C88608453ACEC6094DCA54111E7AD5B2663DFE2DD151B7F123B9F4FEF8EE36AB125FD7AD52A59B1B765B3E3F73E3F73DEA93875004D2AFFE3CDE9493B87A9904DD052028949041A91DC0E1BA47BA71
310
4343FD5B25E0A6A09503AFC17C790058A836A324FE31D7893512E28230332F153181C1E018E1124EBE1BA262AA428A518237D1EA7275E48C5C561BD19ED6912EDD8367DA0F31E40EEAE9683DA9257525AEA7B632B97119E17145A90231768A4F3B9120FF32E8319B015E3CBE26F1A754177D8185345817C096B0CE443A955D
310
13AC15E1FB5DEEA0239EC32A3C92241A237B0B02FFCB4F93CF2B02570C8D192E2F2A68CEEB42F12E6F8CEEFF46C251E22B4341C56FB08CCE550E7A9D6F4D6564B9EA52A83D5BF2C6E03FA19D2775E15A8A7ACF30A13C259EE7F5EF2AC3BA354F1500E1A07FC63FB4686E2F12EC69719F9ECF5FE3F35598DF2CE944008CE78F
310
0911BA5BE5D0A34E0098FF038669C26030BA9B300303039852A8F6F496341737CA7E0D2E3AAA36DE0A70AA7D9CA0D54D9AD84B18A44C9E625475E1C97B93BEBB38DCE7D227E67A2D00F531436136355F243D1FC0D712C5765754FA22FCFFAE97919161F46D6E61ACB37D83777B385889770B50765B127768443A5C4D3A4E35
310
A3151111F146B7CA116F918A049F1C272F2CD7976C69A0068773451659A97E0F4A08FE604C3FF6CE7385DB19F4D3ABC8A0D80DA8A42096AC377DB49382B36E270B6FA7570188B4B7D1DDDDA82ACA487CCA5D38BD3BD039ADBAFA4ACFF27809239B722081E2EB9F145320553D183F28471C388BC8814E5045676767AB58A8E7
310
2D1CED2CA731379515D2E533E4CF0B39DFC625F97AC4836831A4DE330E87A8126FA17EBE583D614E71E22A8DBF2825599743E0640037303E8E1B1E8EA4E1ABFA4F62907B5E4E0E5DCFDAB417C36C6848A2B8D15F1E505434C0707E16B1CFC2A1C36A42BBF55734F8F4301DDC2A5110CEE8C0747F69519265012A2174BF4E95
310
5ECD4FDE095A3ABC70536B7AD0B9D7892F81287D667C108703C9B66A221E9A0929D030008F77FF6F5D2108EF5706FC87A3069B976F7C9FC3239D13D283CDEA83597461079FEEE049B0F392889898B7D87D31F8D60ED7B56B91823A8E4EDDB36C6172ECEE42BD42B12CD67994FA0F0DFAE9389356F4CD4425A4B8AA55CBF7EC
310
D585C6A2C2316791E43D5C06841ADBB226A87FD61515FFBB0167B74E56BD7F3E90A57A97FEDCBDF483A0D6699A8C0849CAEB4947FAA90D8E332D9DEBD9F4738C37DA0CAF9CF3DAA68BCB67C420459C7A64498D6E848E5CADE92BB6901F607AA331104A67F7CD650EE169B1DAE94D2C31C2F993632259B6957E246EFE4C5481
310
107B07118607700040E5812A2A2A38DA0076875258C753F60E0F2662C748EDD5F3F3686B8FC3BD6FE631ECCAA1E8B1C1E565AD117E54893E79F4672E32F9E46B2A183DFDCF3EECB4D4D077DBEA0DA254D256045109670050129E9B9B1A9E4A11344D61497A992778095151510C4BB7EF2009B63AA4360635312E4CF668B7E0
310
D3D85A8688E2BD83B569439892ADB63461930D428E0DE42E4AC57CE48DA5CC1449530D8BD3D6A0F08DF20C8E8F570F2CFFFCEA286E30969B4654D498A58D9DA782E19FE3F002181838925592C4A1EF0B332D88B61A92C644547BED490D3A42CFFAB70E36D961F694F6307F72FF15A1C79D5B1B5CEFD353D9E2B52566DEC8F8
310
F09CB3E8359C0F68EBBB7898243E34E12A015B2685AB303C04D3A9E00671FF3DFF0A184E4A2ABEB2B666AF5B3A209C73D8EF29DCDB069C9F391EEE9DD0F74C7BCDE16F8F02E3B8816122BBEB50665775B600549D8BB33A54A6BF940C028118BC6878C79958D6784F9DEAA6E26748386FFAF8D0D0101E2847B6563F5D8DC1D7
310
8F787BE00E2C941AE12148D4A81599FE8F68D4DA5CDED75530ADE138240300EE13B0FC13A1687FED6774662C05A2B7DFB186732F0D7A93545D8B0A6390AE5054D9CB582DA846D7A061B3358B45E2B52DDE63E114397EDB7E09233A579155D795BE76102CF277F4DF8B188C4F2879BEAE3C08347124BF9ED23B128259FE107D
310
31E34A652F090B30B39E0D9AF917B76A2806135621A8A60681F16AF216514BBD02711585B5B1AE823F4B2D0369EA5B6BCB863072727FFC871CA6C9AB79A814D989057E9470A3D238BC87CBB4A0EA49AFE2B86F22E499793CAA9047080450166BDC357524561E258C77CB697F1ABB32562CF87C3B7AA12F911EF19FB3E5C022
310
22E887D08202A60A17151F5E053A86B437771088B4FEE14D652C43E8D939995D34545E12E2FF93D4E366EAD25F10CB7DED141563C3D0C447AF06078A91135FD4B9611583CB4BF3BD167F2399CEAB0E0100F8FFC305F00F1711717173138B4B48C83022295DE657EFEDD97F238ECA80F528AFB4F8D67AD4E2594B9A3AA86D74
310
87EFC313BA95745C186F0CDD84CC12DC9CB0424B42203D351FD9C0A3AF10CC7F388E0329279087386421F194F4A29464C1DEF7EF8BE515E4A199DCD5B909342598D8FE6A231F71336248D5CEC5454455C7BE383B3BC7B260FED27F703FDC39A170F3827239102F59D4DEE7FEF82EAA1A5E4BA94DCC4CC44E7E2EDE20F24244
310
E4454369D2E87C3F823F193FD4FD27E1C23984B01898D15ABC20711A8A558054951A6AE280096BA36CBA439603B7B0B4C45F248C14B2383B4B5CD8ECECE4FF859AD4A6CA2326D020EF090F4041D28DB66E5256B56232CC52829DE8060BAE6BBF37D4B7469B822454FE93210A3E8D15E69FFCF01123222611C51C4FD0A041A0
310
CFA2471CF6BE38D2B20FA4C3525B5B8B586759475CF80ADFE67A284AC24651E52B8E683D24C2622642F27E7C3C22783BCF63648BC398BD6CD0D9C97E7E7E3EACB6126DB7A6C1FD9F1031302EE67ED96F22B77C7CA0239BB324207559B105E4693EB26EC46182A92C9C0DBD24F29B31C5C5AC1F84300E0E17CEEAC15F5736FA
310
4A98971E2F1423BFCD68D4BBD5F86E74B40A369F39507C88FCDB35D2DD8DEBEA4AF999E23CF2816D204200DF6E611781B9884C1AC8888B4DE397320472959434323A5A36B22A8E1F721A270DF3BD65E4A31C11FF048AFB0D8B7B6881423793963A23CFCE935FC189ED36FAE35C46DA3574C979E4394BE52084F3081837BE03
310
3396D2EBD80F1F691B273F660D2B32FA27A33B1DE4ADA5F0FA4651511102DFA410DDA86E065272CA314D5249DF91B06BB92807B28EFD54F08F7B525252782CD276DD02E6B0319B13DF87B1F6361AD6B28FC0D711CF445429B9E5A433CD493051C49A9E03DDB1B147D880253514A5DED88009018620EE229101C041950E2D8A
310
A8E1F5F5438E0C0C0C60EEDEE9E3E0C051948C69F84BB7B2A48A1F3C8EB9E6864687F4F4F6F6E2FA87608ADAF9C5E117B7C1A737E710769DA1D15ECE6A84502AA855398712D5FB51BE92E4EF824969CE18278798AC303C2C7980DD2500ADF8FB1E6D6C2FAAFF9987178923334A244758BAA01A9A1B70FA5097D01E1CC2A58D
310
AD0EC94CE6430AA9B0C10D75E3C6BAC670EFBADEE1607739CE0FC18A2587E3EC3058562014C64219C69BC269082D5C2F4A659278D585755912176D78A1B641719C2A394CED495A1AC5D583FD2F5EDD93308EA7EAE8A6DD396598BDBD3D4CFED62D18A5BDFDE0DD5C80D1A89BA62697B131AE7CE9A6594138582F1B37D68F17
310
49AC7CB67A70695D48A4A056AC1FBD4E82358CEAE38F54B95A9016F9000F9879C0D9D131768635CA798895F27D6F1614F11F2838A83611AA51C9A3DDB539D42979C29F10465655C17BEC3E2760B80DCBF609198C7B171A531905F3EC218D696025975E986C6B4C666666787271F202805577DD5A3EF0CAFAF91B62DC4B2DB4
310
217A7606282F31D8DDBC290593BAA93EA6353AFA9939B877978481E15CFC9F2755CDC00C538F63A4BA3E80AE009B73CA0185687D339A507D165B74290D6EE46D5C58148F020C3668ABE9EF2F7549170DC80DB41FFC1D678FF19AEB10C7133832B104B80F691B3138F97A92D26E551F1F110400D45AC71A9B9AC41A1A1B1DAE
310
ED0B0810638EFFB511D46B121C6FEA0F38CD00E03CFFEB9713FE1F9C263E4DDEC160D0497FA9A132BA608584057FB15380825DE6C7FC3C667EE947D488A09898D8E939C4953BF4EC9836344D2CC6B2971B2A21A572B06096F4982D2CC7232D46E8EA69DC83722E267754D777F97F96D5DA74E1E75178084D0E70F12AD33E5F
310
71EF2AFA599B2BEBF60A5BE475F444F240CBFE8143C334E7ED9150FEEFEF7EB020C4DBED388DD1D6A167A76F3CBF119B578AE8CFA7736ACAFA4440A1C47185638A0D2F3EB5BDDEFDA958FB13CE4AA4923D5BF840392D45544329525749734866684BF7F8D9D54D892E19BCA9F829A0F8BFCBEEA6CFDFC61D74EA1A645ED7A1
310
FF241739F15694BD835B66FEC5677E40FE69BD3F91AE402F036537218A401CB0828604AD189E575015C6F3F6BBC8AC79CF6C70653847254B31551EFCBEB5978B9DB85D58D0FA41A9DFE9C624834AA04949D24B5AE6D299E072D152D12097920F14AA92C31C3B97E28B6C2E6E9C23D63043ECBBC0A60FDF5BD0C33C127EA8A3
310
308B8B6AFFEB28B4455BF6E7AF4FC6222728357EB8E46E85053E6A8843AB23295BF838ABDA94658FEF3F832F147046B4ACD6F7D48E8FCC9618582961C898D1C7A253C91BFECBDA6BA18A1FCF70755DCCEE2222F41B76D23CA98D0CB3D95F0CF66D57FFF65E2A90F5DF40FC3187621E981BD0BC1D992787212688976B94A8F0
310
C6EF646624B570B78E068826F87CE27041A95C9A4871FF65CC17FCB1639629AD6A9517000D63AC231F3D741CB8430777E7ECF80CE7A3F73C0F162F7E56AA71F4DA80A33CD6ACEE78E2C11FAC03DAFCE929B106F8F6B3ED2DC71FF994BD9CEF4E9A94896EF1B6E2B7B4978168BCF0847A3D2A4F1B0500B926E634B174548E9F
310
BAD27153FB5FC36799B1E6C7C38A94E1F9E996796D7B485E635D5287A2AE76FBD11A341DB3F8F810385BB7296391973DC6C37C452A9305AEBBE0CDB6C566DB59FE60C8E94B1FD090354BF51439FFD1B48D725228FFA88C84F686F547107A7A235665A4593B7C34D748C1AC8D56DD5DA861EEFBADDECBBD65117E65851F9035
310
1AEB65F0EFCFF4BCFEF24CB7A5879699FAC437A7AF9099186CF006BB923A59E37D7A36A29FD8D2CBB914A5E9D0A8FD212FBF796AE9A67958FF1D5D8B85F78F96219D4714EB919929241B6C018AAE0C02069F8D919961EC5DDFBFB7573E3AC8E08BFB7C8534BE6DE045B3CD63DBD71F7638BA2309CAE398EA3A7D8F98BBBC7A
310
EB367EFA5CFA27A9F8F2F52FE878058E6209C026453F8E7E8A237DFC389E9590F6059B397CFD65183BBF936E86896612A5B5FEE49DAC8455D026218AFEBEC12B3523A45B57B82C9C97E02ACFA1184DB18E48CF615DBF39C3CC6F0B4AE6BBEEA2E39D944E290302FA3DE33FA7E40296E2EF7BF1CD855BBECFAD0FD622BEE974
310
6FC4FDFDE545AE6E3BC234CADF83A0FB76DFB145BF3828AE3436368AC24989454F8FF70A177672C711CAA1A76107218CF948CA01F873520E7A2B118EBB161ABAD432932029628B6761590C98AB590C8C8C79798CE9F715BA696E839E9131A4BB68BE923F1747FBFF165331FFDD4D05997ACD168F12CA75348DAC04C7F509FE
310
83898A8B421181AF492861CE81E4A2DD0A30850CFA95E05F097FF70F9E777310D584A75BA7018922E271DAB1D785671157685B7D383D3E074DDB4F1E44EF04B07BAAC75A062077C54B9752C738C9D804D402E02851F3F89605AF189738C18C021D2139EAF72513824E10DDD3047BACC8521ED7E98B257D1166903B1B08FA6F
310
918FD7E162913FEC7D0EF4787E29C35FBA8C6E2C9C20E9AB30AE42CA2A01A090E7D010C1B5BF9CEE2A304BF3A987FB40D836979B79E18D70F257DA61E808472DD85B82761825779D6B90CAEB0F23360C6F80A7D7D77545E95B3DFF0CF96A827F9B5BCECD2C9698718417EF80FEEDEE938AFF55859D0D540B7FE09435583A6F
310
04874A0C7E8CF234DF4879722000167F5872CEC6BF3EF7E5A8CC8121E6A359227C8A29C95212F9F735BC72A887D56B8F309FC525BFB4FD767AAEC4AEFF249CFBBD2DE1AB9969A6155C7D8DABC307E47324C1F916C7BCFF40ABA5644E9FFB9238D19ADADA49D9610F01ABBA57E4DFCBDCCBB2B93C8953206C91DE01B0E2651A
310
6D6C31721915B31F7B7CBCE55466F6D70402788FA91D73BE4ADCBA99A35F17D6B83383704917D6833F0FA3CD45C926ADB8BC17999A4A0AFBCE2541F7B8CF4C2F5FBA611B3E626D64407CB32C122DFF4EF8674D6EDBB86C8F7C6A16D50FA685E2CCA34F8F7D1D8265BB0042E9D7F1F666F7BE5FAA5184DF58E12122A42EF02F
310
461B3F369AC746F96528AD208512AB56844CF75B97F352DF7995024FB02855385854F3798670D01CAC771AC3E1889EC25F61A20C1F8CAB46898817F9C47E2CDA1F286BF2F358298709FE567C91133E2638C8B53975E753EA8BFD3578B5F7186B7BF084EBA3F77BAC3132A5779902EC22AF2D2E79F42D324E083386DAEE9810
310
D1B44A5DAA54513C7A71E52A4AB9257D975B621308FE4D2141CC3DCFE946C154A3C1DFCCA7629EC69ACFA831634ADDA93C0388D2A9A2DDAFCF957C6995BCE7FBB6DC4EBAE79E63EB08E9A25F52F67076F7093CA545CA3053B5BF576DEAD4E0017143C5F759F32B2D6F145B52B67B48909B7C7FCA6586EE385A2189C16932CB
310
6DDFD9152AE317C430492A578ED27B72D85D40C7C93C097939E1B50F4D67F05334FE9DC362C30B7FF561B95259138ECFD9274C8D695C31B14D4EAA9F3D7FA8DDF652F8C5DEFA23284C799B7D94416DEE81E05A866302DC70192A5368EA65E1CED8BF107A1E2D3119A71E85DC1A7B0C1E93274CE04DD0F2ABC8AC7C987FDB00
310
2B6F81757B43502EF7A0D92E416494FAEEA4C9C090CD9557AA4D532F4996A272B94355C5A0E4974EEA9627476F30809B94D8D8D860062E02204643BEC7D0438AF800FC7E2B26955D595421E83C69E1A07E0E3122285835F014AD538188CF9737CE76D464A353FA55A001AB2526B84E985083693BC76FE211CA1D000679C889
310
E3C009832C87E1AC2EDD05C302557422DF0800E316FCAC86978A371F025A6C7DAA9F333E7BD160403A1A06EA75AA9888FF01504B03041400060808009364565251464CB48900000043010000360000006662782F36313941364534332D364642352D344232392D383131462D3332393035374430463145312F646972656374
310
6F72792E786D6C9D8F310EC2300C45AF127987122606C71DD918B841D4B851A43646695A717C52A85029031293A5A76FBF6FACEF7DA7264E43906840EF0FA03836E242F406C6DCEE4EA06AC22492573150D1F66C60C640E8938CB705396EEDD86DE9B5042FE27813D640EA63BB001C722AF6E55CB61E4863F58284D5D3F53D
310
D715CE1C3985E63FD7F1B7EBDD617E9F1E504B030414000608080093645652C65DE6833C070000541C0000340000006662782F36313941364534332D364642352D344232392D383131462D3332393035374430463145312F6F626A656374732E786D6CDD59596FDB4610FE2B0BF6A57D102F1D910259812D598110380922A4
310
E81BB1A296F4D6BCB0246DB9BFBEB31745D29444BB0910D4062C7AB53B3BF3CD3D9C7F38C4117A242CA769726538A66D2092F8E99E26E1955116C1606AA00F0B3467695AD4F61928C131B932F8B2B198872C2D33B5B427012EA3F6EAFAE62F94FB242106F2239CE75746EEDF93189BB82CD23DC91FCC3D2EB0190607D331E5
310
C626D990E1ECBE75558619490A6015D613A0A238709AFF8248D6626EF10D8D6D6EBF6DC333DB2C217893519AE4054EFC175CB5E8B8FDB81A3AA3D5AD3B9E0DC6A3D170309AB8CEE0667DB31A38EF86F672B25CCEAE6F67065ACC77691A550AC848B2072D3E1B0B676EF16F2AF1150A5D7CFB6992105FA1D9B5614F145D4AF2
310
36260D601D215A4D2152D6DAC2B0A7F027B6F502A5C152036D2D9CFEAC5B6FBAFB1B40C8FB5829CB09B7F2BC60A06B85BDF4077B6EC9D5865E688E625C1046718422BA6398818260AB5450830CF7164E0A71CC841635BD3AAF60D8977DA98BCBA08C22EEBFC642789A07FE488A5C7046FF21ECC87DFD36E009A42D69524C95
310
B0C573062466734B2CCAEF86AEFA520289820887602D2026DF34745B782D792CD8AC8CC5A7F5EEB0E5F1A1FBF28CA5196105B73CE1CCCAEFB4066BA605C6D70314896B53774754BE01F49F01F98A173407CD317A181D465A7686933C48590CDA41361AD8F0C746FCF1C5D3DCAA0E2F106AC4CA539882DBFE204C1B6234EEAE
310
41BA983F82D1A76CA884DBFA38029BBEA309F773301414A5B004F13ED81D8CC50682292CC2291C81F4F03BB7F823820F4907E24D4B435DE1B787A2B4C3B4FDECA8AB8F60338CFA95AA1A329EC277FC43F0BD5E6D3F6D4B16609FDC29C75E918026B48064DACD5003F486CB7FDF7C161EF9429EC62E1FEE09531E383AF4B255
310
7A414231C00ACFC3523562E58E82BB47114E485AE66ABD2B50F96994326FF7EC491FEEBCEB4F6D04F232F06F6E019DC10CB2BBCF68C64131164ABC2A129A479C781C5406184AA57A3BEC3F70783D1F22D65BF800ABC5AC4DB48C330FC76999F0F0FDD2BCDBA299435BFC38CECCB567EE74361E2B8307DEC505DA7F7470A8D8
310
E737C5383B71CDB2A12F15373490D29346102FBB64F0A16A2A0B2FCDB04F8B6E6B6889D193E53D0D823287B0DE094C8B6373E88C2536FAAFEB22FB15AB1553E7A5554C7934C621F102CC7362277F0D402BE25A499D4886519AE73421B9A8695EC4BA168AB609A1435ABAA6DA61B634F76252E0B758AC48922D836524883CA8
310
BE0A5EFF5EB657CDA0CAB7A728F25A2F4D3C21FFB397E3388B645D770903C76DDDD0892B679A5FF108F6E9E1C2B3F74494E997A8579144E3DB8BFAECCDE44FC0C3F04F87475F41A15887AC7A59B38E397666FC670A61683276869377952A2EA1A52F2B78DD12955069F9CFDE13A1E17DBF20A8557EF69E9C448147A3A88C3D
310
99430A1243D9868B92F5F2D8094493F6452A32B45CA27653402328AA7B875951AFE88A052E1305CBA9305BBB0684A209F475BD04792145A7110B5D881E96B76A97F5FF7AAAFF3962D67B9B07F2FC94B27D27A7CDD243576DBAC8E00153E5C44ABD82F2625E77BF58343B97711869222AC2C9CE425908238F940F3344D7D4D9
310
73E44FB8F021946EC5E7E0063C624FF6C73AA4414E8D468C055CAAA9E9DAB6DE1D41B8E309A451AC6D78488D61428179A4BDE30FD1370CAA866A31B7542564C9F50D4F6D260C638E7C9CA1F5E5E3B64505567A9FFECA31224F2D0A6A75C98BBF33A4BE6F8E356E8B8292E8FBE6CCF1E2BE8C7709A63C3772B3C0FBECFD07D1
310
7F5E59D05C581367763DB98551C7647D331E8C6EDCD960EA38EBC1D09DD9E3772B7BEDDC3A1623795A329FE4966BD99EAEB6B224D48621A1EBD385C024E272BBA8EDB9ADE0FF711712A53B7CCA167FD526A42AF87849D6F2C5BE4D4867A0DEBDAE63705E04EAEE24F6AA5A5BCE17B4819F4F5B108C74BEEF5F5C68D23AC377
310
F35CCB88AF4CBC27FB9B9F9E631A01BD333F34767485FC662C8679554796D21DB1ECBEDDB13B5C2F4783EB6B98D68E56A3E960BA9ADC0C6E47AEE3DA10C6DCE1B4425CE5C2BE79E59788A19AD9DAE80D26C8791A5118E4933D0A490A3D104C2A7AC45716935CF4365000A834AEDF22F438FD28E7B005DE45FAB47F8F61981D
310
A98C5CFA304885BEE3CA50EBE837189DF2E9A51868990F907894B51BA864F4CA00132828E41773072330317014D45B234E501B4E42DE35C953D5FFC7631C1DB095A35CD59E3EB828C91AD609E3844CBC5B8068A70B92B78BAED941B880C75D5954C21C178ED22810F44B04291C4C0A1F14BC07083CE7E5724CB1A70149AF69
310
FE593B9054070566A118C9D7F0BE5E7DB5F8347DF30565511972759ECBF70D4A035E6744A51C5CCDC130949819E69DF8F2BDF595A5F05A2A466B0A46807E3F4C277F58CB348ED3442E59D7EAE516DADEC3ABAABDA5C78450B8D8CECC12758F7A1500B3AE9C98789F3FC002A896513E4F9510370CA00A4F3503D01AE1BA8063
310
8DFD9B155249A056C2D64B570E8F780F80C091F8FB1FEE36F50DB5A125F802702567BBD5835E985B0C06E78B7F01504B030414000608080093645652EFA5E0FFE1000000550100003C0000006662782F36313941364534332D364642352D344232392D383131462D3332393035374430463145312F7265736F75726365732F
310
322F636E782E786D6C4D90CD6AC33010845FC5087AB4242B5042909597C8A997A0CA1B57C4D21AFD94E4EDBB4A55E86997998F6576F4F911B6E11B52F618673671C906880E171FD799D5721B8F6C381B9D10CB3F8C0DD10698599399D16BC2BA7769819BAD5B53371FEF5D94D7152224EFAE7B5CD9E0369BF3CCB2FB8260B9
310
AD0517C877BED862F9C41364ACC9019D283E403FE112D8020B334AAA69946A54EA32A9D3E1FD74387E68D148A33F11B7CEFB5820E1FEA6A4435A2325925A34C0E89A7CA7DA1B64FCC5E3144F0BB28DCE2551071D2BCF9D301FEC0AE285FCBA468BF6248D5703345B21E607504B030414000608080093645652FF15A4A45D00
310
0000800000003A0000006662782F36313941364534332D364642352D344232392D383131462D3332393035374430463145312F7265736F75726365732F636E782E786D6C4D8B3B0E80201005AF42B6F75B59F0390B113044D83508C6E30BC6C26AF226F3B8BA6360974DA7271430F523308B2B198F9B80925DB700539227A2
310
FCCB80A18E5640D320F996A81C9F32D6E9129A0D1EF74FCE750E6D57BC7165FBCA07504B030414000608080093645652A70BE6284101000056050000300000006662782F36313941364534332D364642352D344232392D383131462D3332393035374430463145312F636E782E786D6CCD94CF4A033110C65F650978DCBF05
310
29259B82079FC08378CB66A76B6C36B324B362DFDEA4A6AD22450F85F61626BFC0F7CD7C19BEFE184DF60ECE6BB42DAB8B8A656015F6DA0E2D9B69932F59B616DC21D2378C65568ED0B25866820F0EE729957AD8C8D9C4AAD1769B8A92C8E96E26F02C53467ADF32AF5E6194859C097BF0DBA297248BBA70E071760AC27BD2
310
23A4F7CA8124E89968AAA6CEAB266F9AA7BA592DEE578BE50B2F232978876812AF2D81C3E9AEA91486A30D722A5E4640F0D9E944450F4C9CB4159DB6BC0CF782FBA0D70E89A3DD14B969325A490A8D2A5111501E2090232FBF60C1CBE8F887EFC787E7938670EAB50345E876576B437DAE0D47694548C4FFBAB007FF328FDD
310
5BB07CBDB99F359C845DCCEE21B93E44F77712429EA41DCC2D7E80A3B4CBE73F2C16D2EA164D1F945DC873B95F8161F071238A4F504B03041400060808009364565290B6A8657F000000A30000000B0000006662782F636E782E786D6C4D8CDF0AC2201C465F457EF796EE8F4D5047A3F91EA3B921390D9BD1E3A7B18BAE3E
310
387CE788FEB339F436F1658397404F0490F1F7305BBF4A48FB823B40BD123184FDEF06C84F9B91503028B1C6909E079ACD322557A8B3FE714046F9958D4D8D991E5ADC0C15C71DA51AD71527EDE546341D6936CE45C9F3EBE52D79F505504B030414000608080093645652A6D797065F0000008200000007000000636E782E
310
786D6C4DCB3B0E80201045D1AD90E9FD7516806B51190811670C8A61F982B1B0BAC9C97B72CA7B1037C6D3332918DA1E04D2CAC69353902EDB8C20262D23F3F59B81A079470595414B17391D1F19B4730A5583A7ED43BBE4025D9592775E5ADFFA01504B030414000608080093645652ECFD112DA800000026010000130000
310
005B436F6E74656E745F54797065735D2E786D6C7D4F4B0EC22010BD0A61DF525D18634ABB506FE00510A79458060253536F2FD89D5197F3FED3F68B9BD80362B21E25DFD40D6780DADF2C1AC9671AAA3D677DD75E9E0112CB5A4C928F44E12044D22338956A1F003333F8E814E5331A1194BE2B0362DB343BA13D12205554
310
3278D79E6050F344ECBC6478EDCD76CE8EABAE5449AE4298AC56946789C28AAFBEABC53F3EAF09A84A1441B91F0101CD4780756578C173A578FFDDBD00504B0304140006080800936456523DEE336E64000000790000001B0000006175746F6465736B2D64657369676E2D7061636B6167652E786D6C35CBC10E83200C00D0
310
5F21DCA56CA76D41FC96062B120735B69A7DBE268BB7777961F8D5AF396893C2ADB70FE7ADA196782C2DF776D7A97B5933C430F15651E5469C55D70F80A4992A3ADC954792C525AE70A1E4D6AD9816CC044FEFDF01FE3FDE907802504B030414000608080093645652416899ADF30000008E0100003D0000006662782F3631
310
3941364534332D364642352D344232392D383131462D3332393035374430463145312F7265736F75726365732F322F636F72652E786D6C8550CB6E833010FC15B47703360441641C35457C414FBD59B643AD041BF951F5F36B072AB5A79E76353B33BB3BF4F2B53E8A4FE5BCB666045CD6502823ACD4661921861BEAA1B830
310
EAAC0DBF685018BEAA11320C8C2ECEC6ED80843541998C1A2BD50172EF5580423C523382171F6AE5258F2131FCBDDCB8B8F34595B8DC798CC6A8E521D532B9E99B560E583D5D7B3C5D5FD13CB7336A9BE1847AD20DA8C5EDD0362FDD69AA7B5A6531A341AF3FDB85533C28098CD404A39A2042DE303937DDB9E9DF6995998C
310
FAE0D2CFC7D2FC5DA2D36A47FFB8C54DFEEF16B5090D39DC76850786D371CF01A3554E27956774A9E624D937504B03041400060808009364565245413982F9000000960100003B0000006662782F36313941364534332D364642352D344232392D383131462D3332393035374430463145312F7265736F75726365732F636F
310
72652E786D6C8550CB6EC32010FC156BEFD8063B961D61A2A651BEA0A7DE106C5C9418221E553FBF90B8527BEA6957B333B3BBC30F5FEBADFA441F8CB333D0BA850AAD72DAD86586142F6484EA20B8772EFEA24165E58A331418045FBC4BF70D52CE46B405B54EE306CA103042A56EB99921A80F5C652D53CC8C70ADEF525D
310
E58235AD9F3CC153327A931A9DDDCCC5A007D19E8E233D1D5FC9F9DC9F49DF4D3B32B261223DEDA7BE7B1976A776E44D110B1ECDFAB35D7994113508D6324A5A46187BA36CDF0DFB6E7CE74D610A1EA2CF3F6F4BCB77203C0697BCC2C09BE7F48F6BBAEBFF5D93B1B1639BEB531140D07CE46320785352CAE51161AE2551F1
310
0D504B03041400060808009364565283E4BD1EF1000000B1010000310000006662782F36313941364534332D364642352D344232392D383131462D3332393035374430463145312F636F72652E786D6C8D50CB6EC32010FC156BEFD80627AE1D61A2468DBFA0A7DE10101725068B4794CF2FC4AED4DE725A343BC3CC0E3D3E
310
E65B7157CE6B6B06C0650D8532C24A6DA60162B8A00E8A23A3CEDAF0870685E1B31A20C3C0E8E46C5C3648581394C9A8B1526D20F75E0528C42D3D06F0E25BCDBCE4312486BF960B17573EA912972B8FD1A0E75FA9708A072581919A60541344C8272687A63D34DD17AD3293D118B5DCACB44CEEFAA29503D6E2FEBD3DEF1A
310
D48EA73DDA9D488F3A8C47D490BEDEBF7DD4233E635A6531A33EB874F3F649BEEE55F92AFC97392EF285CCDA84866C86ABC203CB799E0B46AB5C601ACF76D3CC65B31F504B030414000608080093645652CA06E69754010000DD0200000C0000006662782F636F72652E786D6C8D52CB6E833010FC15E4BB79181291C8386A
310
1AE50B7AEACD310EB50236F203E5F36BF310E5D0B44232D6ECEECCCEC8F8F4ECDA68E0DA08252B90C52988B864AA16B2A980B3775882E844B056CAFE680391A41DAF408001C18D56AE9F21A6A4E532A052D57C06A931DC8288B5FE5201C3BE784763EAACEF308FB8A7EC411B1E67F1D447B073A29E4745EDD9C45D700D487A
310
3997D9E5FC0EAFD7E20A8BFCB08325DA1F60911587227FDBEF2E698993304CB015DDA2CE34A796D780A01465304510A18F0C1DF3FD312F3F71123A0936567BCFB3687007C8FDF6C4C9846FF85C5FFFCDE784B4399AF9A6090348E6D71B0B0427211FFF1BC3DB66E8857D7E96DEDAC5C2C343036756E9C2576AE5D6D2405BC7
310
3D751A8D1F4EA6AA671E097EE3412F785E73F8A0A86CFC6AD4FAEBCDD9A0BEDDA9E71A0EF61949A53BDAAECB4D2BAEE72AB4B1B48C33D52AFD9FE9C5EA1266121E26F906504B030414000608080093645652A8A72F4707010000B201000008000000636F72652E786D6C8D504B6EC32014BC0A628F6DB0633911266A6AF904
310
5D75470D71506CB0F844EDED0B3195DA5D570FCDCC7B330C3D7FAE0B7848EB94D13DC4450581D493114ACF3D0CFE8A3A08CE8C5A63FC2F19049AAFB28709868CCED6842D4393D15EEA846A236406B973D243302DF1D14337DDE4CA0B1E7C54B87BB1F1E9CE6759E062D731EAD5FAB33A59C9BD1490918A60541144C81B26A7
310
BA3DD5DD3B2D9392D11094C8564A44777555D242560D970E0F9757348ECD889AFA78401D698FA8C1CDB1A95FDAC35075B44CCB8C3A6FE39FF39198D303C71FC997963BC5E887314B16C4500218BD7C45135A26E24FE8B0897F8456DAD7241FDC371C6438067A12D1383518C7B3DE3853DBEC1B504B01021400140006080800
310
936456520000000000000000000000003700000000000000000000000000000000006662782F36313941364534332D364642352D344232392D383131462D3332393035374430463145312F617474726962757465732E62696E504B010214001400060808009364565200000000000000000000000035000000000000000000
310
00000000550000006662782F36313941364534332D364642352D344232392D383131462D3332393035374430463145312F76657274696365732E62696E504B0102140014000608080093645652F270F13306000000040000003600000000000000000000000000A80000006662782F36313941364534332D364642352D3442
310
32392D383131462D3332393035374430463145312F747269616E676C65732E62696E504B010214001400060808009364565288E57597CD3F0000904100004200000000000000000000000000020100006662782F36313941364534332D364642352D344232392D383131462D3332393035374430463145312F7265736F7572
310
6365732F322F305F67656E657269632E706E67504B010214001400060808009364565251464CB4890000004301000036000000000000000000000000002F4100006662782F36313941364534332D364642352D344232392D383131462D3332393035374430463145312F6469726563746F72792E786D6C504B010214001400
310
0608080093645652C65DE6833C070000541C000034000000000000000000000000000C4200006662782F36313941364534332D364642352D344232392D383131462D3332393035374430463145312F6F626A656374732E786D6C504B0102140014000608080093645652EFA5E0FFE1000000550100003C0000000000000000
310
00000000009A4900006662782F36313941364534332D364642352D344232392D383131462D3332393035374430463145312F7265736F75726365732F322F636E782E786D6C504B0102140014000608080093645652FF15A4A45D000000800000003A00000000000000000000000000D54A00006662782F3631394136453433
310
2D364642352D344232392D383131462D3332393035374430463145312F7265736F75726365732F636E782E786D6C504B0102140014000608080093645652A70BE628410100005605000030000000000000000000000000008A4B00006662782F36313941364534332D364642352D344232392D383131462D33323930353744
310
30463145312F636E782E786D6C504B010214001400060808009364565290B6A8657F000000A30000000B00000000000000000000000000194D00006662782F636E782E786D6C504B0102140014000608080093645652A6D797065F000000820000000700000000000000000000000000C14D0000636E782E786D6C504B0102
310
140014000608080093645652ECFD112DA8000000260100001300000000000000000000000000454E00005B436F6E74656E745F54797065735D2E786D6C504B01021400140006080800936456523DEE336E64000000790000001B000000000000000000000000001E4F00006175746F6465736B2D64657369676E2D7061636B
310
6167652E786D6C504B0102140014000608080093645652416899ADF30000008E0100003D00000000000000000000000000BB4F00006662782F36313941364534332D364642352D344232392D383131462D3332393035374430463145312F7265736F75726365732F322F636F72652E786D6C504B0102140014000608080093
310
64565245413982F9000000960100003B00000000000000000000000000095100006662782F36313941364534332D364642352D344232392D383131462D3332393035374430463145312F7265736F75726365732F636F72652E786D6C504B010214001400060808009364565283E4BD1EF1000000B101000031000000000000
310
000000000000005B5200006662782F36313941364534332D364642352D344232392D383131462D3332393035374430463145312F636F72652E786D6C504B0102140014000608080093645652CA06E69754010000DD0200000C000000000000000000000000009B5300006662782F636F72652E786D6C504B01021400140006
310
08080093645652A8A72F4707010000B2010000080000000000000000000000000019550000636F72652E786D6C504B050600000000120012002D060000465600000000
  0
XRECORD
  5
573
102
{ACAD_REACTORS
330
56E
102
}
330
56E
100
AcDbXrecord
280
     1
270
     1
271
     1
  0
XRECORD
  5
572
102
{ACAD_REACTORS
330
56E
102
}
330
56E
100
AcDbXrecord
280
     1
270
     1
271
     1
  0
XRECORD
  5
574
102
{ACAD_REACTORS
330
56E
102
}
330
56E
100
AcDbXrecord
280
     1
270
     1
271
     1
  0
XRECORD
  5
571
102
{ACAD_REACTORS
330
56E
102
}
330
56E
100
AcDbXrecord
280
     1
270
     1
271
     1
  0
CELLSTYLEMAP
  5
FC0
102
{ACAD_REACTORS
330
5C5
102
}
330
5C5
100
AcDbCellStyleMap
 90
        3
300
CELLSTYLE
  1
TABLEFORMAT_BEGIN
 90
        5
170
     1
 91
        0
 92
    32768
 62
   257
 93
        1
300
CONTENTFORMAT
  1
CONTENTFORMAT_BEGIN
 90
        0
 91
        0
 92
        4
 93
        0
300

 40
0.0
140
1.0
 94
        5
 62
     0
340
10
144
6.0
309
CONTENTFORMAT_END
171
     1
301
MARGIN
  1
CELLMARGIN_BEGIN
 40
1.5
 40
1.5
 40
1.5
 40
1.5
 40
0.18
 40
0.18
309
CELLMARGIN_END
 94
        6
 95
        1
302
GRIDFORMAT
  1
GRIDFORMAT_BEGIN
 90
        0
 91
        1
 62
     0
 92
       -2
340
0
 93
        0
 40
0.045
309
GRIDFORMAT_END
 95
        2
302
GRIDFORMAT
  1
GRIDFORMAT_BEGIN
 90
        0
 91
        1
 62
     0
 92
       -2
340
0
 93
        0
 40
0.045
309
GRIDFORMAT_END
 95
        4
302
GRIDFORMAT
  1
GRIDFORMAT_BEGIN
 90
        0
 91
        1
 62
     0
 92
       -2
340
0
 93
        0
 40
0.045
309
GRIDFORMAT_END
 95
        8
302
GRIDFORMAT
  1
GRIDFORMAT_BEGIN
 90
        0
 91
        1
 62
     0
 92
       -2
340
0
 93
        0
 40
0.045
309
GRIDFORMAT_END
 95
       16
302
GRIDFORMAT
  1
GRIDFORMAT_BEGIN
 90
        0
 91
        1
 62
     0
 92
       -2
340
0
 93
        0
 40
0.045
309
GRIDFORMAT_END
 95
       32
302
GRIDFORMAT
  1
GRIDFORMAT_BEGIN
 90
        0
 91
        1
 62
     0
 92
       -2
340
0
 93
        0
 40
0.045
309
GRIDFORMAT_END
309
TABLEFORMAT_END
  1
CELLSTYLE_BEGIN
 90
        1
 91
        1
300
_TITLE
309
CELLSTYLE_END
300
CELLSTYLE
  1
TABLEFORMAT_BEGIN
 90
        5
170
     1
 91
        0
 92
        0
 62
   257
 93
        1
300
CONTENTFORMAT
  1
CONTENTFORMAT_BEGIN
 90
        0
 91
        0
 92
        4
 93
        0
300

 40
0.0
140
1.0
 94
        5
 62
     0
340
10
144
4.5
309
CONTENTFORMAT_END
171
     1
301
MARGIN
  1
CELLMARGIN_BEGIN
 40
1.5
 40
1.5
 40
1.5
 40
1.5
 40
0.18
 40
0.18
309
CELLMARGIN_END
 94
        6
 95
        1
302
GRIDFORMAT
  1
GRIDFORMAT_BEGIN
 90
        0
 91
        1
 62
     0
 92
       -2
340
0
 93
        0
 40
0.045
309
GRIDFORMAT_END
 95
        2
302
GRIDFORMAT
  1
GRIDFORMAT_BEGIN
 90
        0
 91
        1
 62
     0
 92
       -2
340
0
 93
        0
 40
0.045
309
GRIDFORMAT_END
 95
        4
302
GRIDFORMAT
  1
GRIDFORMAT_BEGIN
 90
        0
 91
        1
 62
     0
 92
       -2
340
0
 93
        0
 40
0.045
309
GRIDFORMAT_END
 95
        8
302
GRIDFORMAT
  1
GRIDFORMAT_BEGIN
 90
        0
 91
        1
 62
     0
 92
       -2
340
0
 93
        0
 40
0.045
309
GRIDFORMAT_END
 95
       16
302
GRIDFORMAT
  1
GRIDFORMAT_BEGIN
 90
        0
 91
        1
 62
     0
 92
       -2
340
0
 93
        0
 40
0.045
309
GRIDFORMAT_END
 95
       32
302
GRIDFORMAT
  1
GRIDFORMAT_BEGIN
 90
        0
 91
        1
 62
     0
 92
       -2
340
0
 93
        0
 40
0.045
309
GRIDFORMAT_END
309
TABLEFORMAT_END
  1
CELLSTYLE_BEGIN
 90
        2
 91
        1
300
_HEADER
309
CELLSTYLE_END
300
CELLSTYLE
  1
TABLEFORMAT_BEGIN
 90
        5
170
     1
 91
        0
 92
        0
 62
   257
 93
        1
300
CONTENTFORMAT
  1
CONTENTFORMAT_BEGIN
 90
        0
 91
        0
 92
        4
 93
        0
300

 40
0.0
140
1.0
 94
        2
 62
     0
340
10
144
4.5
309
CONTENTFORMAT_END
171
     1
301
MARGIN
  1
CELLMARGIN_BEGIN
 40
1.5
 40
1.5
 40
1.5
 40
1.5
 40
0.18
 40
0.18
309
CELLMARGIN_END
 94
        6
 95
        1
302
GRIDFORMAT
  1
GRIDFORMAT_BEGIN
 90
        0
 91
        1
 62
     0
 92
       -2
340
0
 93
        0
 40
0.045
309
GRIDFORMAT_END
 95
        2
302
GRIDFORMAT
  1
GRIDFORMAT_BEGIN
 90
        0
 91
        1
 62
     0
 92
       -2
340
0
 93
        0
 40
0.045
309
GRIDFORMAT_END
 95
        4
302
GRIDFORMAT
  1
GRIDFORMAT_BEGIN
 90
        0
 91
        1
 62
     0
 92
       -2
340
0
 93
        0
 40
0.045
309
GRIDFORMAT_END
 95
        8
302
GRIDFORMAT
  1
GRIDFORMAT_BEGIN
 90
        0
 91
        1
 62
     0
 92
       -2
340
0
 93
        0
 40
0.045
309
GRIDFORMAT_END
 95
       16
302
GRIDFORMAT
  1
GRIDFORMAT_BEGIN
 90
        0
 91
        1
 62
     0
 92
       -2
340
0
 93
        0
 40
0.045
309
GRIDFORMAT_END
 95
       32
302
GRIDFORMAT
  1
GRIDFORMAT_BEGIN
 90
        0
 91
        1
 62
     0
 92
       -2
340
0
 93
        0
 40
0.045
309
GRIDFORMAT_END
309
TABLEFORMAT_END
  1
CELLSTYLE_BEGIN
 90
        3
 91
        2
300
_DATA
309
CELLSTYLE_END
  0
ENDSEC
  0
SECTION
  2
ACDSDATA
 70
     2
 71
     8
  0
ACDSSCHEMA
 90
        0
  1
AcDb_Thumbnail_Schema
  2
AcDbDs::ID
280
    10
 91
        8
  2
Thumbnail_Data
280
    15
 91
        0
101
ACDSRECORD
 95
        0
 90
        1
  2
AcDbDs::TreatedAsObjectData
280
     1
291
     1
101
ACDSRECORD
 95
        0
 90
        2
  2
AcDbDs::Legacy
280
     1
291
     1
101
ACDSRECORD
  1
AcDbDs::ID
 90
        3
  2
AcDs:Indexable
280
     1
291
     1
101
ACDSRECORD
  1
AcDbDs::ID
 90
        4
  2
AcDbDs::HandleAttribute
280
     7
282
     1
  0
ACDSSCHEMA
 90
        1
  1
AcDbDs::TreatedAsObjectDataSchema
  2
AcDbDs::TreatedAsObjectData
280
     1
 91
        0
  0
ACDSSCHEMA
 90
        2
  1
AcDbDs::LegacySchema
  2
AcDbDs::Legacy
280
     1
 91
        0
  0
ACDSSCHEMA
 90
        3
  1
AcDbDs::IndexedPropertySchema
  2
AcDs:Indexable
280
     1
 91
        0
  0
ACDSSCHEMA
 90
        4
  1
AcDbDs::HandleAttributeSchema
  2
AcDbDs::HandleAttribute
280
     7
 91
        1
284
     1
  0
ACDSRECORD
 90
        0
  2
AcDbDs::ID
280
    10
320
4BE
  2
Thumbnail_Data
280
    15
 94
     1773
310
89504E470D0A1A0A0000000D4948445200000100000000970803000000CDB8751B00000300504C5445000000FFFFFF0000000000000000000000000000000000000000000000000000000000330000660000990000CC0000FF0033000033330033660033990033CC0033FF0066000066330066660066990066CC0066FF0099
310
000099330099660099990099CC0099FF00CC0000CC3300CC6600CC9900CCCC00CCFF00FF0000FF3300FF6600FF9900FFCC00FFFF3300003300333300663300993300CC3300FF3333003333333333663333993333CC3333FF3366003366333366663366993366CC3366FF3399003399333399663399993399CC3399FF33CC00
310
33CC3333CC6633CC9933CCCC33CCFF33FF0033FF3333FF6633FF9933FFCC33FFFF6600006600336600666600996600CC6600FF6633006633336633666633996633CC6633FF6666006666336666666666996666CC6666FF6699006699336699666699996699CC6699FF66CC0066CC3366CC6666CC9966CCCC66CCFF66FF0066
310
FF3366FF6666FF9966FFCC66FFFF9900009900339900669900999900CC9900FF9933009933339933669933999933CC9933FF9966009966339966669966999966CC9966FF9999009999339999669999999999CC9999FF99CC0099CC3399CC6699CC9999CCCC99CCFF99FF0099FF3399FF6699FF9999FFCC99FFFFCC0000CC00
310
33CC0066CC0099CC00CCCC00FFCC3300CC3333CC3366CC3399CC33CCCC33FFCC6600CC6633CC6666CC6699CC66CCCC66FFCC9900CC9933CC9966CC9999CC99CCCC99FFCCCC00CCCC33CCCC66CCCC99CCCCCCCCCCFFCCFF00CCFF33CCFF66CCFF99CCFFCCCCFFFFFF0000FF0033FF0066FF0099FF00CCFF00FFFF3300FF3333
310
FF3366FF3399FF33CCFF33FFFF6600FF6633FF6666FF6699FF66CCFF66FFFF9900FF9933FF9966FF9999FF99CCFF99FFFFCC00FFCC33FFCC66FFCC99FFCCCCFFCCFFFFFF00FFFF33FFFF66FFFF99FFFFCCFFFFFF0000000D0D0D1A1A1A2828283535354343435050505D5D5D6B6B6B787878868686939393A1A1A1AEAEAEBB
310
BBBBC9C9C9D6D6D6E4E4E4F1F1F1FFFFFF0000000000000000000000000000000000000000000000000000000000003AE5ACE9000003914944415478DAED9D5D96A4200C85B30AD6C00B5BAA95B3039E799F5251834015F6544D4F929B73DA42B1EDCE670C3F572DA2DF3747C60D00547B97BA7EA6340090FA35C93880240F
310
C063B794F6927B3C3A5B9B8A5E0DDF2A0580B8030300007C34F57D0F80887C98BE0720896811CC03400E0000E3009C73020F8D08000000000000000000000000000000000000F83BC39418007C1100720000000000000000000000E801E04D0388318617A61CC0D3FB12015BE96A417904C4D5F1E8E3EA7EB406E0E9F476DA
310
7DB5A602C08C847B3AEC4F20EF01A8518799B7BEB34DFD25C07DF53422A01740E5A9A7110100D00AA0F6D30F6BB402B89C673FAC0300005009E0E2FFD215EED7661300421801C8395B001083AF4601FA01F8AB85668BAD08883EA88B80D7DAE00500F918E673800671B46D05C2E92A6F04BA0048813ADCF6034E5FDFF50354
310
A8C32D807010B0DA13CCA6BAC2E64783980F0000F373827C56FC00102DCD0A17598801E88943EA952162DA20695286E6B5412ADA2019D40637EFE31A01D1A63A5C2018BE3FA0ED097EF4C0FFD85C65DF0270FBE8022280944400000000000000000080E18ED0F4FF192FE62FEB2F3AC22A00347744FAA67E381452797F4003
310
20927200D7B1BF1F5401805C00EF9F1C1D0923ACA2278D4AD1063F01200F0090926787FBC24815008223604A17F8190055BA400B80610100ED003A0F4CBC57060140D568F02A8E4E48A3DAA4312E8EB6D2A07E0014C2391C9ED285D401601110EC4C880040F72A0700A300F266CA00CCEAB73F00A0EBCDD2CF96AE00E8B779
310
C801DA01FC4F07060000000000000000000000000000F880997FAF3000E0CDD24882000000000000006019C00D738F47DABE8FDC4DEC2D2802D26E4791D872AF5ABE637EFD7C2EDC2194D426F412E05E26EE74AA09B8838F2200EE96ED3466F615130125F49F2CB673B82C96D21EF0DBE95E14A1EA12D0D30A9C00AAB02EEE
310
166FF3A288D5008E1D0BB04C022F8125524F004B6467B72F38802D363A4990320D92802075F8CC71351C3A331E850DC0BEEF040041ADC00480402D00E6F9B122BC157895DC7376374D84FBF766846EB50222DF27983A360690F71693FD94DC20664A2C5597EA1BFF9B66903283B00129DB33519293045F02A822E0D8E8889D
310
F1D5F5F5457BABE32504440E871BE75F00485487FE01A0FCAAC6F900D729F5929F2C00BB253EEC9F5FF06275142900583EAC4EEFEC8217A5B47DA3D0FDD908B9EEF5C8F5FF5E0E306A00F09B7FFC0F2B0F47B82DEE2EA40000000049454E44AE42608205FB0309CC36EA66D5D7000000000049454E44AE426082
  0
ENDSEC
  0
EOF
